  0
SECTION
  2
HEADER
  9
$ACADVER
  1
AC1021
  9
$ACADMAINTVER
 70
    25
  9
$DWGCODEPAGE
  3
ANSI_1252
  9
$INSBASE
 10
0.0
 20
0.0
 30
0.0
  9
$EXTMIN
 10
-19.64565103593227
 20
-9.882677367814516
 30
-0.1333333333333333
  9
$EXTMAX
 10
5.455669636949801
 20
9.075639366823092
 30
0.1333333333333333
  9
$LIMMIN
 10
0.0
 20
0.0
  9
$LIMMAX
 10
0.0
 20
0.0
  9
$ORTHOMODE
 70
     0
  9
$REGENMODE
 70
     1
  9
$FILLMODE
 70
     1
  9
$QTEXTMODE
 70
     0
  9
$MIRRTEXT
 70
     1
  9
$LTSCALE
 40
1.25
  9
$ATTMODE
 70
     1
  9
$TEXTSIZE
 40
0.2
  9
$TRACEWID
 40
1.0
  9
$TEXTSTYLE
  7
Standard
  9
$CLAYER
  8
None
  9
$CELTYPE
  6
Continuous
  9
$CECOLOR
 62
   256
  9
$CELTSCALE
 40
1.0
  9
$DISPSILH
 70
     0
  9
$DIMSCALE
 40
1.0
  9
$DIMASZ
 40
0.3125
  9
$DIMEXO
 40
0.1476377952755905
  9
$DIMDLI
 40
0.2755905511811
  9
$DIMRND
 40
0.0
  9
$DIMDLE
 40
0.0
  9
$DIMEXE
 40
0.19685039370075
  9
$DIMTP
 40
0.0
  9
$DIMTM
 40
0.0
  9
$DIMTXT
 40
0.1992580384816239
  9
$DIMCEN
 40
0.0
  9
$DIMTSZ
 40
0.0
  9
$DIMTOL
 70
     0
  9
$DIMLIM
 70
     0
  9
$DIMTIH
 70
     0
  9
$DIMTOH
 70
     0
  9
$DIMSE1
 70
     0
  9
$DIMSE2
 70
     0
  9
$DIMTAD
 70
     1
  9
$DIMZIN
 70
     7
  9
$DIMBLK
  1
VW_FILLEDARROW
  9
$DIMASO
 70
     1
  9
$DIMSHO
 70
     1
  9
$DIMPOST
  1
<>
  9
$DIMAPOST
  1
[]
  9
$DIMALT
 70
     0
  9
$DIMALTD
 70
     1
  9
$DIMALTF
 40
25.4
  9
$DIMLFAC
 40
1.0
  9
$DIMTOFL
 70
     1
  9
$DIMTVP
 40
0.0
  9
$DIMTIX
 70
     1
  9
$DIMSOXD
 70
     0
  9
$DIMSAH
 70
     0
  9
$DIMBLK1
  1

  9
$DIMBLK2
  1

  9
$DIMSTYLE
  2
PLACID-1
  9
$DIMCLRD
 70
     0
  9
$DIMCLRE
 70
     0
  9
$DIMCLRT
 70
     0
  9
$DIMTFAC
 40
1.0
  9
$DIMGAP
 40
0.0393700787402
  9
$DIMJUST
 70
     0
  9
$DIMSD1
 70
     0
  9
$DIMSD2
 70
     0
  9
$DIMTOLJ
 70
     1
  9
$DIMTZIN
 70
     7
  9
$DIMALTZ
 70
    11
  9
$DIMALTTZ
 70
    11
  9
$DIMUPT
 70
     0
  9
$DIMDEC
 70
     3
  9
$DIMTDEC
 70
     3
  9
$DIMALTU
 70
     2
  9
$DIMALTTD
 70
     2
  9
$DIMTXSTY
  7
Helvetica
  9
$DIMAUNIT
 70
     0
  9
$DIMADEC
 70
     2
  9
$DIMALTRND
 40
0.0
  9
$DIMAZIN
 70
     0
  9
$DIMDSEP
 70
    46
  9
$DIMATFIT
 70
     0
  9
$DIMFRAC
 70
     2
  9
$DIMLDRBLK
  1

  9
$DIMLUNIT
 70
     2
  9
$DIMLWD
 70
    -2
  9
$DIMLWE
 70
    -2
  9
$DIMTMOVE
 70
     0
  9
$DIMFXL
 40
1.0
  9
$DIMFXLON
 70
     0
  9
$DIMJOGANG
 40
0.7853981633974483
  9
$DIMTFILL
 70
     0
  9
$DIMTFILLCLR
 70
     0
  9
$DIMARCSYM
 70
     0
  9
$DIMLTYPE
  6

  9
$DIMLTEX1
  6

  9
$DIMLTEX2
  6

  9
$LUNITS
 70
     2
  9
$LUPREC
 70
     4
  9
$SKETCHINC
 40
0.1
  9
$FILLETRAD
 40
0.0
  9
$AUNITS
 70
     0
  9
$AUPREC
 70
     0
  9
$MENU
  1
acad
  9
$ELEVATION
 40
0.0
  9
$PELEVATION
 40
0.0
  9
$THICKNESS
 40
0.0
  9
$LIMCHECK
 70
     0
  9
$CHAMFERA
 40
0.0
  9
$CHAMFERB
 40
0.0
  9
$CHAMFERC
 40
0.0
  9
$CHAMFERD
 40
0.0
  9
$SKPOLY
 70
     0
  9
$TDCREATE
 40
0.0
  9
$TDUCREATE
 40
0.0
  9
$TDUPDATE
 40
0.0
  9
$TDUUPDATE
 40
0.0
  9
$TDINDWG
 40
0.0
  9
$TDUSRTIMER
 40
0.0
  9
$USRTIMER
 70
     1
  9
$ANGBASE
 50
0.0
  9
$ANGDIR
 70
     0
  9
$PDMODE
 70
     1
  9
$PDSIZE
 40
-2.0
  9
$PLINEWID
 40
0.0
  9
$SPLFRAME
 70
     0
  9
$SPLINETYPE
 70
     6
  9
$SPLINESEGS
 70
     8
  9
$HANDSEED
  5
5D2
  9
$SURFTAB1
 70
     6
  9
$SURFTAB2
 70
     6
  9
$SURFTYPE
 70
     6
  9
$SURFU
 70
     6
  9
$SURFV
 70
     6
  9
$UCSBASE
  2

  9
$UCSNAME
  2

  9
$UCSORG
 10
0.0
 20
0.0
 30
0.0
  9
$UCSXDIR
 10
1.0
 20
0.0
 30
0.0
  9
$UCSYDIR
 10
0.0
 20
1.0
 30
0.0
  9
$UCSORTHOREF
  2

  9
$UCSORTHOVIEW
 70
     0
  9
$UCSORGTOP
 10
0.0
 20
0.0
 30
0.0
  9
$UCSORGBOTTOM
 10
0.0
 20
0.0
 30
0.0
  9
$UCSORGLEFT
 10
0.0
 20
0.0
 30
0.0
  9
$UCSORGRIGHT
 10
0.0
 20
0.0
 30
0.0
  9
$UCSORGFRONT
 10
0.0
 20
0.0
 30
0.0
  9
$UCSORGBACK
 10
0.0
 20
0.0
 30
0.0
  9
$PUCSBASE
  2

  9
$PUCSNAME
  2

  9
$PUCSORG
 10
0.0
 20
0.0
 30
0.0
  9
$PUCSXDIR
 10
1.0
 20
0.0
 30
0.0
  9
$PUCSYDIR
 10
0.0
 20
1.0
 30
0.0
  9
$PUCSORTHOREF
  2

  9
$PUCSORTHOVIEW
 70
     0
  9
$PUCSORGTOP
 10
0.0
 20
0.0
 30
0.0
  9
$PUCSORGBOTTOM
 10
0.0
 20
0.0
 30
0.0
  9
$PUCSORGLEFT
 10
0.0
 20
0.0
 30
0.0
  9
$PUCSORGRIGHT
 10
0.0
 20
0.0
 30
0.0
  9
$PUCSORGFRONT
 10
0.0
 20
0.0
 30
0.0
  9
$PUCSORGBACK
 10
0.0
 20
0.0
 30
0.0
  9
$USERI1
 70
     0
  9
$USERI2
 70
     0
  9
$USERI3
 70
     0
  9
$USERI4
 70
     0
  9
$USERI5
 70
     0
  9
$USERR1
 40
0.0
  9
$USERR2
 40
0.0
  9
$USERR3
 40
0.0
  9
$USERR4
 40
0.0
  9
$USERR5
 40
0.0
  9
$WORLDVIEW
 70
     1
  9
$SHADEDGE
 70
     3
  9
$SHADEDIF
 70
    70
  9
$TILEMODE
 70
     1
  9
$MAXACTVP
 70
    64
  9
$PINSBASE
 10
0.0
 20
0.0
 30
0.0
  9
$PLIMCHECK
 70
     0
  9
$PEXTMIN
 10
1.000000000000000E+20
 20
1.000000000000000E+20
 30
1.000000000000000E+20
  9
$PEXTMAX
 10
-1.000000000000000E+20
 20
-1.000000000000000E+20
 30
-1.000000000000000E+20
  9
$PLIMMIN
 10
0.0
 20
0.0
  9
$PLIMMAX
 10
12.0
 20
9.0
  9
$UNITMODE
 70
     0
  9
$VISRETAIN
 70
     0
  9
$PLINEGEN
 70
     1
  9
$PSLTSCALE
 70
     0
  9
$TREEDEPTH
 70
  3020
  9
$CMLSTYLE
  2
Standard
  9
$CMLJUST
 70
     0
  9
$CMLSCALE
 40
1.0
  9
$PROXYGRAPHICS
 70
     0
  9
$MEASUREMENT
 70
     0
  9
$CELWEIGHT
370
     0
  9
$ENDCAPS
280
     0
  9
$JOINSTYLE
280
     0
  9
$LWDISPLAY
290
     1
  9
$INSUNITS
 70
     1
  9
$HYPERLINKBASE
  1

  9
$STYLESHEET
  1

  9
$XEDIT
290
     1
  9
$CEPSNTYPE
380
     0
  9
$PSTYLEMODE
290
     1
  9
$FINGERPRINTGUID
  2

  9
$VERSIONGUID
  2

  9
$EXTNAMES
290
     1
  9
$PSVPSCALE
 40
0.0
  9
$OLESTARTUP
290
     0
  9
$SORTENTS
280
   127
  9
$INDEXCTL
280
     0
  9
$HIDETEXT
280
     1
  9
$XCLIPFRAME
290
     0
  9
$HALOGAP
280
     0
  9
$OBSCOLOR
 70
   257
  9
$OBSLTYPE
280
     0
  9
$INTERSECTIONDISPLAY
280
     0
  9
$INTERSECTIONCOLOR
 70
   257
  9
$DIMASSOC
280
     2
  9
$PROJECTNAME
  1

  9
$CAMERADISPLAY
290
     0
  9
$LENSLENGTH
 40
50.0
  9
$CAMERAHEIGHT
 40
0.0
  9
$STEPSPERSEC
 40
2.0
  9
$STEPSIZE
 40
6.0
  9
$3DDWFPREC
 40
2.0
  9
$PSOLWIDTH
 40
0.25
  9
$PSOLHEIGHT
 40
4.0
  9
$LOFTANG1
 40
1.570796326794897
  9
$LOFTANG2
 40
1.570796326794897
  9
$LOFTMAG1
 40
0.0
  9
$LOFTMAG2
 40
0.0
  9
$LOFTPARAM
 70
     7
  9
$LOFTNORMALS
280
     1
  9
$LATITUDE
 40
37.795
  9
$LONGITUDE
 40
-122.394
  9
$NORTHDIRECTION
 40
0.0
  9
$TIMEZONE
 70
 -8000
  9
$LIGHTGLYPHDISPLAY
280
     1
  9
$TILEMODELIGHTSYNCH
280
     1
  9
$SOLIDHIST
280
     1
  9
$SHOWHIST
280
     1
  9
$DWFFRAME
280
     2
  9
$DGNFRAME
280
     2
  9
$REALWORLDSCALE
290
     1
  9
$INTERFERECOLOR
 62
   256
  9
$CSHADOW
280
     0
  9
$SHADOWPLANELOCATION
 40
0.0
  0
ENDSEC
  0
SECTION
  2
CLASSES
  0
CLASS
  1
LWPOLYLINE
  2
AcDbPolyline
  3
AutoCAD 2000
 90
        0
 91
        1
280
     0
281
     1
  0
CLASS
  1
IMAGE
  2
AcDbRasterImage
  3
ISM
 90
      127
 91
        5
280
     0
281
     1
  0
CLASS
  1
OLE2FRAME
  2
AcDbOle2Frame
  3
AutoCAD 2000
 90
        0
 91
        1
280
     0
281
     1
  0
CLASS
  1
HATCH
  2
AcDbHatch
  3
AutoCAD 2000
 90
        0
 91
        1
280
     0
281
     1
  0
CLASS
  1
DICTIONARYVAR
  2
AcDbDictionaryVar
  3
ObjectDBX Classes
 90
        0
 91
        4
280
     0
281
     0
  0
CLASS
  1
RASTERVARIABLES
  2
AcDbRasterVariables
  3
ISM
 90
        0
 91
        4
280
     0
281
     0
  0
CLASS
  1
IMAGEDEF
  2
AcDbRasterImageDef
  3
ISM
 90
        0
 91
        4
280
     0
281
     0
  0
CLASS
  1
IMAGEDEF_REACTOR
  2
AcDbRasterImageDefReactor
  3
ISM
 90
        1
 91
        4
280
     0
281
     0
  0
CLASS
  1
IDBUFFER
  2
AcDbIdBuffer
  3
ObjectDBX Classes
 90
        0
 91
        4
280
     0
281
     0
  0
CLASS
  1
SPATIAL_FILTER
  2
AcDbSpatialFilter
  3
ObjectDBX Classes
 90
        0
 91
        4
280
     0
281
     0
  0
CLASS
  1
XRECORD
  2
AcDbXrecord
  3
AutoCAD 2000
 90
        0
 91
        1
280
     0
281
     0
  0
CLASS
  1
SORTENTSTABLE
  2
AcDbSortentsTable
  3
ObjectDBX Classes
 90
        0
 91
        4
280
     0
281
     0
  0
CLASS
  1
LAYER_INDEX
  2
AcDbLayerIndex
  3
ObjectDBX Classes
 90
        0
 91
        4
280
     0
281
     0
  0
CLASS
  1
SPATIAL_INDEX
  2
AcDbSpatialIndex
  3
AutoCAD 2000
 90
        0
 91
        4
280
     0
281
     0
  0
CLASS
  1
OBJECT_PTR
  2
CAseDLPNTableRecord
  3
ASE-LPNTableRecord
 90
        1
 91
        4
280
     0
281
     0
  0
CLASS
  1
LAYOUT
  2
AcDbLayout
  3
ObjectDBX Classes
 90
        0
 91
        1
280
     0
281
     0
  0
CLASS
  1
PLOTSETTINGS
  2
AcDbPlotSettings
  3
ObjectDBX Classes
 90
        0
 91
        4
280
     0
281
     0
  0
CLASS
  1
ACDBDICTIONARYWDFLT
  2
AcDbDictionaryWithDefault
  3
ObjectDBX Classes
 90
        0
 91
        4
280
     0
281
     0
  0
CLASS
  1
ACDBPLACEHOLDER
  2
AcDbPlaceHolder
  3
ObjectDBX Classes
 90
        0
 91
        1
280
     0
281
     0
  0
CLASS
  1
SCALE
  2
AcDbScale
  3
ObjectDBX Classes
 90
     1153
 91
        4
280
     0
281
     0
  0
ENDSEC
  0
SECTION
  2
TABLES
  0
TABLE
  2
VPORT
  5
7
330
0
100
AcDbSymbolTable
 70
     1
  0
VPORT
  5
15
330
7
100
AcDbSymbolTableRecord
100
AcDbViewportTableRecord
  2
*ACTIVE
 70
     0
 10
0.0
 20
0.0
 11
1.0
 21
1.0
 12
-7.094990699491238
 22
-0.403519000495713
 13
0.0
 23
0.0
 14
1.0
 24
1.0
 15
0.0
 25
0.0
 16
0.0
 26
0.0
 36
1.0
 17
0.0
 27
0.0
 37
0.0
 40
18.95831673463761
 41
0.688564
 42
50.0
 43
0.0
 44
0.0
 50
0.0
 51
0.0
 71
     0
 72
  2000
 73
     1
 74
     1
 75
     0
 76
     0
 77
     0
 78
     0
281
     0
 65
     0
110
0.0
120
0.0
130
0.0
111
1.0
121
0.0
131
0.0
112
0.0
122
1.0
132
0.0
 79
     0
146
0.0
 60
     3
 61
     5
292
     1
282
     1
141
0.0
142
0.0
 63
   256
  0
ENDTAB
  0
TABLE
  2
LTYPE
  5
4
330
0
100
AcDbSymbolTable
 70
    16
  0
LTYPE
  5
11
330
4
100
AcDbSymbolTableRecord
100
AcDbLinetypeTableRecord
  2
ByBlock
 70
     0
  3

 72
    65
 73
     0
 40
0.0
  0
LTYPE
  5
12
330
4
100
AcDbSymbolTableRecord
100
AcDbLinetypeTableRecord
  2
ByLayer
 70
     0
  3

 72
    65
 73
     0
 40
0.0
  0
LTYPE
  5
13
330
4
100
AcDbSymbolTableRecord
100
AcDbLinetypeTableRecord
  2
Continuous
 70
     0
  3
Solid line
 72
    65
 73
     0
 40
0.0
  0
LTYPE
  5
6B
330
4
100
AcDbSymbolTableRecord
100
AcDbLinetypeTableRecord
  2
STYLE_01
 70
     0
  3

 72
    65
 73
     4
 40
0.1574803149606299
 49
0.0984251968503937
 74
     0
 49
-0.0196850393700787
 74
     0
 49
0.0196850393700787
 74
     0
 49
-0.0196850393700787
 74
     0
  0
LTYPE
  5
6C
330
4
100
AcDbSymbolTableRecord
100
AcDbLinetypeTableRecord
  2
STYLE_02
 70
     0
  3

 72
    65
 73
     2
 40
0.27777
 49
0.194428
 74
     0
 49
-0.083342
 74
     0
  0
LTYPE
  5
6D
330
4
100
AcDbSymbolTableRecord
100
AcDbLinetypeTableRecord
  2
STYLE_03
 70
     0
  3

 72
    65
 73
     2
 40
0.5
 49
0.416656
 74
     0
 49
-0.083344
 74
     0
  0
LTYPE
  5
6E
330
4
100
AcDbSymbolTableRecord
100
AcDbLinetypeTableRecord
  2
STYLE_04
 70
     0
  3

 72
    65
 73
     2
 40
0.611084
 49
0.52777
 74
     0
 49
-0.083314
 74
     0
  0
LTYPE
  5
6F
330
4
100
AcDbSymbolTableRecord
100
AcDbLinetypeTableRecord
  2
STYLE_05
 70
     0
  3

 72
    65
 73
     2
 40
0.083312
 49
0.02777
 74
     0
 49
-0.055542
 74
     0
  0
LTYPE
  5
70
330
4
100
AcDbSymbolTableRecord
100
AcDbLinetypeTableRecord
  2
STYLE_06
 70
     0
  3

 72
    65
 73
     4
 40
0.416656
 49
0.25
 74
     0
 49
-0.083312
 74
     0
 49
0.027772
 74
     0
 49
-0.055572
 74
     0
  0
LTYPE
  5
71
330
4
100
AcDbSymbolTableRecord
100
AcDbLinetypeTableRecord
  2
STYLE_07
 70
     0
  3

 72
    65
 73
     6
 40
0.75
 49
0.25
 74
     0
 49
-0.083312
 74
     0
 49
0.2500000000000001
 74
     0
 49
-0.083344
 74
     0
 49
0.027772
 74
     0
 49
-0.055572
 74
     0
  0
LTYPE
  5
72
330
4
100
AcDbSymbolTableRecord
100
AcDbLinetypeTableRecord
  2
STYLE_08
 70
     0
  3

 72
    65
 73
     6
 40
0.5
 49
0.25
 74
     0
 49
-0.083312
 74
     0
 49
0.027772
 74
     0
 49
-0.055572
 74
     0
 49
0.027772
 74
     0
 49
-0.055572
 74
     0
  0
LTYPE
  5
73
330
4
100
AcDbSymbolTableRecord
100
AcDbLinetypeTableRecord
  2
STYLE_09
 70
     0
  3

 72
    65
 73
     4
 40
2.0
 49
1.5
 74
     0
 49
-0.1111139999999999
 74
     0
 49
0.2777720000000001
 74
     0
 49
-0.1111139999999999
 74
     0
  0
LTYPE
  5
74
330
4
100
AcDbSymbolTableRecord
100
AcDbLinetypeTableRecord
  2
STYLE_10
 70
     0
  3

 72
    65
 73
     6
 40
2.375
 49
1.5
 74
     0
 49
-0.1111139999999999
 74
     0
 49
0.2777720000000001
 74
     0
 49
-0.1111139999999999
 74
     0
 49
0.25
 74
     0
 49
-0.125
 74
     0
  0
LTYPE
  5
75
330
4
100
AcDbSymbolTableRecord
100
AcDbLinetypeTableRecord
  2
STYLE_11
 70
     0
  3

 72
    65
 73
     4
 40
0.7999999999999999
 49
0.5
 74
     0
 49
-0.1
 74
     0
 49
0.1
 74
     0
 49
-0.1
 74
     0
  0
LTYPE
  5
76
330
4
100
AcDbSymbolTableRecord
100
AcDbLinetypeTableRecord
  2
STYLE_12
 70
     0
  3

 72
    65
 73
     2
 40
0.166656
 49
0.083312
 74
     0
 49
-0.083344
 74
     0
  0
LTYPE
  5
77
330
4
100
AcDbSymbolTableRecord
100
AcDbLinetypeTableRecord
  2
STYLE_13
 70
     0
  3

 72
    65
 73
     4
 40
1.333333333333333
 49
0.8333333333333334
 74
     0
 49
-0.1666666666666666
 74
     0
 49
0.1666666666666667
 74
     0
 49
-0.1666666666666667
 74
     0
  0
LTYPE
  5
78
330
4
100
AcDbSymbolTableRecord
100
AcDbLinetypeTableRecord
  2
STYLE_14
 70
     0
  3

 72
    65
 73
     2
 40
0.5
 49
0.3333333333333333
 74
     0
 49
-0.1666666666666667
 74
     0
  0
LTYPE
  5
79
330
4
100
AcDbSymbolTableRecord
100
AcDbLinetypeTableRecord
  2
STYLE_15
 70
     0
  3

 72
    65
 73
     4
 40
0.7500000000000001
 49
0.5
 74
     0
 49
-0.0833333333333334
 74
     0
 49
0.0833333333333334
 74
     0
 49
-0.0833333333333334
 74
     0
  0
ENDTAB
  0
TABLE
  2
LAYER
  5
2
330
0
100
AcDbSymbolTable
 70
     9
  0
LAYER
  5
14
330
2
100
AcDbSymbolTableRecord
100
AcDbLayerTableRecord
  2
0
 70
     0
 62
     7
  6
Continuous
370
    15
390
1D
347
0
  0
LAYER
  5
7A
330
2
100
AcDbSymbolTableRecord
100
AcDbLayerTableRecord
  2
None
 70
     0
 62
     7
  6
Continuous
370
     9
390
1D
347
0
  0
LAYER
  5
7B
330
2
100
AcDbSymbolTableRecord
100
AcDbLayerTableRecord
  2
Dimension
 70
     0
 62
     7
  6
Continuous
370
     9
390
1D
347
0
  0
LAYER
  5
7C
330
2
100
AcDbSymbolTableRecord
100
AcDbLayerTableRecord
  2
PLB-050-30Tw~
 70
     0
 62
     7
  6
Continuous
370
    15
390
1D
347
0
  0
LAYER
  5
7D
330
2
100
AcDbSymbolTableRecord
100
AcDbLayerTableRecord
  2
~-B
 70
     0
 62
     7
  6
Continuous
370
    15
390
1D
347
0
  0
LAYER
  5
7E
330
2
100
AcDbSymbolTableRecord
100
AcDbLayerTableRecord
  2
DRAWING
 70
     0
 62
     7
  6
Continuous
370
    15
390
1D
347
0
  0
LAYER
  5
7F
330
2
100
AcDbSymbolTableRecord
100
AcDbLayerTableRecord
  2
R
 70
     0
 62
     7
  6
Continuous
370
    15
390
1D
347
0
  0
LAYER
  5
80
330
2
100
AcDbSymbolTableRecord
100
AcDbLayerTableRecord
  2
PLB-Tw~
 70
     0
 62
     7
  6
Continuous
370
    15
390
1D
347
0
  0
LAYER
  5
81
330
2
100
AcDbSymbolTableRecord
100
AcDbLayerTableRecord
  2
Defpoints
 70
     0
 62
     7
  6
Continuous
290
     0
370
    -3
390
1D
347
0
  0
ENDTAB
  0
TABLE
  2
STYLE
  5
3
330
0
100
AcDbSymbolTable
 70
     3
  0
STYLE
  5
17
330
3
100
AcDbSymbolTableRecord
100
AcDbTextStyleTableRecord
  2
Standard
 70
     0
 40
0.0
 41
1.0
 50
0.0
 71
     0
 42
0.0
  3
txt
  4

  0
STYLE
  5
69
330
3
100
AcDbSymbolTableRecord
100
AcDbTextStyleTableRecord
  2
Helvetica
 70
     0
 40
0.0
 41
1.0
 50
0.0
 71
     0
 42
0.0
  3
Helvetica
  4

1001
ACAD
1000
Helvetica
1071
        0
  0
STYLE
  5
6A
330
3
100
AcDbSymbolTableRecord
100
AcDbTextStyleTableRecord
  2
Optima
 70
     0
 40
0.0
 41
1.0
 50
0.0
 71
     0
 42
0.0
  3
Optima
  4

1001
ACAD
1000
Optima
1071
        0
  0
ENDTAB
  0
TABLE
  2
VIEW
  5
5
330
0
100
AcDbSymbolTable
 70
     0
  0
ENDTAB
  0
TABLE
  2
UCS
  5
6
330
0
100
AcDbSymbolTable
 70
     0
  0
ENDTAB
  0
TABLE
  2
APPID
  5
8
330
0
100
AcDbSymbolTable
 70
     1
  0
APPID
  5
16
330
8
100
AcDbSymbolTableRecord
100
AcDbRegAppTableRecord
  2
ACAD
 70
     0
  0
ENDTAB
  0
TABLE
  2
DIMSTYLE
  5
9
330
0
100
AcDbSymbolTable
 70
     3
100
AcDbDimStyleTable
  0
DIMSTYLE
105
18
330
9
100
AcDbSymbolTableRecord
100
AcDbDimStyleTableRecord
  2
Standard
 70
     0
340
17
  0
DIMSTYLE
105
8B
330
9
100
AcDbSymbolTableRecord
100
AcDbDimStyleTableRecord
  2
Placid
 70
     0
  3
<>
  4
[]
 41
0.3125
 42
0.125
 43
0.27559
 44
0.19685
 78
     7
140
0.1992580384816239
141
0.0
147
0.0
171
     1
172
     1
174
     1
179
     2
271
     3
272
     3
276
     2
284
     7
285
    11
286
    11
289
     0
340
69
341
82
342
82
  0
DIMSTYLE
105
8C
330
9
100
AcDbSymbolTableRecord
100
AcDbDimStyleTableRecord
  2
PLACID-1
 70
     0
  3
<>
  4
[]
 41
0.3125
 42
0.1476377952755905
 43
0.2755905511811
 44
0.19685039370075
 73
     0
 74
     0
 77
     1
 78
     7
140
0.1992580384816239
141
0.0
147
0.0393700787402
171
     1
172
     1
174
     1
179
     2
271
     3
272
     3
276
     2
284
     7
285
    11
286
    11
289
     0
340
69
341
82
342
82
  0
ENDTAB
  0
TABLE
  2
BLOCK_RECORD
  5
1
330
0
100
AcDbSymbolTable
 70
    71
  0
BLOCK_RECORD
  5
A
330
1
100
AcDbSymbolTableRecord
100
AcDbBlockTableRecord
  2
*MODEL_SPACE
340
20
 70
     0
280
     1
281
     0
  0
BLOCK_RECORD
  5
B
330
1
100
AcDbSymbolTableRecord
100
AcDbBlockTableRecord
  2
*PAPER_SPACE
340
21
 70
     0
280
     1
281
     0
  0
BLOCK_RECORD
  5
82
330
1
100
AcDbSymbolTableRecord
100
AcDbBlockTableRecord
  2
VW_FILLEDARROW
340
0
 70
     0
280
     1
281
     0
  0
BLOCK_RECORD
  5
23
330
1
100
AcDbSymbolTableRecord
100
AcDbBlockTableRecord
  2
*D1
340
0
 70
     0
280
     1
281
     0
  0
BLOCK_RECORD
  5
24
330
1
100
AcDbSymbolTableRecord
100
AcDbBlockTableRecord
  2
*D2
340
0
 70
     0
280
     1
281
     0
  0
BLOCK_RECORD
  5
25
330
1
100
AcDbSymbolTableRecord
100
AcDbBlockTableRecord
  2
*D3
340
0
 70
     0
280
     1
281
     0
  0
BLOCK_RECORD
  5
26
330
1
100
AcDbSymbolTableRecord
100
AcDbBlockTableRecord
  2
*D4
340
0
 70
     0
280
     1
281
     0
  0
BLOCK_RECORD
  5
27
330
1
100
AcDbSymbolTableRecord
100
AcDbBlockTableRecord
  2
*D5
340
0
 70
     0
280
     1
281
     0
  0
BLOCK_RECORD
  5
28
330
1
100
AcDbSymbolTableRecord
100
AcDbBlockTableRecord
  2
Group
340
0
102
{BLKREFS
331
133
102
}
 70
     0
280
     1
281
     0
  0
BLOCK_RECORD
  5
29
330
1
100
AcDbSymbolTableRecord
100
AcDbBlockTableRecord
  2
Group-1
340
0
102
{BLKREFS
331
134
102
}
 70
     0
280
     1
281
     0
  0
BLOCK_RECORD
  5
2A
330
1
100
AcDbSymbolTableRecord
100
AcDbBlockTableRecord
  2
Group-2
340
0
102
{BLKREFS
331
135
102
}
 70
     0
280
     1
281
     0
  0
BLOCK_RECORD
  5
2B
330
1
100
AcDbSymbolTableRecord
100
AcDbBlockTableRecord
  2
Group-3
340
0
102
{BLKREFS
331
136
102
}
 70
     0
280
     1
281
     0
  0
BLOCK_RECORD
  5
2C
330
1
100
AcDbSymbolTableRecord
100
AcDbBlockTableRecord
  2
Group-4
340
0
102
{BLKREFS
331
137
102
}
 70
     0
280
     1
281
     0
  0
BLOCK_RECORD
  5
2D
330
1
100
AcDbSymbolTableRecord
100
AcDbBlockTableRecord
  2
Group-5
340
0
102
{BLKREFS
331
138
102
}
 70
     0
280
     1
281
     0
  0
BLOCK_RECORD
  5
2E
330
1
100
AcDbSymbolTableRecord
100
AcDbBlockTableRecord
  2
Group-6
340
0
102
{BLKREFS
331
50A
102
}
 70
     0
280
     1
281
     0
  0
BLOCK_RECORD
  5
2F
330
1
100
AcDbSymbolTableRecord
100
AcDbBlockTableRecord
  2
Group-7
340
0
102
{BLKREFS
331
183
102
}
 70
     0
280
     1
281
     0
  0
BLOCK_RECORD
  5
30
330
1
100
AcDbSymbolTableRecord
100
AcDbBlockTableRecord
  2
Group-8
340
0
102
{BLKREFS
331
184
102
}
 70
     0
280
     1
281
     0
  0
BLOCK_RECORD
  5
31
330
1
100
AcDbSymbolTableRecord
100
AcDbBlockTableRecord
  2
Group-9
340
0
102
{BLKREFS
331
185
102
}
 70
     0
280
     1
281
     0
  0
BLOCK_RECORD
  5
32
330
1
100
AcDbSymbolTableRecord
100
AcDbBlockTableRecord
  2
Group-10
340
0
102
{BLKREFS
331
186
102
}
 70
     0
280
     1
281
     0
  0
BLOCK_RECORD
  5
33
330
1
100
AcDbSymbolTableRecord
100
AcDbBlockTableRecord
  2
Group-11
340
0
102
{BLKREFS
331
187
102
}
 70
     0
280
     1
281
     0
  0
BLOCK_RECORD
  5
34
330
1
100
AcDbSymbolTableRecord
100
AcDbBlockTableRecord
  2
Group-12
340
0
102
{BLKREFS
331
188
102
}
 70
     0
280
     1
281
     0
  0
BLOCK_RECORD
  5
35
330
1
100
AcDbSymbolTableRecord
100
AcDbBlockTableRecord
  2
Group-13
340
0
102
{BLKREFS
331
50B
102
}
 70
     0
280
     1
281
     0
  0
BLOCK_RECORD
  5
36
330
1
100
AcDbSymbolTableRecord
100
AcDbBlockTableRecord
  2
Group-14
340
0
102
{BLKREFS
331
192
102
}
 70
     0
280
     1
281
     0
  0
BLOCK_RECORD
  5
37
330
1
100
AcDbSymbolTableRecord
100
AcDbBlockTableRecord
  2
Group-15
340
0
102
{BLKREFS
331
529
102
}
 70
     0
280
     1
281
     0
  0
BLOCK_RECORD
  5
38
330
1
100
AcDbSymbolTableRecord
100
AcDbBlockTableRecord
  2
*D22
340
0
 70
     0
280
     1
281
     0
  0
BLOCK_RECORD
  5
39
330
1
100
AcDbSymbolTableRecord
100
AcDbBlockTableRecord
  2
*D23
340
0
 70
     0
280
     1
281
     0
  0
BLOCK_RECORD
  5
3A
330
1
100
AcDbSymbolTableRecord
100
AcDbBlockTableRecord
  2
*D24
340
0
 70
     0
280
     1
281
     0
  0
BLOCK_RECORD
  5
3B
330
1
100
AcDbSymbolTableRecord
100
AcDbBlockTableRecord
  2
Group-16
340
0
102
{BLKREFS
331
531
102
}
 70
     0
280
     1
281
     0
  0
BLOCK_RECORD
  5
3C
330
1
100
AcDbSymbolTableRecord
100
AcDbBlockTableRecord
  2
*D26
340
0
 70
     0
280
     1
281
     0
  0
BLOCK_RECORD
  5
3D
330
1
100
AcDbSymbolTableRecord
100
AcDbBlockTableRecord
  2
*D27
340
0
 70
     0
280
     1
281
     0
  0
BLOCK_RECORD
  5
3E
330
1
100
AcDbSymbolTableRecord
100
AcDbBlockTableRecord
  2
*D28
340
0
 70
     0
280
     1
281
     0
  0
BLOCK_RECORD
  5
3F
330
1
100
AcDbSymbolTableRecord
100
AcDbBlockTableRecord
  2
*D29
340
0
 70
     0
280
     1
281
     0
  0
BLOCK_RECORD
  5
40
330
1
100
AcDbSymbolTableRecord
100
AcDbBlockTableRecord
  2
*D30
340
0
 70
     0
280
     1
281
     0
  0
BLOCK_RECORD
  5
41
330
1
100
AcDbSymbolTableRecord
100
AcDbBlockTableRecord
  2
Group-17
340
0
102
{BLKREFS
331
53A
102
}
 70
     0
280
     1
281
     0
  0
BLOCK_RECORD
  5
42
330
1
100
AcDbSymbolTableRecord
100
AcDbBlockTableRecord
  2
*D32
340
0
 70
     0
280
     1
281
     0
  0
BLOCK_RECORD
  5
43
330
1
100
AcDbSymbolTableRecord
100
AcDbBlockTableRecord
  2
*D33
340
0
 70
     0
280
     1
281
     0
  0
BLOCK_RECORD
  5
44
330
1
100
AcDbSymbolTableRecord
100
AcDbBlockTableRecord
  2
Group-18
340
0
102
{BLKREFS
331
552
102
}
 70
     0
280
     1
281
     0
  0
BLOCK_RECORD
  5
45
330
1
100
AcDbSymbolTableRecord
100
AcDbBlockTableRecord
  2
Group-19
340
0
102
{BLKREFS
331
553
102
}
 70
     0
280
     1
281
     0
  0
BLOCK_RECORD
  5
46
330
1
100
AcDbSymbolTableRecord
100
AcDbBlockTableRecord
  2
Group-20
340
0
102
{BLKREFS
331
554
102
}
 70
     0
280
     1
281
     0
  0
BLOCK_RECORD
  5
47
330
1
100
AcDbSymbolTableRecord
100
AcDbBlockTableRecord
  2
Group-21
340
0
102
{BLKREFS
331
2E6
102
}
 70
     0
280
     1
281
     0
  0
BLOCK_RECORD
  5
48
330
1
100
AcDbSymbolTableRecord
100
AcDbBlockTableRecord
  2
Group-22
340
0
102
{BLKREFS
331
2D7
102
}
 70
     0
280
     1
281
     0
  0
BLOCK_RECORD
  5
49
330
1
100
AcDbSymbolTableRecord
100
AcDbBlockTableRecord
  2
Group-23
340
0
102
{BLKREFS
331
2D8
102
}
 70
     0
280
     1
281
     0
  0
BLOCK_RECORD
  5
4A
330
1
100
AcDbSymbolTableRecord
100
AcDbBlockTableRecord
  2
Group-24
340
0
102
{BLKREFS
331
2D9
102
}
 70
     0
280
     1
281
     0
  0
BLOCK_RECORD
  5
4B
330
1
100
AcDbSymbolTableRecord
100
AcDbBlockTableRecord
  2
Group-25
340
0
102
{BLKREFS
331
2DA
102
}
 70
     0
280
     1
281
     0
  0
BLOCK_RECORD
  5
4C
330
1
100
AcDbSymbolTableRecord
100
AcDbBlockTableRecord
  2
Group-26
340
0
102
{BLKREFS
331
2DB
102
}
 70
     0
280
     1
281
     0
  0
BLOCK_RECORD
  5
4D
330
1
100
AcDbSymbolTableRecord
100
AcDbBlockTableRecord
  2
Group-27
340
0
102
{BLKREFS
331
2DC
102
}
 70
     0
280
     1
281
     0
  0
BLOCK_RECORD
  5
4E
330
1
100
AcDbSymbolTableRecord
100
AcDbBlockTableRecord
  2
Group-28
340
0
102
{BLKREFS
331
2E7
102
}
 70
     0
280
     1
281
     0
  0
BLOCK_RECORD
  5
4F
330
1
100
AcDbSymbolTableRecord
100
AcDbBlockTableRecord
  2
Group-29
340
0
102
{BLKREFS
331
2EC
102
}
 70
     0
280
     1
281
     0
  0
BLOCK_RECORD
  5
50
330
1
100
AcDbSymbolTableRecord
100
AcDbBlockTableRecord
  2
Group-30
340
0
102
{BLKREFS
331
2EF
102
}
 70
     0
280
     1
281
     0
  0
BLOCK_RECORD
  5
51
330
1
100
AcDbSymbolTableRecord
100
AcDbBlockTableRecord
  2
Group-31
340
0
102
{BLKREFS
331
558
102
}
 70
     0
280
     1
281
     0
  0
BLOCK_RECORD
  5
52
330
1
100
AcDbSymbolTableRecord
100
AcDbBlockTableRecord
  2
*D48
340
0
 70
     0
280
     1
281
     0
  0
BLOCK_RECORD
  5
53
330
1
100
AcDbSymbolTableRecord
100
AcDbBlockTableRecord
  2
*D49
340
0
 70
     0
280
     1
281
     0
  0
BLOCK_RECORD
  5
54
330
1
100
AcDbSymbolTableRecord
100
AcDbBlockTableRecord
  2
Group-32
340
0
102
{BLKREFS
331
570
102
}
 70
     0
280
     1
281
     0
  0
BLOCK_RECORD
  5
55
330
1
100
AcDbSymbolTableRecord
100
AcDbBlockTableRecord
  2
Group-33
340
0
102
{BLKREFS
331
572
102
}
 70
     0
280
     1
281
     0
  0
BLOCK_RECORD
  5
56
330
1
100
AcDbSymbolTableRecord
100
AcDbBlockTableRecord
  2
*D52
340
0
 70
     0
280
     1
281
     0
  0
BLOCK_RECORD
  5
57
330
1
100
AcDbSymbolTableRecord
100
AcDbBlockTableRecord
  2
Group-34
340
0
102
{BLKREFS
331
574
102
}
 70
     0
280
     1
281
     0
  0
BLOCK_RECORD
  5
58
330
1
100
AcDbSymbolTableRecord
100
AcDbBlockTableRecord
  2
Group-35
340
0
102
{BLKREFS
331
359
102
}
 70
     0
280
     1
281
     0
  0
BLOCK_RECORD
  5
59
330
1
100
AcDbSymbolTableRecord
100
AcDbBlockTableRecord
  2
Group-36
340
0
102
{BLKREFS
331
575
102
}
 70
     0
280
     1
281
     0
  0
BLOCK_RECORD
  5
5A
330
1
100
AcDbSymbolTableRecord
100
AcDbBlockTableRecord
  2
Group-37
340
0
102
{BLKREFS
331
36A
102
}
 70
     0
280
     1
281
     0
  0
BLOCK_RECORD
  5
5B
330
1
100
AcDbSymbolTableRecord
100
AcDbBlockTableRecord
  2
Group-38
340
0
102
{BLKREFS
331
576
102
}
 70
     0
280
     1
281
     0
  0
BLOCK_RECORD
  5
5C
330
1
100
AcDbSymbolTableRecord
100
AcDbBlockTableRecord
  2
*D58
340
0
 70
     0
280
     1
281
     0
  0
BLOCK_RECORD
  5
5D
330
1
100
AcDbSymbolTableRecord
100
AcDbBlockTableRecord
  2
Group-39
340
0
102
{BLKREFS
331
579
102
}
 70
     0
280
     1
281
     0
  0
BLOCK_RECORD
  5
5E
330
1
100
AcDbSymbolTableRecord
100
AcDbBlockTableRecord
  2
Group-40
340
0
102
{BLKREFS
331
57E
102
}
 70
     0
280
     1
281
     0
  0
BLOCK_RECORD
  5
5F
330
1
100
AcDbSymbolTableRecord
100
AcDbBlockTableRecord
  2
Group-41
340
0
102
{BLKREFS
331
57F
102
}
 70
     0
280
     1
281
     0
  0
BLOCK_RECORD
  5
60
330
1
100
AcDbSymbolTableRecord
100
AcDbBlockTableRecord
  2
Group-42
340
0
102
{BLKREFS
331
580
102
}
 70
     0
280
     1
281
     0
  0
BLOCK_RECORD
  5
61
330
1
100
AcDbSymbolTableRecord
100
AcDbBlockTableRecord
  2
Group-43
340
0
102
{BLKREFS
331
581
102
}
 70
     0
280
     1
281
     0
  0
BLOCK_RECORD
  5
62
330
1
100
AcDbSymbolTableRecord
100
AcDbBlockTableRecord
  2
Group-44
340
0
102
{BLKREFS
331
582
102
}
 70
     0
280
     1
281
     0
  0
BLOCK_RECORD
  5
63
330
1
100
AcDbSymbolTableRecord
100
AcDbBlockTableRecord
  2
Group-45
340
0
102
{BLKREFS
331
583
102
}
 70
     0
280
     1
281
     0
  0
BLOCK_RECORD
  5
64
330
1
100
AcDbSymbolTableRecord
100
AcDbBlockTableRecord
  2
Group-46
340
0
102
{BLKREFS
331
595
102
}
 70
     0
280
     1
281
     0
  0
BLOCK_RECORD
  5
65
330
1
100
AcDbSymbolTableRecord
100
AcDbBlockTableRecord
  2
Group-47
340
0
102
{BLKREFS
331
596
102
}
 70
     0
280
     1
281
     0
  0
BLOCK_RECORD
  5
66
330
1
100
AcDbSymbolTableRecord
100
AcDbBlockTableRecord
  2
*D68
340
0
 70
     0
280
     1
281
     0
  0
BLOCK_RECORD
  5
67
330
1
100
AcDbSymbolTableRecord
100
AcDbBlockTableRecord
  2
*D69
340
0
 70
     0
280
     1
281
     0
  0
BLOCK_RECORD
  5
68
330
1
100
AcDbSymbolTableRecord
100
AcDbBlockTableRecord
  2
*D70
340
0
 70
     0
280
     1
281
     0
  0
ENDTAB
  0
ENDSEC
  0
SECTION
  2
BLOCKS
  0
BLOCK
  5
D
330
A
100
AcDbEntity
  8
0
390
1D
100
AcDbBlockBegin
  2
*MODEL_SPACE
 70
     0
 10
0.0
 20
0.0
 30
0.0
  3
*MODEL_SPACE
  1

  0
ENDBLK
  5
E
330
A
100
AcDbEntity
  8
0
390
1D
100
AcDbBlockEnd
  0
BLOCK
  5
F
330
B
100
AcDbEntity
 67
     1
  8
0
390
1D
100
AcDbBlockBegin
  2
*PAPER_SPACE
 70
     0
 10
0.0
 20
0.0
 30
0.0
  3
*PAPER_SPACE
  1

  0
ENDBLK
  5
10
330
B
100
AcDbEntity
 67
     1
  8
0
390
1D
100
AcDbBlockEnd
  0
BLOCK
  5
83
330
82
100
AcDbEntity
  8
0
  6
ByBlock
 62
     0
370
    -2
390
1D
100
AcDbBlockBegin
  2
VW_FILLEDARROW
 70
     0
 10
0.0
 20
0.0
 30
0.0
  3
VW_FILLEDARROW
  1

  0
POLYLINE
  5
84
102
{ACAD_REACTORS
330
89
102
}
330
82
100
AcDbEntity
  8
None
  6
Continuous
 62
     0
370
     5
390
1D
100
AcDb2dPolyline
 66
     1
 10
0.0
 20
0.0
 30
0.0
 70
     1
 75
     5
  0
VERTEX
  5
85
330
84
100
AcDbEntity
  8
None
  6
Continuous
 62
     0
370
     5
390
1D
100
AcDbVertex
100
AcDb2dVertex
 10
-0.9999084472656251
 20
0.2679246609498821
 30
0.0
  0
VERTEX
  5
86
330
84
100
AcDbEntity
  8
None
  6
Continuous
 62
     0
370
     5
390
1D
100
AcDbVertex
100
AcDb2dVertex
 10
0.0
 20
0.0
 30
0.0
  0
VERTEX
  5
87
330
84
100
AcDbEntity
  8
None
  6
Continuous
 62
     0
370
     5
390
1D
100
AcDbVertex
100
AcDb2dVertex
 10
-0.9999084472656249
 20
-0.2679246609498823
 30
0.0
  0
SEQEND
  5
88
330
84
100
AcDbEntity
  8
None
  6
Continuous
 62
     0
370
     5
390
1D
  0
HATCH
  5
89
330
82
100
AcDbEntity
  8
0
  6
ByBlock
 62
     0
370
     0
390
1D
100
AcDbHatch
 10
0.0
 20
0.0
 30
0.0
210
0.0
220
0.0
230
1.0
  2
SOLID
 70
     1
 71
     1
 91
        1
 92
        1
 93
        3
 72
     1
 10
-0.9999084472656251
 20
0.2679246609498821
 11
0.0
 21
0.0
 72
     1
 10
0.0
 20
0.0
 11
-0.9999084472656249
 21
-0.2679246609498823
 72
     1
 10
-0.9999084472656249
 20
-0.2679246609498823
 11
-0.9999084472656251
 21
0.2679246609498821
 97
        1
330
84
 75
     0
 76
     1
 98
        1
 10
0.0
 20
0.0
  0
ENDBLK
  5
8A
330
82
100
AcDbEntity
  8
0
390
1D
100
AcDbBlockEnd
  0
BLOCK
  5
8D
330
23
100
AcDbEntity
  8
Dimension
390
1D
100
AcDbBlockBegin
  2
*D1
 70
     1
 10
0.0
 20
0.0
 30
0.0
  3
*D1
  1

  0
LINE
  5
8E
330
23
100
AcDbEntity
  8
Dimension
  6
Continuous
 62
     0
370
    -2
390
1D
100
AcDbLine
 10
-7.447661453240217
 20
-2.730314960629926
 30
0.0
 11
-7.447661453240217
 21
-3.19685039370075
 31
0.0
  0
LINE
  5
8F
330
23
100
AcDbEntity
  8
Dimension
  6
Continuous
 62
     0
370
    -2
390
1D
100
AcDbLine
 10
-7.132700823318957
 20
-2.179133858267722
 30
0.0
 11
-7.132700823318957
 21
-3.19685039370075
 31
0.0
  0
LINE
  5
90
330
23
100
AcDbEntity
  8
Dimension
  6
Continuous
 62
     0
370
    -2
390
1D
100
AcDbLine
 10
-7.132700823318957
 20
-3.0
 30
0.0
 11
-7.447661453240217
 21
-3.0
 31
0.0
  0
LINE
  5
91
330
23
100
AcDbEntity
  8
Dimension
  6
Continuous
 62
     0
370
    -2
390
1D
100
AcDbLine
 10
-7.447661453240217
 20
-3.0
 30
0.0
 11
-8.136637831192967
 21
-3.0
 31
0.0
  0
POLYLINE
  5
92
102
{ACAD_REACTORS
330
97
102
}
330
23
100
AcDbEntity
  8
None
  6
Continuous
 62
     0
370
     5
390
1D
100
AcDb2dPolyline
 66
     1
 10
0.0
 20
0.0
 30
0.0
 70
     1
 75
     5
  0
VERTEX
  5
93
330
92
100
AcDbEntity
  8
None
  6
Continuous
 62
     0
370
     5
390
1D
100
AcDbVertex
100
AcDb2dVertex
 10
-7.760161453240217
 20
-2.916265877365274
 30
0.0
  0
VERTEX
  5
94
330
92
100
AcDbEntity
  8
None
  6
Continuous
 62
     0
370
     5
390
1D
100
AcDbVertex
100
AcDb2dVertex
 10
-7.447661453240217
 20
-3.0
 30
0.0
  0
VERTEX
  5
95
330
92
100
AcDbEntity
  8
None
  6
Continuous
 62
     0
370
     5
390
1D
100
AcDbVertex
100
AcDb2dVertex
 10
-7.760161453240217
 20
-3.083734122634726
 30
0.0
  0
SEQEND
  5
96
330
92
100
AcDbEntity
  8
None
  6
Continuous
 62
     0
370
     5
390
1D
  0
HATCH
  5
97
330
23
100
AcDbEntity
  8
Dimension
  6
Continuous
 62
     0
370
     0
390
1D
100
AcDbHatch
 10
0.0
 20
0.0
 30
0.0
210
0.0
220
0.0
230
1.0
  2
SOLID
 70
     1
 71
     1
 91
        1
 92
        1
 93
        3
 72
     1
 10
-7.760161453240217
 20
-2.916265877365274
 11
-7.447661453240217
 21
-3.0
 72
     1
 10
-7.447661453240217
 20
-3.0
 11
-7.760161453240217
 21
-3.083734122634726
 72
     1
 10
-7.760161453240217
 20
-3.083734122634726
 11
-7.760161453240217
 21
-2.916265877365274
 97
        1
330
92
 75
     0
 76
     1
 98
        1
 10
0.0
 20
0.0
  0
LINE
  5
98
330
23
100
AcDbEntity
  8
Dimension
  6
Continuous
 62
     0
370
    -2
390
1D
100
AcDbLine
 10
-7.132700823318957
 20
-3.0
 30
0.0
 11
-6.059364149305556
 21
-3.0
 31
0.0
  0
POLYLINE
  5
99
102
{ACAD_REACTORS
330
9E
102
}
330
23
100
AcDbEntity
  8
None
  6
Continuous
 62
     0
370
     5
390
1D
100
AcDb2dPolyline
 66
     1
 10
0.0
 20
0.0
 30
0.0
 70
     1
 75
     5
  0
VERTEX
  5
9A
330
99
100
AcDbEntity
  8
None
  6
Continuous
 62
     0
370
     5
390
1D
100
AcDbVertex
100
AcDb2dVertex
 10
-6.820200823318957
 20
-3.083734122634726
 30
0.0
  0
VERTEX
  5
9B
330
99
100
AcDbEntity
  8
None
  6
Continuous
 62
     0
370
     5
390
1D
100
AcDbVertex
100
AcDb2dVertex
 10
-7.132700823318957
 20
-3.0
 30
0.0
  0
VERTEX
  5
9C
330
99
100
AcDbEntity
  8
None
  6
Continuous
 62
     0
370
     5
390
1D
100
AcDbVertex
100
AcDb2dVertex
 10
-6.820200823318957
 20
-2.916265877365274
 30
0.0
  0
SEQEND
  5
9D
330
99
100
AcDbEntity
  8
None
  6
Continuous
 62
     0
370
     5
390
1D
  0
HATCH
  5
9E
330
23
100
AcDbEntity
  8
Dimension
  6
Continuous
 62
     0
370
     0
390
1D
100
AcDbHatch
 10
0.0
 20
0.0
 30
0.0
210
0.0
220
0.0
230
1.0
  2
SOLID
 70
     1
 71
     1
 91
        1
 92
        1
 93
        3
 72
     1
 10
-6.820200823318957
 20
-3.083734122634726
 11
-7.132700823318957
 21
-3.0
 72
     1
 10
-7.132700823318957
 20
-3.0
 11
-6.820200823318957
 21
-2.916265877365274
 72
     1
 10
-6.820200823318957
 20
-2.916265877365274
 11
-6.820200823318957
 21
-3.083734122634726
 97
        1
330
99
 75
     0
 76
     1
 98
        1
 10
0.0
 20
0.0
  0
MTEXT
  5
9F
330
23
100
AcDbEntity
  8
Dimension
 62
     0
390
1D
100
AcDbMText
 10
-6.600000000000001
 20
-2.658112915149087
 30
0.0
 40
0.1992580384816239
 41
0.0
 46
0.0
 71
     1
 72
     1
  1
.315
  7
Helvetica
 73
     1
 44
0.8397955333929318
  0
POINT
  5
A0
330
23
100
AcDbEntity
  8
Defpoints
 62
     0
370
     0
390
1D
100
AcDbPoint
 10
-7.132700823318957
 20
-2.031496062992132
 30
0.0
  0
POINT
  5
A1
330
23
100
AcDbEntity
  8
Defpoints
 62
     0
370
     0
390
1D
100
AcDbPoint
 10
-7.447661453240217
 20
-2.582677165354335
 30
0.0
  0
POINT
  5
A2
330
23
100
AcDbEntity
  8
Defpoints
 62
     0
370
     0
390
1D
100
AcDbPoint
 10
-7.447661453240217
 20
-3.0
 30
0.0
  0
ENDBLK
  5
A3
330
23
100
AcDbEntity
  8
Dimension
390
1D
100
AcDbBlockEnd
  0
BLOCK
  5
A4
330
24
100
AcDbEntity
  8
Dimension
390
1D
100
AcDbBlockBegin
  2
*D2
 70
     1
 10
0.0
 20
0.0
 30
0.0
  3
*D2
  1

  0
LINE
  5
A5
330
24
100
AcDbEntity
  8
Dimension
  6
Continuous
 62
     0
370
    -2
390
1D
100
AcDbLine
 10
-9.613015783948887
 20
-2.139763779527565
 30
0.0
 11
-9.613015783948887
 21
-3.19685039370075
 31
0.0
  0
LINE
  5
A6
330
24
100
AcDbEntity
  8
Dimension
  6
Continuous
 62
     0
370
    -2
390
1D
100
AcDbLine
 10
-9.337425232767774
 20
-2.730314960629924
 30
0.0
 11
-9.337425232767774
 21
-3.196850393700751
 31
0.0
  0
LINE
  5
A7
330
24
100
AcDbEntity
  8
Dimension
  6
Continuous
 62
     0
370
    -2
390
1D
100
AcDbLine
 10
-9.337425232767774
 20
-3.000000000000001
 30
0.0
 11
-9.613015783948887
 21
-3.000000000000001
 31
0.0
  0
LINE
  5
A8
330
24
100
AcDbEntity
  8
Dimension
  6
Continuous
 62
     0
370
    -2
390
1D
100
AcDbLine
 10
-9.613015783948887
 20
-3.000000000000001
 30
0.0
 11
-10.74063585069445
 21
-3.000000000000001
 31
0.0
  0
POLYLINE
  5
A9
102
{ACAD_REACTORS
330
AE
102
}
330
24
100
AcDbEntity
  8
None
  6
Continuous
 62
     0
370
     5
390
1D
100
AcDb2dPolyline
 66
     1
 10
0.0
 20
0.0
 30
0.0
 70
     1
 75
     5
  0
VERTEX
  5
AA
330
A9
100
AcDbEntity
  8
None
  6
Continuous
 62
     0
370
     5
390
1D
100
AcDbVertex
100
AcDb2dVertex
 10
-9.925515783948887
 20
-2.916265877365275
 30
0.0
  0
VERTEX
  5
AB
330
A9
100
AcDbEntity
  8
None
  6
Continuous
 62
     0
370
     5
390
1D
100
AcDbVertex
100
AcDb2dVertex
 10
-9.613015783948887
 20
-3.000000000000001
 30
0.0
  0
VERTEX
  5
AC
330
A9
100
AcDbEntity
  8
None
  6
Continuous
 62
     0
370
     5
390
1D
100
AcDbVertex
100
AcDb2dVertex
 10
-9.925515783948887
 20
-3.083734122634727
 30
0.0
  0
SEQEND
  5
AD
330
A9
100
AcDbEntity
  8
None
  6
Continuous
 62
     0
370
     5
390
1D
  0
HATCH
  5
AE
330
24
100
AcDbEntity
  8
Dimension
  6
Continuous
 62
     0
370
     0
390
1D
100
AcDbHatch
 10
0.0
 20
0.0
 30
0.0
210
0.0
220
0.0
230
1.0
  2
SOLID
 70
     1
 71
     1
 91
        1
 92
        1
 93
        3
 72
     1
 10
-9.925515783948887
 20
-2.916265877365275
 11
-9.613015783948887
 21
-3.000000000000001
 72
     1
 10
-9.613015783948887
 20
-3.000000000000001
 11
-9.925515783948887
 21
-3.083734122634727
 72
     1
 10
-9.925515783948887
 20
-3.083734122634727
 11
-9.925515783948887
 21
-2.916265877365275
 97
        1
330
A9
 75
     0
 76
     1
 98
        1
 10
0.0
 20
0.0
  0
LINE
  5
AF
330
24
100
AcDbEntity
  8
Dimension
  6
Continuous
 62
     0
370
    -2
390
1D
100
AcDbLine
 10
-9.337425232767774
 20
-3.000000000000001
 30
0.0
 11
-8.648448854815026
 21
-3.000000000000001
 31
0.0
  0
POLYLINE
  5
B0
102
{ACAD_REACTORS
330
B5
102
}
330
24
100
AcDbEntity
  8
None
  6
Continuous
 62
     0
370
     5
390
1D
100
AcDb2dPolyline
 66
     1
 10
0.0
 20
0.0
 30
0.0
 70
     1
 75
     5
  0
VERTEX
  5
B1
330
B0
100
AcDbEntity
  8
None
  6
Continuous
 62
     0
370
     5
390
1D
100
AcDbVertex
100
AcDb2dVertex
 10
-9.024925232767774
 20
-3.083734122634727
 30
0.0
  0
VERTEX
  5
B2
330
B0
100
AcDbEntity
  8
None
  6
Continuous
 62
     0
370
     5
390
1D
100
AcDbVertex
100
AcDb2dVertex
 10
-9.337425232767774
 20
-3.000000000000001
 30
0.0
  0
VERTEX
  5
B3
330
B0
100
AcDbEntity
  8
None
  6
Continuous
 62
     0
370
     5
390
1D
100
AcDbVertex
100
AcDb2dVertex
 10
-9.024925232767774
 20
-2.916265877365275
 30
0.0
  0
SEQEND
  5
B4
330
B0
100
AcDbEntity
  8
None
  6
Continuous
 62
     0
370
     5
390
1D
  0
HATCH
  5
B5
330
24
100
AcDbEntity
  8
Dimension
  6
Continuous
 62
     0
370
     0
390
1D
100
AcDbHatch
 10
0.0
 20
0.0
 30
0.0
210
0.0
220
0.0
230
1.0
  2
SOLID
 70
     1
 71
     1
 91
        1
 92
        1
 93
        3
 72
     1
 10
-9.024925232767774
 20
-3.083734122634727
 11
-9.337425232767774
 21
-3.000000000000001
 72
     1
 10
-9.337425232767774
 20
-3.000000000000001
 11
-9.024925232767774
 21
-2.916265877365275
 72
     1
 10
-9.024925232767774
 20
-2.916265877365275
 11
-9.024925232767774
 21
-3.083734122634727
 97
        1
330
B0
 75
     0
 76
     1
 98
        1
 10
0.0
 20
0.0
  0
MTEXT
  5
B6
330
24
100
AcDbEntity
  8
Dimension
 62
     0
390
1D
100
AcDbMText
 10
-10.74063585069445
 20
-2.658112915149088
 30
0.0
 40
0.1992580384816239
 41
0.0
 46
0.0
 71
     1
 72
     1
  1
.276
  7
Helvetica
 73
     1
 44
0.8397955333929318
  0
POINT
  5
B7
330
24
100
AcDbEntity
  8
Defpoints
 62
     0
370
     0
390
1D
100
AcDbPoint
 10
-9.337425232767774
 20
-2.582677165354334
 30
0.0
  0
POINT
  5
B8
330
24
100
AcDbEntity
  8
Defpoints
 62
     0
370
     0
390
1D
100
AcDbPoint
 10
-9.613015783948887
 20
-1.992125984251974
 30
0.0
  0
POINT
  5
B9
330
24
100
AcDbEntity
  8
Defpoints
 62
     0
370
     0
390
1D
100
AcDbPoint
 10
-9.613015783948887
 20
-3.000000000000001
 30
0.0
  0
ENDBLK
  5
BA
330
24
100
AcDbEntity
  8
Dimension
390
1D
100
AcDbBlockEnd
  0
BLOCK
  5
BB
330
25
100
AcDbEntity
  8
Dimension
390
1D
100
AcDbBlockBegin
  2
*D3
 70
     1
 10
0.0
 20
0.0
 30
0.0
  3
*D3
  1

  0
LINE
  5
BC
330
25
100
AcDbEntity
  8
Dimension
  6
Continuous
 62
     0
370
    -2
390
1D
100
AcDbLine
 10
-9.337425232767785
 20
-2.730314960629924
 30
0.0
 11
-9.337425232767785
 21
-3.763779527559018
 31
0.0
  0
LINE
  5
BD
330
25
100
AcDbEntity
  8
Dimension
  6
Continuous
 62
     0
370
    -2
390
1D
100
AcDbLine
 10
-7.447661453240217
 20
-2.730314960629926
 30
0.0
 11
-7.447661453240217
 21
-3.763779527559017
 31
0.0
  0
LINE
  5
BE
330
25
100
AcDbEntity
  8
Dimension
  6
Continuous
 62
     0
370
    -2
390
1D
100
AcDbLine
 10
-9.337425232767785
 20
-3.566929133858268
 30
0.0
 11
-7.447661453240217
 21
-3.566929133858268
 31
0.0
  0
POLYLINE
  5
BF
102
{ACAD_REACTORS
330
C4
102
}
330
25
100
AcDbEntity
  8
None
  6
Continuous
 62
     0
370
     5
390
1D
100
AcDb2dPolyline
 66
     1
 10
0.0
 20
0.0
 30
0.0
 70
     1
 75
     5
  0
VERTEX
  5
C0
330
BF
100
AcDbEntity
  8
None
  6
Continuous
 62
     0
370
     5
390
1D
100
AcDbVertex
100
AcDb2dVertex
 10
-9.024925232767785
 20
-3.650663256492994
 30
0.0
  0
VERTEX
  5
C1
330
BF
100
AcDbEntity
  8
None
  6
Continuous
 62
     0
370
     5
390
1D
100
AcDbVertex
100
AcDb2dVertex
 10
-9.337425232767785
 20
-3.566929133858268
 30
0.0
  0
VERTEX
  5
C2
330
BF
100
AcDbEntity
  8
None
  6
Continuous
 62
     0
370
     5
390
1D
100
AcDbVertex
100
AcDb2dVertex
 10
-9.024925232767785
 20
-3.483195011223542
 30
0.0
  0
SEQEND
  5
C3
330
BF
100
AcDbEntity
  8
None
  6
Continuous
 62
     0
370
     5
390
1D
  0
HATCH
  5
C4
330
25
100
AcDbEntity
  8
Dimension
  6
Continuous
 62
     0
370
     0
390
1D
100
AcDbHatch
 10
0.0
 20
0.0
 30
0.0
210
0.0
220
0.0
230
1.0
  2
SOLID
 70
     1
 71
     1
 91
        1
 92
        1
 93
        3
 72
     1
 10
-9.024925232767785
 20
-3.650663256492994
 11
-9.337425232767785
 21
-3.566929133858268
 72
     1
 10
-9.337425232767785
 20
-3.566929133858268
 11
-9.024925232767785
 21
-3.483195011223542
 72
     1
 10
-9.024925232767785
 20
-3.483195011223542
 11
-9.024925232767785
 21
-3.650663256492994
 97
        1
330
BF
 75
     0
 76
     1
 98
        1
 10
0.0
 20
0.0
  0
POLYLINE
  5
C5
102
{ACAD_REACTORS
330
CA
102
}
330
25
100
AcDbEntity
  8
None
  6
Continuous
 62
     0
370
     5
390
1D
100
AcDb2dPolyline
 66
     1
 10
0.0
 20
0.0
 30
0.0
 70
     1
 75
     5
  0
VERTEX
  5
C6
330
C5
100
AcDbEntity
  8
None
  6
Continuous
 62
     0
370
     5
390
1D
100
AcDbVertex
100
AcDb2dVertex
 10
-7.760161453240217
 20
-3.483195011223542
 30
0.0
  0
VERTEX
  5
C7
330
C5
100
AcDbEntity
  8
None
  6
Continuous
 62
     0
370
     5
390
1D
100
AcDbVertex
100
AcDb2dVertex
 10
-7.447661453240217
 20
-3.566929133858268
 30
0.0
  0
VERTEX
  5
C8
330
C5
100
AcDbEntity
  8
None
  6
Continuous
 62
     0
370
     5
390
1D
100
AcDbVertex
100
AcDb2dVertex
 10
-7.760161453240217
 20
-3.650663256492994
 30
0.0
  0
SEQEND
  5
C9
330
C5
100
AcDbEntity
  8
None
  6
Continuous
 62
     0
370
     5
390
1D
  0
HATCH
  5
CA
330
25
100
AcDbEntity
  8
Dimension
  6
Continuous
 62
     0
370
     0
390
1D
100
AcDbHatch
 10
0.0
 20
0.0
 30
0.0
210
0.0
220
0.0
230
1.0
  2
SOLID
 70
     1
 71
     1
 91
        1
 92
        1
 93
        3
 72
     1
 10
-7.760161453240217
 20
-3.483195011223542
 11
-7.447661453240217
 21
-3.566929133858268
 72
     1
 10
-7.447661453240217
 20
-3.566929133858268
 11
-7.760161453240217
 21
-3.650663256492994
 72
     1
 10
-7.760161453240217
 20
-3.650663256492994
 11
-7.760161453240217
 21
-3.483195011223542
 97
        1
330
C5
 75
     0
 76
     1
 98
        1
 10
0.0
 20
0.0
  0
MTEXT
  5
CB
330
25
100
AcDbEntity
  8
Dimension
 62
     0
390
1D
100
AcDbMText
 10
-8.662861268351223
 20
-3.225042049007355
 30
0.0
 40
0.1992580384816239
 41
0.0
 46
0.0
 71
     1
 72
     1
  1
1.89
  7
Helvetica
 73
     1
 44
0.8397955333929318
  0
POINT
  5
CC
330
25
100
AcDbEntity
  8
Defpoints
 62
     0
370
     0
390
1D
100
AcDbPoint
 10
-7.447661453240217
 20
-2.582677165354335
 30
0.0
  0
POINT
  5
CD
330
25
100
AcDbEntity
  8
Defpoints
 62
     0
370
     0
390
1D
100
AcDbPoint
 10
-9.337425232767785
 20
-2.582677165354334
 30
0.0
  0
POINT
  5
CE
330
25
100
AcDbEntity
  8
Defpoints
 62
     0
370
     0
390
1D
100
AcDbPoint
 10
-9.337425232767785
 20
-3.566929133858268
 30
0.0
  0
ENDBLK
  5
CF
330
25
100
AcDbEntity
  8
Dimension
390
1D
100
AcDbBlockEnd
  0
BLOCK
  5
D0
330
26
100
AcDbEntity
  8
Dimension
390
1D
100
AcDbBlockBegin
  2
*D4
 70
     1
 10
0.0
 20
0.0
 30
0.0
  3
*D4
  1

  0
LINE
  5
D1
330
26
100
AcDbEntity
  8
Dimension
  6
Continuous
 62
     0
370
    -2
390
1D
100
AcDbLine
 10
-2.327419980829384
 20
-1.122059394285615
 30
0.0
 11
-3.4
 21
-2.100000000000001
 31
0.0
  0
POLYLINE
  5
D2
102
{ACAD_REACTORS
330
D7
102
}
330
26
100
AcDbEntity
  8
None
  6
Continuous
 62
     0
370
     5
390
1D
100
AcDb2dPolyline
 66
     1
 10
0.0
 20
0.0
 30
0.0
 70
     1
 75
     5
  0
VERTEX
  5
D3
330
D2
100
AcDbEntity
  8
None
  6
Continuous
 62
     0
370
     5
390
1D
100
AcDbVertex
100
AcDb2dVertex
 10
-2.61307454690353
 20
-1.273944621264405
 30
0.0
  0
VERTEX
  5
D4
330
D2
100
AcDbEntity
  8
None
  6
Continuous
 62
     0
370
     5
390
1D
100
AcDbVertex
100
AcDb2dVertex
 10
-2.327419980829384
 20
-1.122059394285615
 30
0.0
  0
VERTEX
  5
D5
330
D2
100
AcDbEntity
  8
None
  6
Continuous
 62
     0
370
     5
390
1D
100
AcDbVertex
100
AcDb2dVertex
 10
-2.498861478267219
 20
-1.396423142345886
 30
0.0
  0
SEQEND
  5
D6
330
D2
100
AcDbEntity
  8
None
  6
Continuous
 62
     0
370
     5
390
1D
  0
HATCH
  5
D7
330
26
100
AcDbEntity
  8
Dimension
  6
Continuous
 62
     0
370
     0
390
1D
100
AcDbHatch
 10
0.0
 20
0.0
 30
0.0
210
0.0
220
0.0
230
1.0
  2
SOLID
 70
     1
 71
     1
 91
        1
 92
        1
 93
        3
 72
     1
 10
-2.61307454690353
 20
-1.273944621264405
 11
-2.327419980829384
 21
-1.122059394285615
 72
     1
 10
-2.327419980829384
 20
-1.122059394285615
 11
-2.498861478267219
 21
-1.396423142345886
 72
     1
 10
-2.498861478267219
 20
-1.396423142345886
 11
-2.61307454690353
 21
-1.273944621264405
 97
        1
330
D2
 75
     0
 76
     1
 98
        1
 10
0.0
 20
0.0
  0
LINE
  5
D8
330
26
100
AcDbEntity
  8
Dimension
  6
Continuous
 62
     0
370
    -2
390
1D
100
AcDbLine
 10
-3.4
 20
-2.100000000000001
 30
0.0
 11
-4.824427049157807
 21
-2.100000000000001
 31
0.0
  0
MTEXT
  5
D9
330
26
100
AcDbEntity
  8
Dimension
 62
     0
390
1D
100
AcDbMText
 10
-4.824427049157807
 20
-1.758112915149088
 30
0.0
 40
0.1992580384816239
 41
0.0
 46
0.0
 71
     1
 72
     1
  1
Ø 6.30
  7
Helvetica
 73
     1
 44
0.8397955333929318
  0
POINT
  5
DA
330
26
100
AcDbEntity
  8
Defpoints
 62
     0
370
     0
390
1D
100
AcDbPoint
 10
2.327419980829382
 20
3.122059394285613
 30
0.0
  0
POINT
  5
DB
330
26
100
AcDbEntity
  8
Defpoints
 62
     0
370
     0
390
1D
100
AcDbPoint
 10
-2.327419980829384
 20
-1.122059394285615
 30
0.0
  0
ENDBLK
  5
DC
330
26
100
AcDbEntity
  8
Dimension
390
1D
100
AcDbBlockEnd
  0
BLOCK
  5
DD
330
27
100
AcDbEntity
  8
Dimension
390
1D
100
AcDbBlockBegin
  2
*D5
 70
     1
 10
0.0
 20
0.0
 30
0.0
  3
*D5
  1

  0
LINE
  5
DE
330
27
100
AcDbEntity
  8
Dimension
  6
Continuous
 62
     0
370
    -2
390
1D
100
AcDbLine
 10
-0.9732579241872203
 20
2.52727717609473
 30
0.0
 11
-2.559036862703929
 21
5.015748031496064
 31
0.0
  0
POLYLINE
  5
DF
102
{ACAD_REACTORS
330
E4
102
}
330
27
100
AcDbEntity
  8
None
  6
Continuous
 62
     0
370
     5
390
1D
100
AcDb2dPolyline
 66
     1
 10
0.0
 20
0.0
 30
0.0
 70
     1
 75
     5
  0
VERTEX
  5
E0
330
DF
100
AcDbEntity
  8
None
  6
Continuous
 62
     0
370
     5
390
1D
100
AcDbVertex
100
AcDb2dVertex
 10
-1.06784713097639
 20
2.83666453080142
 30
0.0
  0
VERTEX
  5
E1
330
DF
100
AcDbEntity
  8
None
  6
Continuous
 62
     0
370
     5
390
1D
100
AcDbVertex
100
AcDb2dVertex
 10
-0.9732579241872203
 20
2.52727717609473
 30
0.0
  0
VERTEX
  5
E2
330
DF
100
AcDbEntity
  8
None
  6
Continuous
 62
     0
370
     5
390
1D
100
AcDbVertex
100
AcDb2dVertex
 10
-1.209868257543805
 20
2.747919881485806
 30
0.0
  0
SEQEND
  5
E3
330
DF
100
AcDbEntity
  8
None
  6
Continuous
 62
     0
370
     5
390
1D
  0
HATCH
  5
E4
330
27
100
AcDbEntity
  8
Dimension
  6
Continuous
 62
     0
370
     0
390
1D
100
AcDbHatch
 10
0.0
 20
0.0
 30
0.0
210
0.0
220
0.0
230
1.0
  2
SOLID
 70
     1
 71
     1
 91
        1
 92
        1
 93
        3
 72
     1
 10
-1.06784713097639
 20
2.83666453080142
 11
-0.9732579241872203
 21
2.52727717609473
 72
     1
 10
-0.9732579241872203
 20
2.52727717609473
 11
-1.209868257543805
 21
2.747919881485806
 72
     1
 10
-1.209868257543805
 20
2.747919881485806
 11
-1.06784713097639
 21
2.83666453080142
 97
        1
330
DF
 75
     0
 76
     1
 98
        1
 10
0.0
 20
0.0
  0
LINE
  5
E5
330
27
100
AcDbEntity
  8
Dimension
  6
Continuous
 62
     0
370
    -2
390
1D
100
AcDbLine
 10
-2.559036862703929
 20
5.015748031496064
 30
0.0
 11
-4.137950674014512
 21
5.015748031496064
 31
0.0
  0
MTEXT
  5
E6
330
27
100
AcDbEntity
  8
Dimension
 62
     0
390
1D
100
AcDbMText
 10
-4.137950674014513
 20
5.357635116346977
 30
0.0
 40
0.1992580384816239
 41
0.0
 46
0.0
 71
     1
 72
     1
  1
Ø 3.622
  7
Helvetica
 73
     1
 44
0.8397955333929318
  0
POINT
  5
E7
330
27
100
AcDbEntity
  8
Defpoints
 62
     0
370
     0
390
1D
100
AcDbPoint
 10
0.9732579241872203
 20
-0.5272771760947319
 30
0.0
  0
POINT
  5
E8
330
27
100
AcDbEntity
  8
Defpoints
 62
     0
370
     0
390
1D
100
AcDbPoint
 10
-0.9732579241872203
 20
2.52727717609473
 30
0.0
  0
ENDBLK
  5
E9
330
27
100
AcDbEntity
  8
Dimension
390
1D
100
AcDbBlockEnd
  0
BLOCK
  5
EA
330
28
100
AcDbEntity
  8
None
390
1D
100
AcDbBlockBegin
  2
Group
 70
     0
 10
0.0
 20
0.0
 30
0.0
  3
Group
  1

  0
CIRCLE
  5
EB
330
28
100
AcDbEntity
  8
PLB-050-30Tw~
  6
Continuous
 62
   148
370
    25
390
1D
100
AcDbCircle
 10
-8.387293959678663
 20
3.913803623020731
 30
0.0
 40
0.2362204724409449
  0
POLYLINE
  5
EC
330
28
100
AcDbEntity
  8
PLB-050-30Tw~
  6
Continuous
 62
   148
370
    25
390
1D
100
AcDb2dPolyline
 66
     1
 10
0.0
 20
0.0
 30
0.0
 70
     1
 75
     5
  0
VERTEX
  5
ED
330
EC
100
AcDbEntity
  8
PLB-050-30Tw~
  6
Continuous
 62
   148
370
    25
390
1D
100
AcDbVertex
100
AcDb2dVertex
 10
-8.387293959678663
 20
3.992543780501046
 30
0.0
  0
VERTEX
  5
EE
330
EC
100
AcDbEntity
  8
PLB-050-30Tw~
  6
Continuous
 62
   148
370
    25
390
1D
100
AcDbVertex
100
AcDb2dVertex
 10
-8.455484936354605
 20
3.953173701760889
 30
0.0
  0
VERTEX
  5
EF
330
EC
100
AcDbEntity
  8
PLB-050-30Tw~
  6
Continuous
 62
   148
370
    25
390
1D
100
AcDbVertex
100
AcDb2dVertex
 10
-8.455484936354605
 20
3.874433544280573
 30
0.0
  0
VERTEX
  5
F0
330
EC
100
AcDbEntity
  8
PLB-050-30Tw~
  6
Continuous
 62
   148
370
    25
390
1D
100
AcDbVertex
100
AcDb2dVertex
 10
-8.387293959678663
 20
3.835063465540416
 30
0.0
  0
VERTEX
  5
F1
330
EC
100
AcDbEntity
  8
PLB-050-30Tw~
  6
Continuous
 62
   148
370
    25
390
1D
100
AcDbVertex
100
AcDb2dVertex
 10
-8.319102983002722
 20
3.874433544280573
 30
0.0
  0
VERTEX
  5
F2
330
EC
100
AcDbEntity
  8
PLB-050-30Tw~
  6
Continuous
 62
   148
370
    25
390
1D
100
AcDbVertex
100
AcDb2dVertex
 10
-8.319102983002722
 20
3.953173701760889
 30
0.0
  0
SEQEND
  5
F3
330
EC
100
AcDbEntity
  8
PLB-050-30Tw~
  6
Continuous
 62
   148
370
    25
390
1D
  0
ENDBLK
  5
F5
330
28
100
AcDbEntity
  8
None
390
1D
100
AcDbBlockEnd
  0
BLOCK
  5
F6
330
29
100
AcDbEntity
  8
None
390
1D
100
AcDbBlockBegin
  2
Group-1
 70
     0
 10
0.0
 20
0.0
 30
0.0
  3
Group-1
  1

  0
CIRCLE
  5
F7
330
29
100
AcDbEntity
  8
PLB-050-30Tw~
  6
Continuous
 62
   148
370
    25
390
1D
100
AcDbCircle
 10
-10.77397814333656
 20
2.53585086711522
 30
0.0
 40
0.2362204724409449
  0
POLYLINE
  5
F8
330
29
100
AcDbEntity
  8
PLB-050-30Tw~
  6
Continuous
 62
   148
370
    25
390
1D
100
AcDb2dPolyline
 66
     1
 10
0.0
 20
0.0
 30
0.0
 70
     1
 75
     5
  0
VERTEX
  5
F9
330
F8
100
AcDbEntity
  8
PLB-050-30Tw~
  6
Continuous
 62
   148
370
    25
390
1D
100
AcDbVertex
100
AcDb2dVertex
 10
-10.8421691200125
 20
2.575220945855378
 30
0.0
  0
VERTEX
  5
FA
330
F8
100
AcDbEntity
  8
PLB-050-30Tw~
  6
Continuous
 62
   148
370
    25
390
1D
100
AcDbVertex
100
AcDb2dVertex
 10
-10.8421691200125
 20
2.496480788375063
 30
0.0
  0
VERTEX
  5
FB
330
F8
100
AcDbEntity
  8
PLB-050-30Tw~
  6
Continuous
 62
   148
370
    25
390
1D
100
AcDbVertex
100
AcDb2dVertex
 10
-10.77397814333656
 20
2.457110709634906
 30
0.0
  0
VERTEX
  5
FC
330
F8
100
AcDbEntity
  8
PLB-050-30Tw~
  6
Continuous
 62
   148
370
    25
390
1D
100
AcDbVertex
100
AcDb2dVertex
 10
-10.70578716666062
 20
2.496480788375063
 30
0.0
  0
VERTEX
  5
FD
330
F8
100
AcDbEntity
  8
PLB-050-30Tw~
  6
Continuous
 62
   148
370
    25
390
1D
100
AcDbVertex
100
AcDb2dVertex
 10
-10.70578716666062
 20
2.575220945855379
 30
0.0
  0
VERTEX
  5
FE
330
F8
100
AcDbEntity
  8
PLB-050-30Tw~
  6
Continuous
 62
   148
370
    25
390
1D
100
AcDbVertex
100
AcDb2dVertex
 10
-10.77397814333656
 20
2.614591024595536
 30
0.0
  0
SEQEND
  5
FF
330
F8
100
AcDbEntity
  8
PLB-050-30Tw~
  6
Continuous
 62
   148
370
    25
390
1D
  0
ENDBLK
  5
101
330
29
100
AcDbEntity
  8
None
390
1D
100
AcDbBlockEnd
  0
BLOCK
  5
102
330
2A
100
AcDbEntity
  8
None
390
1D
100
AcDbBlockBegin
  2
Group-2
 70
     0
 10
0.0
 20
0.0
 30
0.0
  3
Group-2
  1

  0
CIRCLE
  5
103
330
2A
100
AcDbEntity
  8
PLB-050-30Tw~
  6
Continuous
 62
   148
370
    25
390
1D
100
AcDbCircle
 10
-10.77397814333656
 20
-0.2200546446958005
 30
0.0
 40
0.2362204724409449
  0
POLYLINE
  5
104
330
2A
100
AcDbEntity
  8
PLB-050-30Tw~
  6
Continuous
 62
   148
370
    25
390
1D
100
AcDb2dPolyline
 66
     1
 10
0.0
 20
0.0
 30
0.0
 70
     1
 75
     5
  0
VERTEX
  5
105
330
104
100
AcDbEntity
  8
PLB-050-30Tw~
  6
Continuous
 62
   148
370
    25
390
1D
100
AcDbVertex
100
AcDb2dVertex
 10
-10.8421691200125
 20
-0.259424723435958
 30
0.0
  0
VERTEX
  5
106
330
104
100
AcDbEntity
  8
PLB-050-30Tw~
  6
Continuous
 62
   148
370
    25
390
1D
100
AcDbVertex
100
AcDb2dVertex
 10
-10.77397814333656
 20
-0.2987948021761166
 30
0.0
  0
VERTEX
  5
107
330
104
100
AcDbEntity
  8
PLB-050-30Tw~
  6
Continuous
 62
   148
370
    25
390
1D
100
AcDbVertex
100
AcDb2dVertex
 10
-10.70578716666062
 20
-0.2594247234359591
 30
0.0
  0
VERTEX
  5
108
330
104
100
AcDbEntity
  8
PLB-050-30Tw~
  6
Continuous
 62
   148
370
    25
390
1D
100
AcDbVertex
100
AcDb2dVertex
 10
-10.70578716666062
 20
-0.180684565955643
 30
0.0
  0
VERTEX
  5
109
330
104
100
AcDbEntity
  8
PLB-050-30Tw~
  6
Continuous
 62
   148
370
    25
390
1D
100
AcDbVertex
100
AcDb2dVertex
 10
-10.77397814333656
 20
-0.1413144872154855
 30
0.0
  0
VERTEX
  5
10A
330
104
100
AcDbEntity
  8
PLB-050-30Tw~
  6
Continuous
 62
   148
370
    25
390
1D
100
AcDbVertex
100
AcDb2dVertex
 10
-10.8421691200125
 20
-0.180684565955643
 30
0.0
  0
SEQEND
  5
10B
330
104
100
AcDbEntity
  8
PLB-050-30Tw~
  6
Continuous
 62
   148
370
    25
390
1D
  0
ENDBLK
  5
10D
330
2A
100
AcDbEntity
  8
None
390
1D
100
AcDbBlockEnd
  0
BLOCK
  5
10E
330
2B
100
AcDbEntity
  8
None
390
1D
100
AcDbBlockBegin
  2
Group-3
 70
     0
 10
0.0
 20
0.0
 30
0.0
  3
Group-3
  1

  0
CIRCLE
  5
10F
330
2B
100
AcDbEntity
  8
PLB-050-30Tw~
  6
Continuous
 62
   148
370
    25
390
1D
100
AcDbCircle
 10
-8.387293959678663
 20
-1.598007400601311
 30
0.0
 40
0.2362204724409449
  0
POLYLINE
  5
110
330
2B
100
AcDbEntity
  8
PLB-050-30Tw~
  6
Continuous
 62
   148
370
    25
390
1D
100
AcDb2dPolyline
 66
     1
 10
0.0
 20
0.0
 30
0.0
 70
     1
 75
     5
  0
VERTEX
  5
111
330
110
100
AcDbEntity
  8
PLB-050-30Tw~
  6
Continuous
 62
   148
370
    25
390
1D
100
AcDbVertex
100
AcDb2dVertex
 10
-8.387293959678663
 20
-1.676747558081626
 30
0.0
  0
VERTEX
  5
112
330
110
100
AcDbEntity
  8
PLB-050-30Tw~
  6
Continuous
 62
   148
370
    25
390
1D
100
AcDbVertex
100
AcDb2dVertex
 10
-8.319102983002722
 20
-1.637377479341468
 30
0.0
  0
VERTEX
  5
113
330
110
100
AcDbEntity
  8
PLB-050-30Tw~
  6
Continuous
 62
   148
370
    25
390
1D
100
AcDbVertex
100
AcDb2dVertex
 10
-8.319102983002722
 20
-1.558637321861153
 30
0.0
  0
VERTEX
  5
114
330
110
100
AcDbEntity
  8
PLB-050-30Tw~
  6
Continuous
 62
   148
370
    25
390
1D
100
AcDbVertex
100
AcDb2dVertex
 10
-8.387293959678663
 20
-1.519267243120996
 30
0.0
  0
VERTEX
  5
115
330
110
100
AcDbEntity
  8
PLB-050-30Tw~
  6
Continuous
 62
   148
370
    25
390
1D
100
AcDbVertex
100
AcDb2dVertex
 10
-8.455484936354605
 20
-1.558637321861153
 30
0.0
  0
VERTEX
  5
116
330
110
100
AcDbEntity
  8
PLB-050-30Tw~
  6
Continuous
 62
   148
370
    25
390
1D
100
AcDbVertex
100
AcDb2dVertex
 10
-8.455484936354605
 20
-1.637377479341468
 30
0.0
  0
SEQEND
  5
117
330
110
100
AcDbEntity
  8
PLB-050-30Tw~
  6
Continuous
 62
   148
370
    25
390
1D
  0
ENDBLK
  5
119
330
2B
100
AcDbEntity
  8
None
390
1D
100
AcDbBlockEnd
  0
BLOCK
  5
11A
330
2C
100
AcDbEntity
  8
None
390
1D
100
AcDbBlockBegin
  2
Group-4
 70
     0
 10
0.0
 20
0.0
 30
0.0
  3
Group-4
  1

  0
CIRCLE
  5
11B
330
2C
100
AcDbEntity
  8
PLB-050-30Tw~
  6
Continuous
 62
   148
370
    25
390
1D
100
AcDbCircle
 10
-6.000609776020764
 20
-0.2200546446958011
 30
0.0
 40
0.2362204724409449
  0
POLYLINE
  5
11C
330
2C
100
AcDbEntity
  8
PLB-050-30Tw~
  6
Continuous
 62
   148
370
    25
390
1D
100
AcDb2dPolyline
 66
     1
 10
0.0
 20
0.0
 30
0.0
 70
     1
 75
     5
  0
VERTEX
  5
11D
330
11C
100
AcDbEntity
  8
PLB-050-30Tw~
  6
Continuous
 62
   148
370
    25
390
1D
100
AcDbVertex
100
AcDb2dVertex
 10
-5.932418799344823
 20
-0.2594247234359586
 30
0.0
  0
VERTEX
  5
11E
330
11C
100
AcDbEntity
  8
PLB-050-30Tw~
  6
Continuous
 62
   148
370
    25
390
1D
100
AcDbVertex
100
AcDb2dVertex
 10
-5.932418799344823
 20
-0.1806845659556425
 30
0.0
  0
VERTEX
  5
11F
330
11C
100
AcDbEntity
  8
PLB-050-30Tw~
  6
Continuous
 62
   148
370
    25
390
1D
100
AcDbVertex
100
AcDb2dVertex
 10
-6.000609776020763
 20
-0.141314487215485
 30
0.0
  0
VERTEX
  5
120
330
11C
100
AcDbEntity
  8
PLB-050-30Tw~
  6
Continuous
 62
   148
370
    25
390
1D
100
AcDbVertex
100
AcDb2dVertex
 10
-6.068800752696704
 20
-0.1806845659556436
 30
0.0
  0
VERTEX
  5
121
330
11C
100
AcDbEntity
  8
PLB-050-30Tw~
  6
Continuous
 62
   148
370
    25
390
1D
100
AcDbVertex
100
AcDb2dVertex
 10
-6.068800752696704
 20
-0.2594247234359597
 30
0.0
  0
VERTEX
  5
122
330
11C
100
AcDbEntity
  8
PLB-050-30Tw~
  6
Continuous
 62
   148
370
    25
390
1D
100
AcDbVertex
100
AcDb2dVertex
 10
-6.000609776020764
 20
-0.2987948021761171
 30
0.0
  0
SEQEND
  5
123
330
11C
100
AcDbEntity
  8
PLB-050-30Tw~
  6
Continuous
 62
   148
370
    25
390
1D
  0
ENDBLK
  5
125
330
2C
100
AcDbEntity
  8
None
390
1D
100
AcDbBlockEnd
  0
BLOCK
  5
126
330
2D
100
AcDbEntity
  8
None
390
1D
100
AcDbBlockBegin
  2
Group-5
 70
     0
 10
0.0
 20
0.0
 30
0.0
  3
Group-5
  1

  0
CIRCLE
  5
127
330
2D
100
AcDbEntity
  8
PLB-050-30Tw~
  6
Continuous
 62
   148
370
    25
390
1D
100
AcDbCircle
 10
-6.000609776020764
 20
2.53585086711522
 30
0.0
 40
0.2362204724409449
  0
POLYLINE
  5
128
330
2D
100
AcDbEntity
  8
PLB-050-30Tw~
  6
Continuous
 62
   148
370
    25
390
1D
100
AcDb2dPolyline
 66
     1
 10
0.0
 20
0.0
 30
0.0
 70
     1
 75
     5
  0
VERTEX
  5
129
330
128
100
AcDbEntity
  8
PLB-050-30Tw~
  6
Continuous
 62
   148
370
    25
390
1D
100
AcDbVertex
100
AcDb2dVertex
 10
-5.932418799344824
 20
2.575220945855378
 30
0.0
  0
VERTEX
  5
12A
330
128
100
AcDbEntity
  8
PLB-050-30Tw~
  6
Continuous
 62
   148
370
    25
390
1D
100
AcDbVertex
100
AcDb2dVertex
 10
-6.000609776020765
 20
2.614591024595535
 30
0.0
  0
VERTEX
  5
12B
330
128
100
AcDbEntity
  8
PLB-050-30Tw~
  6
Continuous
 62
   148
370
    25
390
1D
100
AcDbVertex
100
AcDb2dVertex
 10
-6.068800752696705
 20
2.575220945855378
 30
0.0
  0
VERTEX
  5
12C
330
128
100
AcDbEntity
  8
PLB-050-30Tw~
  6
Continuous
 62
   148
370
    25
390
1D
100
AcDbVertex
100
AcDb2dVertex
 10
-6.068800752696705
 20
2.496480788375063
 30
0.0
  0
VERTEX
  5
12D
330
128
100
AcDbEntity
  8
PLB-050-30Tw~
  6
Continuous
 62
   148
370
    25
390
1D
100
AcDbVertex
100
AcDb2dVertex
 10
-6.000609776020764
 20
2.457110709634904
 30
0.0
  0
VERTEX
  5
12E
330
128
100
AcDbEntity
  8
PLB-050-30Tw~
  6
Continuous
 62
   148
370
    25
390
1D
100
AcDbVertex
100
AcDb2dVertex
 10
-5.932418799344824
 20
2.496480788375062
 30
0.0
  0
SEQEND
  5
12F
330
128
100
AcDbEntity
  8
PLB-050-30Tw~
  6
Continuous
 62
   148
370
    25
390
1D
  0
ENDBLK
  5
131
330
2D
100
AcDbEntity
  8
None
390
1D
100
AcDbBlockEnd
  0
BLOCK
  5
132
330
2E
100
AcDbEntity
  8
None
390
1D
100
AcDbBlockBegin
  2
Group-6
 70
     0
 10
0.0
 20
0.0
 30
0.0
  3
Group-6
  1

  0
INSERT
  5
133
330
2E
100
AcDbEntity
  8
None
 62
     7
390
1D
100
AcDbBlockReference
  2
Group
 10
0.0
 20
0.0
 30
0.0
  0
INSERT
  5
134
330
2E
100
AcDbEntity
  8
None
 62
     7
390
1D
100
AcDbBlockReference
  2
Group-1
 10
0.0
 20
0.0
 30
0.0
  0
INSERT
  5
135
330
2E
100
AcDbEntity
  8
None
 62
     7
390
1D
100
AcDbBlockReference
  2
Group-2
 10
0.0
 20
0.0
 30
0.0
  0
INSERT
  5
136
330
2E
100
AcDbEntity
  8
None
 62
     7
390
1D
100
AcDbBlockReference
  2
Group-3
 10
0.0
 20
0.0
 30
0.0
  0
INSERT
  5
137
330
2E
100
AcDbEntity
  8
None
 62
     7
390
1D
100
AcDbBlockReference
  2
Group-4
 10
0.0
 20
0.0
 30
0.0
  0
INSERT
  5
138
330
2E
100
AcDbEntity
  8
None
 62
     7
390
1D
100
AcDbBlockReference
  2
Group-5
 10
0.0
 20
0.0
 30
0.0
  0
ENDBLK
  5
139
330
2E
100
AcDbEntity
  8
None
390
1D
100
AcDbBlockEnd
  0
BLOCK
  5
13A
330
2F
100
AcDbEntity
  8
None
390
1D
100
AcDbBlockBegin
  2
Group-7
 70
     0
 10
0.0
 20
0.0
 30
0.0
  3
Group-7
  1

  0
CIRCLE
  5
13B
330
2F
100
AcDbEntity
  8
PLB-050-30Tw~
  6
Continuous
 62
   148
370
    25
390
1D
100
AcDbCircle
 10
7.321349202237864
 20
3.913803623020731
 30
0.0
 40
0.2362204724409449
  0
POLYLINE
  5
13C
330
2F
100
AcDbEntity
  8
PLB-050-30Tw~
  6
Continuous
 62
   148
370
    25
390
1D
100
AcDb2dPolyline
 66
     1
 10
0.0
 20
0.0
 30
0.0
 70
     1
 75
     5
  0
VERTEX
  5
13D
330
13C
100
AcDbEntity
  8
PLB-050-30Tw~
  6
Continuous
 62
   148
370
    25
390
1D
100
AcDbVertex
100
AcDb2dVertex
 10
7.321349202237864
 20
3.992543780501046
 30
0.0
  0
VERTEX
  5
13E
330
13C
100
AcDbEntity
  8
PLB-050-30Tw~
  6
Continuous
 62
   148
370
    25
390
1D
100
AcDbVertex
100
AcDb2dVertex
 10
7.253158225561923
 20
3.953173701760889
 30
0.0
  0
VERTEX
  5
13F
330
13C
100
AcDbEntity
  8
PLB-050-30Tw~
  6
Continuous
 62
   148
370
    25
390
1D
100
AcDbVertex
100
AcDb2dVertex
 10
7.253158225561923
 20
3.874433544280573
 30
0.0
  0
VERTEX
  5
140
330
13C
100
AcDbEntity
  8
PLB-050-30Tw~
  6
Continuous
 62
   148
370
    25
390
1D
100
AcDbVertex
100
AcDb2dVertex
 10
7.321349202237864
 20
3.835063465540416
 30
0.0
  0
VERTEX
  5
141
330
13C
100
AcDbEntity
  8
PLB-050-30Tw~
  6
Continuous
 62
   148
370
    25
390
1D
100
AcDbVertex
100
AcDb2dVertex
 10
7.389540178913805
 20
3.874433544280573
 30
0.0
  0
VERTEX
  5
142
330
13C
100
AcDbEntity
  8
PLB-050-30Tw~
  6
Continuous
 62
   148
370
    25
390
1D
100
AcDbVertex
100
AcDb2dVertex
 10
7.389540178913805
 20
3.953173701760889
 30
0.0
  0
SEQEND
  5
143
330
13C
100
AcDbEntity
  8
PLB-050-30Tw~
  6
Continuous
 62
   148
370
    25
390
1D
  0
ENDBLK
  5
145
330
2F
100
AcDbEntity
  8
None
390
1D
100
AcDbBlockEnd
  0
BLOCK
  5
146
330
30
100
AcDbEntity
  8
None
390
1D
100
AcDbBlockBegin
  2
Group-8
 70
     0
 10
0.0
 20
0.0
 30
0.0
  3
Group-8
  1

  0
CIRCLE
  5
147
330
30
100
AcDbEntity
  8
PLB-050-30Tw~
  6
Continuous
 62
   148
370
    25
390
1D
100
AcDbCircle
 10
4.934665018579965
 20
2.53585086711522
 30
0.0
 40
0.2362204724409449
  0
POLYLINE
  5
148
330
30
100
AcDbEntity
  8
PLB-050-30Tw~
  6
Continuous
 62
   148
370
    25
390
1D
100
AcDb2dPolyline
 66
     1
 10
0.0
 20
0.0
 30
0.0
 70
     1
 75
     5
  0
VERTEX
  5
149
330
148
100
AcDbEntity
  8
PLB-050-30Tw~
  6
Continuous
 62
   148
370
    25
390
1D
100
AcDbVertex
100
AcDb2dVertex
 10
4.866474041904024
 20
2.575220945855378
 30
0.0
  0
VERTEX
  5
14A
330
148
100
AcDbEntity
  8
PLB-050-30Tw~
  6
Continuous
 62
   148
370
    25
390
1D
100
AcDbVertex
100
AcDb2dVertex
 10
4.866474041904024
 20
2.496480788375063
 30
0.0
  0
VERTEX
  5
14B
330
148
100
AcDbEntity
  8
PLB-050-30Tw~
  6
Continuous
 62
   148
370
    25
390
1D
100
AcDbVertex
100
AcDb2dVertex
 10
4.934665018579962
 20
2.457110709634906
 30
0.0
  0
VERTEX
  5
14C
330
148
100
AcDbEntity
  8
PLB-050-30Tw~
  6
Continuous
 62
   148
370
    25
390
1D
100
AcDbVertex
100
AcDb2dVertex
 10
5.002855995255906
 20
2.496480788375063
 30
0.0
  0
VERTEX
  5
14D
330
148
100
AcDbEntity
  8
PLB-050-30Tw~
  6
Continuous
 62
   148
370
    25
390
1D
100
AcDbVertex
100
AcDb2dVertex
 10
5.002855995255906
 20
2.575220945855379
 30
0.0
  0
VERTEX
  5
14E
330
148
100
AcDbEntity
  8
PLB-050-30Tw~
  6
Continuous
 62
   148
370
    25
390
1D
100
AcDbVertex
100
AcDb2dVertex
 10
4.934665018579965
 20
2.614591024595536
 30
0.0
  0
SEQEND
  5
14F
330
148
100
AcDbEntity
  8
PLB-050-30Tw~
  6
Continuous
 62
   148
370
    25
390
1D
  0
ENDBLK
  5
151
330
30
100
AcDbEntity
  8
None
390
1D
100
AcDbBlockEnd
  0
BLOCK
  5
152
330
31
100
AcDbEntity
  8
None
390
1D
100
AcDbBlockBegin
  2
Group-9
 70
     0
 10
0.0
 20
0.0
 30
0.0
  3
Group-9
  1

  0
CIRCLE
  5
153
330
31
100
AcDbEntity
  8
PLB-050-30Tw~
  6
Continuous
 62
   148
370
    25
390
1D
100
AcDbCircle
 10
4.934665018579965
 20
-0.2200546446958005
 30
0.0
 40
0.2362204724409449
  0
POLYLINE
  5
154
330
31
100
AcDbEntity
  8
PLB-050-30Tw~
  6
Continuous
 62
   148
370
    25
390
1D
100
AcDb2dPolyline
 66
     1
 10
0.0
 20
0.0
 30
0.0
 70
     1
 75
     5
  0
VERTEX
  5
155
330
154
100
AcDbEntity
  8
PLB-050-30Tw~
  6
Continuous
 62
   148
370
    25
390
1D
100
AcDbVertex
100
AcDb2dVertex
 10
4.866474041904024
 20
-0.259424723435958
 30
0.0
  0
VERTEX
  5
156
330
154
100
AcDbEntity
  8
PLB-050-30Tw~
  6
Continuous
 62
   148
370
    25
390
1D
100
AcDbVertex
100
AcDb2dVertex
 10
4.934665018579965
 20
-0.2987948021761166
 30
0.0
  0
VERTEX
  5
157
330
154
100
AcDbEntity
  8
PLB-050-30Tw~
  6
Continuous
 62
   148
370
    25
390
1D
100
AcDbVertex
100
AcDb2dVertex
 10
5.002855995255906
 20
-0.2594247234359591
 30
0.0
  0
VERTEX
  5
158
330
154
100
AcDbEntity
  8
PLB-050-30Tw~
  6
Continuous
 62
   148
370
    25
390
1D
100
AcDbVertex
100
AcDb2dVertex
 10
5.002855995255906
 20
-0.180684565955643
 30
0.0
  0
VERTEX
  5
159
330
154
100
AcDbEntity
  8
PLB-050-30Tw~
  6
Continuous
 62
   148
370
    25
390
1D
100
AcDbVertex
100
AcDb2dVertex
 10
4.934665018579965
 20
-0.1413144872154855
 30
0.0
  0
VERTEX
  5
15A
330
154
100
AcDbEntity
  8
PLB-050-30Tw~
  6
Continuous
 62
   148
370
    25
390
1D
100
AcDbVertex
100
AcDb2dVertex
 10
4.866474041904024
 20
-0.180684565955643
 30
0.0
  0
SEQEND
  5
15B
330
154
100
AcDbEntity
  8
PLB-050-30Tw~
  6
Continuous
 62
   148
370
    25
390
1D
  0
ENDBLK
  5
15D
330
31
100
AcDbEntity
  8
None
390
1D
100
AcDbBlockEnd
  0
BLOCK
  5
15E
330
32
100
AcDbEntity
  8
None
390
1D
100
AcDbBlockBegin
  2
Group-10
 70
     0
 10
0.0
 20
0.0
 30
0.0
  3
Group-10
  1

  0
CIRCLE
  5
15F
330
32
100
AcDbEntity
  8
PLB-050-30Tw~
  6
Continuous
 62
   148
370
    25
390
1D
100
AcDbCircle
 10
7.321349202237864
 20
-1.598007400601311
 30
0.0
 40
0.2362204724409449
  0
POLYLINE
  5
160
330
32
100
AcDbEntity
  8
PLB-050-30Tw~
  6
Continuous
 62
   148
370
    25
390
1D
100
AcDb2dPolyline
 66
     1
 10
0.0
 20
0.0
 30
0.0
 70
     1
 75
     5
  0
VERTEX
  5
161
330
160
100
AcDbEntity
  8
PLB-050-30Tw~
  6
Continuous
 62
   148
370
    25
390
1D
100
AcDbVertex
100
AcDb2dVertex
 10
7.321349202237864
 20
-1.676747558081626
 30
0.0
  0
VERTEX
  5
162
330
160
100
AcDbEntity
  8
PLB-050-30Tw~
  6
Continuous
 62
   148
370
    25
390
1D
100
AcDbVertex
100
AcDb2dVertex
 10
7.389540178913805
 20
-1.637377479341468
 30
0.0
  0
VERTEX
  5
163
330
160
100
AcDbEntity
  8
PLB-050-30Tw~
  6
Continuous
 62
   148
370
    25
390
1D
100
AcDbVertex
100
AcDb2dVertex
 10
7.389540178913805
 20
-1.558637321861153
 30
0.0
  0
VERTEX
  5
164
330
160
100
AcDbEntity
  8
PLB-050-30Tw~
  6
Continuous
 62
   148
370
    25
390
1D
100
AcDbVertex
100
AcDb2dVertex
 10
7.321349202237864
 20
-1.519267243120996
 30
0.0
  0
VERTEX
  5
165
330
160
100
AcDbEntity
  8
PLB-050-30Tw~
  6
Continuous
 62
   148
370
    25
390
1D
100
AcDbVertex
100
AcDb2dVertex
 10
7.253158225561923
 20
-1.558637321861153
 30
0.0
  0
VERTEX
  5
166
330
160
100
AcDbEntity
  8
PLB-050-30Tw~
  6
Continuous
 62
   148
370
    25
390
1D
100
AcDbVertex
100
AcDb2dVertex
 10
7.253158225561923
 20
-1.637377479341468
 30
0.0
  0
SEQEND
  5
167
330
160
100
AcDbEntity
  8
PLB-050-30Tw~
  6
Continuous
 62
   148
370
    25
390
1D
  0
ENDBLK
  5
169
330
32
100
AcDbEntity
  8
None
390
1D
100
AcDbBlockEnd
  0
BLOCK
  5
16A
330
33
100
AcDbEntity
  8
None
390
1D
100
AcDbBlockBegin
  2
Group-11
 70
     0
 10
0.0
 20
0.0
 30
0.0
  3
Group-11
  1

  0
CIRCLE
  5
16B
330
33
100
AcDbEntity
  8
PLB-050-30Tw~
  6
Continuous
 62
   148
370
    25
390
1D
100
AcDbCircle
 10
9.708033385895764
 20
-0.2200546446958011
 30
0.0
 40
0.2362204724409449
  0
POLYLINE
  5
16C
330
33
100
AcDbEntity
  8
PLB-050-30Tw~
  6
Continuous
 62
   148
370
    25
390
1D
100
AcDb2dPolyline
 66
     1
 10
0.0
 20
0.0
 30
0.0
 70
     1
 75
     5
  0
VERTEX
  5
16D
330
16C
100
AcDbEntity
  8
PLB-050-30Tw~
  6
Continuous
 62
   148
370
    25
390
1D
100
AcDbVertex
100
AcDb2dVertex
 10
9.776224362571703
 20
-0.2594247234359586
 30
0.0
  0
VERTEX
  5
16E
330
16C
100
AcDbEntity
  8
PLB-050-30Tw~
  6
Continuous
 62
   148
370
    25
390
1D
100
AcDbVertex
100
AcDb2dVertex
 10
9.776224362571703
 20
-0.1806845659556425
 30
0.0
  0
VERTEX
  5
16F
330
16C
100
AcDbEntity
  8
PLB-050-30Tw~
  6
Continuous
 62
   148
370
    25
390
1D
100
AcDbVertex
100
AcDb2dVertex
 10
9.708033385895764
 20
-0.141314487215485
 30
0.0
  0
VERTEX
  5
170
330
16C
100
AcDbEntity
  8
PLB-050-30Tw~
  6
Continuous
 62
   148
370
    25
390
1D
100
AcDbVertex
100
AcDb2dVertex
 10
9.639842409219824
 20
-0.1806845659556436
 30
0.0
  0
VERTEX
  5
171
330
16C
100
AcDbEntity
  8
PLB-050-30Tw~
  6
Continuous
 62
   148
370
    25
390
1D
100
AcDbVertex
100
AcDb2dVertex
 10
9.639842409219824
 20
-0.2594247234359597
 30
0.0
  0
VERTEX
  5
172
330
16C
100
AcDbEntity
  8
PLB-050-30Tw~
  6
Continuous
 62
   148
370
    25
390
1D
100
AcDbVertex
100
AcDb2dVertex
 10
9.708033385895764
 20
-0.2987948021761171
 30
0.0
  0
SEQEND
  5
173
330
16C
100
AcDbEntity
  8
PLB-050-30Tw~
  6
Continuous
 62
   148
370
    25
390
1D
  0
ENDBLK
  5
175
330
33
100
AcDbEntity
  8
None
390
1D
100
AcDbBlockEnd
  0
BLOCK
  5
176
330
34
100
AcDbEntity
  8
None
390
1D
100
AcDbBlockBegin
  2
Group-12
 70
     0
 10
0.0
 20
0.0
 30
0.0
  3
Group-12
  1

  0
CIRCLE
  5
177
330
34
100
AcDbEntity
  8
PLB-050-30Tw~
  6
Continuous
 62
   148
370
    25
390
1D
100
AcDbCircle
 10
9.708033385895764
 20
2.53585086711522
 30
0.0
 40
0.2362204724409449
  0
POLYLINE
  5
178
330
34
100
AcDbEntity
  8
PLB-050-30Tw~
  6
Continuous
 62
   148
370
    25
390
1D
100
AcDb2dPolyline
 66
     1
 10
0.0
 20
0.0
 30
0.0
 70
     1
 75
     5
  0
VERTEX
  5
179
330
178
100
AcDbEntity
  8
PLB-050-30Tw~
  6
Continuous
 62
   148
370
    25
390
1D
100
AcDbVertex
100
AcDb2dVertex
 10
9.776224362571702
 20
2.575220945855378
 30
0.0
  0
VERTEX
  5
17A
330
178
100
AcDbEntity
  8
PLB-050-30Tw~
  6
Continuous
 62
   148
370
    25
390
1D
100
AcDbVertex
100
AcDb2dVertex
 10
9.708033385895764
 20
2.614591024595535
 30
0.0
  0
VERTEX
  5
17B
330
178
100
AcDbEntity
  8
PLB-050-30Tw~
  6
Continuous
 62
   148
370
    25
390
1D
100
AcDbVertex
100
AcDb2dVertex
 10
9.639842409219822
 20
2.575220945855378
 30
0.0
  0
VERTEX
  5
17C
330
178
100
AcDbEntity
  8
PLB-050-30Tw~
  6
Continuous
 62
   148
370
    25
390
1D
100
AcDbVertex
100
AcDb2dVertex
 10
9.639842409219822
 20
2.496480788375063
 30
0.0
  0
VERTEX
  5
17D
330
178
100
AcDbEntity
  8
PLB-050-30Tw~
  6
Continuous
 62
   148
370
    25
390
1D
100
AcDbVertex
100
AcDb2dVertex
 10
9.708033385895764
 20
2.457110709634904
 30
0.0
  0
VERTEX
  5
17E
330
178
100
AcDbEntity
  8
PLB-050-30Tw~
  6
Continuous
 62
   148
370
    25
390
1D
100
AcDbVertex
100
AcDb2dVertex
 10
9.776224362571702
 20
2.496480788375062
 30
0.0
  0
SEQEND
  5
17F
330
178
100
AcDbEntity
  8
PLB-050-30Tw~
  6
Continuous
 62
   148
370
    25
390
1D
  0
ENDBLK
  5
181
330
34
100
AcDbEntity
  8
None
390
1D
100
AcDbBlockEnd
  0
BLOCK
  5
182
330
35
100
AcDbEntity
  8
None
390
1D
100
AcDbBlockBegin
  2
Group-13
 70
     0
 10
0.0
 20
0.0
 30
0.0
  3
Group-13
  1

  0
INSERT
  5
183
330
35
100
AcDbEntity
  8
None
 62
     7
390
1D
100
AcDbBlockReference
  2
Group-7
 10
0.0
 20
0.0
 30
0.0
  0
INSERT
  5
184
330
35
100
AcDbEntity
  8
None
 62
     7
390
1D
100
AcDbBlockReference
  2
Group-8
 10
0.0
 20
0.0
 30
0.0
  0
INSERT
  5
185
330
35
100
AcDbEntity
  8
None
 62
     7
390
1D
100
AcDbBlockReference
  2
Group-9
 10
0.0
 20
0.0
 30
0.0
  0
INSERT
  5
186
330
35
100
AcDbEntity
  8
None
 62
     7
390
1D
100
AcDbBlockReference
  2
Group-10
 10
0.0
 20
0.0
 30
0.0
  0
INSERT
  5
187
330
35
100
AcDbEntity
  8
None
 62
     7
390
1D
100
AcDbBlockReference
  2
Group-11
 10
0.0
 20
0.0
 30
0.0
  0
INSERT
  5
188
330
35
100
AcDbEntity
  8
None
 62
     7
390
1D
100
AcDbBlockReference
  2
Group-12
 10
0.0
 20
0.0
 30
0.0
  0
ENDBLK
  5
189
330
35
100
AcDbEntity
  8
None
390
1D
100
AcDbBlockEnd
  0
BLOCK
  5
18A
330
36
100
AcDbEntity
  8
None
390
1D
100
AcDbBlockBegin
  2
Group-14
 70
     0
 10
0.0
 20
0.0
 30
0.0
  3
Group-14
  1

  0
LINE
  5
18B
330
36
100
AcDbEntity
  8
PLB-050-30Tw~
 62
   148
370
    25
390
1D
100
AcDbLine
 10
-8.229813644718034
 20
1.878370552154593
 30
0.0
 11
-8.229813644718034
 21
1.727064736989274
 31
0.0
  0
LINE
  5
18C
330
36
100
AcDbEntity
  8
PLB-050-30Tw~
 62
   148
370
    25
390
1D
100
AcDbLine
 10
-8.544774274639293
 20
1.878370552154593
 30
0.0
 11
-8.544774274639293
 21
1.727064736989274
 31
0.0
  0
LINE
  5
18D
330
36
100
AcDbEntity
  8
PLB-050-30Tw~
  6
Continuous
 62
   148
370
    25
390
1D
100
AcDbLine
 10
-8.544774274639293
 20
1.878370552154593
 30
0.0
 11
-8.229813644718034
 21
1.878370552154593
 31
0.0
  0
ARC
  5
18E
330
36
100
AcDbEntity
  8
PLB-050-30Tw~
  6
Continuous
 62
   148
370
    25
390
1D
100
AcDbCircle
 10
-8.387293959678663
 20
1.15789811120971
 30
0.0
 40
0.590551181102362
100
AcDbArc
 50
105.4660099534197
 51
74.53399004657854
  0
ENDBLK
  5
18F
330
36
100
AcDbEntity
  8
None
390
1D
100
AcDbBlockEnd
  0
BLOCK
  5
190
330
37
100
AcDbEntity
  8
None
390
1D
100
AcDbBlockBegin
  2
Group-15
 70
     0
 10
0.0
 20
0.0
 30
0.0
  3
Group-15
  1

  0
CIRCLE
  5
191
330
37
100
AcDbEntity
  8
PLB-050-30Tw~
  6
Continuous
 62
   148
370
    25
390
1D
100
AcDbCircle
 10
-8.387293959678663
 20
1.15789811120971
 30
0.0
 40
1.338582677165351
  0
INSERT
  5
192
330
37
100
AcDbEntity
  8
None
 62
     7
390
1D
100
AcDbBlockReference
  2
Group-14
 10
0.0
 20
0.0
 30
0.0
  0
ENDBLK
  5
193
330
37
100
AcDbEntity
  8
None
390
1D
100
AcDbBlockEnd
  0
BLOCK
  5
194
330
38
100
AcDbEntity
  8
Dimension
390
1D
100
AcDbBlockBegin
  2
*D22
 70
     1
 10
0.0
 20
0.0
 30
0.0
  3
*D22
  1

  0
LINE
  5
195
330
38
100
AcDbEntity
  8
Dimension
  6
Continuous
 62
     0
370
    -2
390
1D
100
AcDbLine
 10
-15.86612347687716
 20
-6.218503937007874
 30
0.0
 11
-15.86612347687716
 21
-5.866141732283502
 31
0.0
  0
LINE
  5
196
330
38
100
AcDbEntity
  8
Dimension
  6
Continuous
 62
     0
370
    -2
390
1D
100
AcDbLine
 10
-15.5511628469559
 20
-6.218503937007874
 30
0.0
 11
-15.5511628469559
 21
-5.866141732283502
 31
0.0
  0
LINE
  5
197
330
38
100
AcDbEntity
  8
Dimension
  6
Continuous
 62
     0
370
    -2
390
1D
100
AcDbLine
 10
-15.5511628469559
 20
-6.062992125984252
 30
0.0
 11
-15.86612347687716
 21
-6.062992125984252
 31
0.0
  0
LINE
  5
198
330
38
100
AcDbEntity
  8
Dimension
  6
Continuous
 62
     0
370
    -2
390
1D
100
AcDbLine
 10
-15.86612347687716
 20
-6.062992125984252
 30
0.0
 11
-17.08866909433101
 21
-6.062992125984252
 31
0.0
  0
POLYLINE
  5
199
102
{ACAD_REACTORS
330
19E
102
}
330
38
100
AcDbEntity
  8
None
  6
Continuous
 62
     0
370
     5
390
1D
100
AcDb2dPolyline
 66
     1
 10
0.0
 20
0.0
 30
0.0
 70
     1
 75
     5
  0
VERTEX
  5
19A
330
199
100
AcDbEntity
  8
None
  6
Continuous
 62
     0
370
     5
390
1D
100
AcDbVertex
100
AcDb2dVertex
 10
-16.17862347687716
 20
-5.979258003349527
 30
0.0
  0
VERTEX
  5
19B
330
199
100
AcDbEntity
  8
None
  6
Continuous
 62
     0
370
     5
390
1D
100
AcDbVertex
100
AcDb2dVertex
 10
-15.86612347687716
 20
-6.062992125984252
 30
0.0
  0
VERTEX
  5
19C
330
199
100
AcDbEntity
  8
None
  6
Continuous
 62
     0
370
     5
390
1D
100
AcDbVertex
100
AcDb2dVertex
 10
-16.17862347687716
 20
-6.146726248618978
 30
0.0
  0
SEQEND
  5
19D
330
199
100
AcDbEntity
  8
None
  6
Continuous
 62
     0
370
     5
390
1D
  0
HATCH
  5
19E
330
38
100
AcDbEntity
  8
Dimension
  6
Continuous
 62
     0
370
     0
390
1D
100
AcDbHatch
 10
0.0
 20
0.0
 30
0.0
210
0.0
220
0.0
230
1.0
  2
SOLID
 70
     1
 71
     1
 91
        1
 92
        1
 93
        3
 72
     1
 10
-16.17862347687716
 20
-5.979258003349527
 11
-15.86612347687716
 21
-6.062992125984252
 72
     1
 10
-15.86612347687716
 20
-6.062992125984252
 11
-16.17862347687716
 21
-6.146726248618978
 72
     1
 10
-16.17862347687716
 20
-6.146726248618978
 11
-16.17862347687716
 21
-5.979258003349527
 97
        1
330
199
 75
     0
 76
     1
 98
        1
 10
0.0
 20
0.0
  0
LINE
  5
19F
330
38
100
AcDbEntity
  8
Dimension
  6
Continuous
 62
     0
370
    -2
390
1D
100
AcDbLine
 10
-15.5511628469559
 20
-6.062992125984252
 30
0.0
 11
-14.86218646900315
 21
-6.062992125984252
 31
0.0
  0
POLYLINE
  5
1A0
102
{ACAD_REACTORS
330
1A5
102
}
330
38
100
AcDbEntity
  8
None
  6
Continuous
 62
     0
370
     5
390
1D
100
AcDb2dPolyline
 66
     1
 10
0.0
 20
0.0
 30
0.0
 70
     1
 75
     5
  0
VERTEX
  5
1A1
330
1A0
100
AcDbEntity
  8
None
  6
Continuous
 62
     0
370
     5
390
1D
100
AcDbVertex
100
AcDb2dVertex
 10
-15.2386628469559
 20
-6.146726248618978
 30
0.0
  0
VERTEX
  5
1A2
330
1A0
100
AcDbEntity
  8
None
  6
Continuous
 62
     0
370
     5
390
1D
100
AcDbVertex
100
AcDb2dVertex
 10
-15.5511628469559
 20
-6.062992125984252
 30
0.0
  0
VERTEX
  5
1A3
330
1A0
100
AcDbEntity
  8
None
  6
Continuous
 62
     0
370
     5
390
1D
100
AcDbVertex
100
AcDb2dVertex
 10
-15.2386628469559
 20
-5.979258003349527
 30
0.0
  0
SEQEND
  5
1A4
330
1A0
100
AcDbEntity
  8
None
  6
Continuous
 62
     0
370
     5
390
1D
  0
HATCH
  5
1A5
330
38
100
AcDbEntity
  8
Dimension
  6
Continuous
 62
     0
370
     0
390
1D
100
AcDbHatch
 10
0.0
 20
0.0
 30
0.0
210
0.0
220
0.0
230
1.0
  2
SOLID
 70
     1
 71
     1
 91
        1
 92
        1
 93
        3
 72
     1
 10
-15.2386628469559
 20
-6.146726248618978
 11
-15.5511628469559
 21
-6.062992125984252
 72
     1
 10
-15.5511628469559
 20
-6.062992125984252
 11
-15.2386628469559
 21
-5.979258003349527
 72
     1
 10
-15.2386628469559
 20
-5.979258003349527
 11
-15.2386628469559
 21
-6.146726248618978
 97
        1
330
1A0
 75
     0
 76
     1
 98
        1
 10
0.0
 20
0.0
  0
MTEXT
  5
1A6
330
38
100
AcDbEntity
  8
Dimension
 62
     0
390
1D
100
AcDbMText
 10
-17.08866909433101
 20
-5.38892000176324
 30
0.0
 40
0.1992580384816239
 41
0.0
 46
0.0
 71
     1
 72
     1
  1
.317
  7
Helvetica
 73
     1
 44
0.8397955333929318
  0
MTEXT
  5
1A7
330
38
100
AcDbEntity
  8
Dimension
 62
     0
390
1D
100
AcDbMText
 10
-17.08866909433101
 20
-5.736142223985461
 30
0.0
 40
0.1992580384816239
 41
0.0
 46
0.0
 71
     1
 72
     1
  1
.315
  7
Helvetica
 73
     1
 44
0.8397955333929318
  0
POINT
  5
1A8
330
38
100
AcDbEntity
  8
Defpoints
 62
     0
370
     0
390
1D
100
AcDbPoint
 10
-15.5511628469559
 20
-6.366141732283465
 30
0.0
  0
POINT
  5
1A9
330
38
100
AcDbEntity
  8
Defpoints
 62
     0
370
     0
390
1D
100
AcDbPoint
 10
-15.86612347687716
 20
-6.366141732283465
 30
0.0
  0
POINT
  5
1AA
330
38
100
AcDbEntity
  8
Defpoints
 62
     0
370
     0
390
1D
100
AcDbPoint
 10
-15.86612347687716
 20
-6.062992125984252
 30
0.0
  0
ENDBLK
  5
1AB
330
38
100
AcDbEntity
  8
Dimension
390
1D
100
AcDbBlockEnd
  0
BLOCK
  5
1AC
330
39
100
AcDbEntity
  8
Dimension
390
1D
100
AcDbBlockBegin
  2
*D23
 70
     1
 10
0.0
 20
0.0
 30
0.0
  3
*D23
  1

  0
LINE
  5
1AD
330
39
100
AcDbEntity
  8
Dimension
  6
Continuous
 62
     0
370
    -2
390
1D
100
AcDbLine
 10
-16.12622590671174
 20
-7.504196918023553
 30
0.0
 11
-16.49604473671968
 21
-7.874015748031493
 31
0.0
  0
POLYLINE
  5
1AE
102
{ACAD_REACTORS
330
1B3
102
}
330
39
100
AcDbEntity
  8
None
  6
Continuous
 62
     0
370
     5
390
1D
100
AcDb2dPolyline
 66
     1
 10
0.0
 20
0.0
 30
0.0
 70
     1
 75
     5
  0
VERTEX
  5
1AF
330
1AE
100
AcDbEntity
  8
None
  6
Continuous
 62
     0
370
     5
390
1D
100
AcDbVertex
100
AcDb2dVertex
 10
-16.40640574176425
 20
-7.665958821212628
 30
0.0
  0
VERTEX
  5
1B0
330
1AE
100
AcDbEntity
  8
None
  6
Continuous
 62
     0
370
     5
390
1D
100
AcDbVertex
100
AcDb2dVertex
 10
-16.12622590671174
 20
-7.504196918023553
 30
0.0
  0
VERTEX
  5
1B1
330
1AE
100
AcDbEntity
  8
None
  6
Continuous
 62
     0
370
     5
390
1D
100
AcDbVertex
100
AcDb2dVertex
 10
-16.28798780990081
 20
-7.78437675307607
 30
0.0
  0
SEQEND
  5
1B2
330
1AE
100
AcDbEntity
  8
None
  6
Continuous
 62
     0
370
     5
390
1D
  0
HATCH
  5
1B3
330
39
100
AcDbEntity
  8
Dimension
  6
Continuous
 62
     0
370
     0
390
1D
100
AcDbHatch
 10
0.0
 20
0.0
 30
0.0
210
0.0
220
0.0
230
1.0
  2
SOLID
 70
     1
 71
     1
 91
        1
 92
        1
 93
        3
 72
     1
 10
-16.40640574176425
 20
-7.665958821212628
 11
-16.12622590671174
 21
-7.504196918023553
 72
     1
 10
-16.12622590671174
 20
-7.504196918023553
 11
-16.28798780990081
 21
-7.78437675307607
 72
     1
 10
-16.28798780990081
 20
-7.78437675307607
 11
-16.40640574176425
 21
-7.665958821212628
 97
        1
330
1AE
 75
     0
 76
     1
 98
        1
 10
0.0
 20
0.0
  0
LINE
  5
1B4
330
39
100
AcDbEntity
  8
Dimension
  6
Continuous
 62
     0
370
    -2
390
1D
100
AcDbLine
 10
-16.49604473671968
 20
-7.874015748031493
 30
0.0
 11
-18.07495854803026
 21
-7.874015748031493
 31
0.0
  0
MTEXT
  5
1B5
330
39
100
AcDbEntity
  8
Dimension
 62
     0
390
1D
100
AcDbMText
 10
-18.07495854803026
 20
-7.442999179366036
 30
0.0
 40
0.1992580384816239
 41
0.0
 46
0.0
 71
     1
 72
     1
  1
Ø 
  7
Helvetica
 73
     1
 44
0.8397955333929318
  0
MTEXT
  5
1B6
330
39
100
AcDbEntity
  8
Dimension
 62
     0
390
1D
100
AcDbMText
 10
-17.78171853066915
 20
-7.19994362381048
 30
0.0
 40
0.1992580384816239
 41
0.0
 46
0.0
 71
     1
 72
     1
  1
1.182
  7
Helvetica
 73
     1
 44
0.8397955333929318
  0
MTEXT
  5
1B7
330
39
100
AcDbEntity
  8
Dimension
 62
     0
390
1D
100
AcDbMText
 10
-17.78171853066915
 20
-7.547165846032702
 30
0.0
 40
0.1992580384816239
 41
0.0
 46
0.0
 71
     1
 72
     1
  1
1.181
  7
Helvetica
 73
     1
 44
0.8397955333929318
  0
POINT
  5
1B8
330
39
100
AcDbEntity
  8
Defpoints
 62
     0
370
     0
390
1D
100
AcDbPoint
 10
-15.29106041712133
 20
-6.669031428433143
 30
0.0
  0
POINT
  5
1B9
330
39
100
AcDbEntity
  8
Defpoints
 62
     0
370
     0
390
1D
100
AcDbPoint
 10
-16.12622590671174
 20
-7.504196918023553
 30
0.0
  0
ENDBLK
  5
1BA
330
39
100
AcDbEntity
  8
Dimension
390
1D
100
AcDbBlockEnd
  0
BLOCK
  5
1BB
330
3A
100
AcDbEntity
  8
Dimension
390
1D
100
AcDbBlockBegin
  2
*D24
 70
     1
 10
0.0
 20
0.0
 30
0.0
  3
*D24
  1

  0
LINE
  5
1BC
330
3A
100
AcDbEntity
  8
Dimension
  6
Continuous
 62
     0
370
    -2
390
1D
100
AcDbLine
 10
-15.40352505168031
 20
-6.366141732283465
 30
0.0
 11
-14.07978225802105
 21
-6.366141732283465
 31
0.0
  0
LINE
  5
1BD
330
3A
100
AcDbEntity
  8
Dimension
  6
Continuous
 62
     0
370
    -2
390
1D
100
AcDbLine
 10
-15.56100536664095
 20
-7.677165354330709
 30
0.0
 11
-14.07978225802105
 21
-7.677165354330709
 31
0.0
  0
LINE
  5
1BE
330
3A
100
AcDbEntity
  8
Dimension
  6
Continuous
 62
     0
370
    -2
390
1D
100
AcDbLine
 10
-14.2766326517218
 20
-7.677165354330709
 30
0.0
 11
-14.2766326517218
 21
-6.366141732283465
 31
0.0
  0
LINE
  5
1BF
330
3A
100
AcDbEntity
  8
Dimension
  6
Continuous
 62
     0
370
    -2
390
1D
100
AcDbLine
 10
-14.2766326517218
 20
-6.366141732283465
 30
0.0
 11
-14.2766326517218
 21
-5.677165354330714
 31
0.0
  0
POLYLINE
  5
1C0
102
{ACAD_REACTORS
330
1C5
102
}
330
3A
100
AcDbEntity
  8
None
  6
Continuous
 62
     0
370
     5
390
1D
100
AcDb2dPolyline
 66
     1
 10
0.0
 20
0.0
 30
0.0
 70
     1
 75
     5
  0
VERTEX
  5
1C1
330
1C0
100
AcDbEntity
  8
None
  6
Continuous
 62
     0
370
     5
390
1D
100
AcDbVertex
100
AcDb2dVertex
 10
-14.19289852908707
 20
-6.053641732283465
 30
0.0
  0
VERTEX
  5
1C2
330
1C0
100
AcDbEntity
  8
None
  6
Continuous
 62
     0
370
     5
390
1D
100
AcDbVertex
100
AcDb2dVertex
 10
-14.2766326517218
 20
-6.366141732283465
 30
0.0
  0
VERTEX
  5
1C3
330
1C0
100
AcDbEntity
  8
None
  6
Continuous
 62
     0
370
     5
390
1D
100
AcDbVertex
100
AcDb2dVertex
 10
-14.36036677435652
 20
-6.053641732283465
 30
0.0
  0
SEQEND
  5
1C4
330
1C0
100
AcDbEntity
  8
None
  6
Continuous
 62
     0
370
     5
390
1D
  0
HATCH
  5
1C5
330
3A
100
AcDbEntity
  8
Dimension
  6
Continuous
 62
     0
370
     0
390
1D
100
AcDbHatch
 10
0.0
 20
0.0
 30
0.0
210
0.0
220
0.0
230
1.0
  2
SOLID
 70
     1
 71
     1
 91
        1
 92
        1
 93
        3
 72
     1
 10
-14.19289852908707
 20
-6.053641732283465
 11
-14.2766326517218
 21
-6.366141732283465
 72
     1
 10
-14.2766326517218
 20
-6.366141732283465
 11
-14.36036677435652
 21
-6.053641732283465
 72
     1
 10
-14.36036677435652
 20
-6.053641732283465
 11
-14.19289852908707
 21
-6.053641732283465
 97
        1
330
1C0
 75
     0
 76
     1
 98
        1
 10
0.0
 20
0.0
  0
LINE
  5
1C6
330
3A
100
AcDbEntity
  8
Dimension
  6
Continuous
 62
     0
370
    -2
390
1D
100
AcDbLine
 10
-14.2766326517218
 20
-7.677165354330709
 30
0.0
 11
-14.2766326517218
 21
-8.36614173228346
 31
0.0
  0
POLYLINE
  5
1C7
102
{ACAD_REACTORS
330
1CC
102
}
330
3A
100
AcDbEntity
  8
None
  6
Continuous
 62
     0
370
     5
390
1D
100
AcDb2dPolyline
 66
     1
 10
0.0
 20
0.0
 30
0.0
 70
     1
 75
     5
  0
VERTEX
  5
1C8
330
1C7
100
AcDbEntity
  8
None
  6
Continuous
 62
     0
370
     5
390
1D
100
AcDbVertex
100
AcDb2dVertex
 10
-14.36036677435652
 20
-7.989665354330709
 30
0.0
  0
VERTEX
  5
1C9
330
1C7
100
AcDbEntity
  8
None
  6
Continuous
 62
     0
370
     5
390
1D
100
AcDbVertex
100
AcDb2dVertex
 10
-14.2766326517218
 20
-7.677165354330709
 30
0.0
  0
VERTEX
  5
1CA
330
1C7
100
AcDbEntity
  8
None
  6
Continuous
 62
     0
370
     5
390
1D
100
AcDbVertex
100
AcDb2dVertex
 10
-14.19289852908707
 20
-7.989665354330709
 30
0.0
  0
SEQEND
  5
1CB
330
1C7
100
AcDbEntity
  8
None
  6
Continuous
 62
     0
370
     5
390
1D
  0
HATCH
  5
1CC
330
3A
100
AcDbEntity
  8
Dimension
  6
Continuous
 62
     0
370
     0
390
1D
100
AcDbHatch
 10
0.0
 20
0.0
 30
0.0
210
0.0
220
0.0
230
1.0
  2
SOLID
 70
     1
 71
     1
 91
        1
 92
        1
 93
        3
 72
     1
 10
-14.36036677435652
 20
-7.989665354330709
 11
-14.2766326517218
 21
-7.677165354330709
 72
     1
 10
-14.2766326517218
 20
-7.677165354330709
 11
-14.19289852908707
 21
-7.989665354330709
 72
     1
 10
-14.19289852908707
 20
-7.989665354330709
 11
-14.36036677435652
 21
-7.989665354330709
 97
        1
330
1C7
 75
     0
 76
     1
 98
        1
 10
0.0
 20
0.0
  0
MTEXT
  5
1CD
330
3A
100
AcDbEntity
  8
Dimension
 62
     0
390
1D
100
AcDbMText
 10
-14.62419395814541
 20
-6.723784393714351
 30
0.0
 40
0.1992580384816239
 41
0.0
 46
0.0
 71
     1
 72
     1
  1
1.323
  7
Helvetica
 73
     1
 44
0.8397955333929318
  0
MTEXT
  5
1CE
330
3A
100
AcDbEntity
  8
Dimension
 62
     0
390
1D
100
AcDbMText
 10
-14.62419395814541
 20
-7.071006615936573
 30
0.0
 40
0.1992580384816239
 41
0.0
 46
0.0
 71
     1
 72
     1
  1
1.311
  7
Helvetica
 73
     1
 44
0.8397955333929318
  0
POINT
  5
1CF
330
3A
100
AcDbEntity
  8
Defpoints
 62
     0
370
     0
390
1D
100
AcDbPoint
 10
-15.70864316191654
 20
-7.677165354330709
 30
0.0
  0
POINT
  5
1D0
330
3A
100
AcDbEntity
  8
Defpoints
 62
     0
370
     0
390
1D
100
AcDbPoint
 10
-15.5511628469559
 20
-6.366141732283465
 30
0.0
  0
POINT
  5
1D1
330
3A
100
AcDbEntity
  8
Defpoints
 62
     0
370
     0
390
1D
100
AcDbPoint
 10
-14.2766326517218
 20
-6.366141732283465
 30
0.0
  0
ENDBLK
  5
1D2
330
3A
100
AcDbEntity
  8
Dimension
390
1D
100
AcDbBlockEnd
  0
BLOCK
  5
1D3
330
3B
100
AcDbEntity
  8
Dimension
390
1D
100
AcDbBlockBegin
  2
Group-16
 70
     0
 10
0.0
 20
0.0
 30
0.0
  3
Group-16
  1

  0
LINE
  5
1D4
330
3B
100
AcDbEntity
  8
None
  6
Continuous
 62
     5
370
    15
390
1D
100
AcDbLine
 10
-8.633356951804666
 20
-6.928716062018637
 30
0.0
 11
-8.141230967552666
 21
-6.928716062018637
 31
0.0
  0
LINE
  5
1D5
330
3B
100
AcDbEntity
  8
None
  6
Continuous
 62
     5
370
    15
390
1D
100
AcDbLine
 10
-8.387293959678667
 20
-7.174779054144636
 30
0.0
 11
-8.387293959678667
 21
-6.682653069892637
 31
0.0
  0
LINE
  5
1D6
330
3B
100
AcDbEntity
  8
None
  6
Continuous
 62
     5
370
    15
390
1D
100
AcDbLine
 10
-9.273120731332279
 20
-6.928716062018637
 30
0.0
 11
-8.830207345505418
 21
-6.928716062018637
 31
0.0
  0
LINE
  5
1D7
330
3B
100
AcDbEntity
  8
None
  6
Continuous
 62
     5
370
    15
390
1D
100
AcDbLine
 10
-7.944380573851916
 20
-6.928716062018637
 30
0.0
 11
-7.501467188025054
 21
-6.928716062018637
 31
0.0
  0
LINE
  5
1D8
330
3B
100
AcDbEntity
  8
None
  6
Continuous
 62
     5
370
    15
390
1D
100
AcDbLine
 10
-8.387293959678667
 20
-6.053581568026421
 30
0.0
 11
-8.387293959678667
 21
-6.485802676191886
 31
0.0
  0
LINE
  5
1D9
330
3B
100
AcDbEntity
  8
None
  6
Continuous
 62
     5
370
    15
390
1D
100
AcDbLine
 10
-8.387293959678667
 20
-7.371629447845387
 30
0.0
 11
-8.387293959678667
 21
-7.803850556010852
 31
0.0
  0
ENDBLK
  5
1DA
330
3B
100
AcDbEntity
  8
Dimension
390
1D
100
AcDbBlockEnd
  0
BLOCK
  5
1DB
330
3C
100
AcDbEntity
  8
Dimension
390
1D
100
AcDbBlockBegin
  2
*D26
 70
     1
 10
0.0
 20
0.0
 30
0.0
  3
*D26
  1

  0
LINE
  5
1DC
330
3C
100
AcDbEntity
  8
Dimension
  6
Continuous
 62
     0
370
    -2
390
1D
100
AcDbLine
 10
-13.49772817899182
 20
-1.243184071430324
 30
0.0
 11
-12.60434519282342
 21
-2.149606299212599
 31
0.0
  0
POLYLINE
  5
1DD
102
{ACAD_REACTORS
330
1E2
102
}
330
3C
100
AcDbEntity
  8
None
  6
Continuous
 62
     0
370
     5
390
1D
100
AcDb2dPolyline
 66
     1
 10
0.0
 20
0.0
 30
0.0
 70
     1
 75
     5
  0
VERTEX
  5
1DE
330
1DD
100
AcDbEntity
  8
None
  6
Continuous
 62
     0
370
     5
390
1D
100
AcDbVertex
100
AcDb2dVertex
 10
-13.33596627580275
 20
-1.523363906482841
 30
0.0
  0
VERTEX
  5
1DF
330
1DD
100
AcDbEntity
  8
None
  6
Continuous
 62
     0
370
     5
390
1D
100
AcDbVertex
100
AcDb2dVertex
 10
-13.49772817899182
 20
-1.243184071430324
 30
0.0
  0
VERTEX
  5
1E0
330
1DD
100
AcDbEntity
  8
None
  6
Continuous
 62
     0
370
     5
390
1D
100
AcDbVertex
100
AcDb2dVertex
 10
-13.21754834393931
 20
-1.4049459746194
 30
0.0
  0
SEQEND
  5
1E1
330
1DD
100
AcDbEntity
  8
None
  6
Continuous
 62
     0
370
     5
390
1D
  0
HATCH
  5
1E2
330
3C
100
AcDbEntity
  8
Dimension
  6
Continuous
 62
     0
370
     0
390
1D
100
AcDbHatch
 10
0.0
 20
0.0
 30
0.0
210
0.0
220
0.0
230
1.0
  2
SOLID
 70
     1
 71
     1
 91
        1
 92
        1
 93
        3
 72
     1
 10
-13.33596627580275
 20
-1.523363906482841
 11
-13.49772817899182
 21
-1.243184071430324
 72
     1
 10
-13.49772817899182
 20
-1.243184071430324
 11
-13.21754834393931
 21
-1.4049459746194
 72
     1
 10
-13.21754834393931
 20
-1.4049459746194
 11
-13.33596627580275
 21
-1.523363906482841
 97
        1
330
1DD
 75
     0
 76
     1
 98
        1
 10
0.0
 20
0.0
  0
LINE
  5
1E3
330
3C
100
AcDbEntity
  8
Dimension
  6
Continuous
 62
     0
370
    -2
390
1D
100
AcDbLine
 10
-12.60434519282342
 20
-2.149606299212599
 30
0.0
 11
-11.17991814366561
 21
-2.149606299212599
 31
0.0
  0
MTEXT
  5
1E4
330
3C
100
AcDbEntity
  8
Dimension
 62
     0
390
1D
100
AcDbMText
 10
-12.01379401172117
 20
-1.788034174991586
 30
0.0
 40
0.1992580384816239
 41
0.0
 46
0.0
 71
     1
 72
     1
  1
Ø 6.30
  7
Helvetica
 73
     1
 44
0.8397955333929318
  0
POINT
  5
1E5
330
3C
100
AcDbEntity
  8
Defpoints
 62
     0
370
     0
390
1D
100
AcDbPoint
 10
-17.91955814484123
 20
3.243184071430325
 30
0.0
  0
POINT
  5
1E6
330
3C
100
AcDbEntity
  8
Defpoints
 62
     0
370
     0
390
1D
100
AcDbPoint
 10
-13.49772817899182
 20
-1.243184071430324
 30
0.0
  0
ENDBLK
  5
1E7
330
3C
100
AcDbEntity
  8
Dimension
390
1D
100
AcDbBlockEnd
  0
BLOCK
  5
1E8
330
3D
100
AcDbEntity
  8
Dimension
390
1D
100
AcDbBlockBegin
  2
*D27
 70
     1
 10
0.0
 20
0.0
 30
0.0
  3
*D27
  1

  0
LINE
  5
1E9
330
3D
100
AcDbEntity
  8
Dimension
  6
Continuous
 62
     0
370
    -2
390
1D
100
AcDbLine
 10
-14.21099253225156
 20
4.297918863452611
 30
0.0
 11
-13.8130004337911
 21
5.174321959755138
 31
0.0
  0
POLYLINE
  5
1EA
102
{ACAD_REACTORS
330
1EF
102
}
330
3D
100
AcDbEntity
  8
None
  6
Continuous
 62
     0
370
     5
390
1D
100
AcDb2dPolyline
 66
     1
 10
0.0
 20
0.0
 30
0.0
 70
     1
 75
     5
  0
VERTEX
  5
1EB
330
1EA
100
AcDbEntity
  8
None
  6
Continuous
 62
     0
370
     5
390
1D
100
AcDbVertex
100
AcDb2dVertex
 10
-14.00303543807305
 20
4.545752477545293
 30
0.0
  0
VERTEX
  5
1EC
330
1EA
100
AcDbEntity
  8
None
  6
Continuous
 62
     0
370
     5
390
1D
100
AcDbVertex
100
AcDb2dVertex
 10
-14.21099253225156
 20
4.297918863452611
 30
0.0
  0
VERTEX
  5
1ED
330
1EA
100
AcDbEntity
  8
None
  6
Continuous
 62
     0
370
     5
390
1D
100
AcDbVertex
100
AcDb2dVertex
 10
-14.15481321284212
 20
4.616527616257834
 30
0.0
  0
SEQEND
  5
1EE
330
1EA
100
AcDbEntity
  8
None
  6
Continuous
 62
     0
370
     5
390
1D
  0
HATCH
  5
1EF
330
3D
100
AcDbEntity
  8
Dimension
  6
Continuous
 62
     0
370
     0
390
1D
100
AcDbHatch
 10
0.0
 20
0.0
 30
0.0
210
0.0
220
0.0
230
1.0
  2
SOLID
 70
     1
 71
     1
 91
        1
 92
        1
 93
        3
 72
     1
 10
-14.00303543807305
 20
4.545752477545293
 11
-14.21099253225156
 21
4.297918863452611
 72
     1
 10
-14.21099253225156
 20
4.297918863452611
 11
-14.15481321284212
 21
4.616527616257834
 72
     1
 10
-14.15481321284212
 20
4.616527616257834
 11
-14.00303543807305
 21
4.545752477545293
 97
        1
330
1EA
 75
     0
 76
     1
 98
        1
 10
0.0
 20
0.0
  0
LINE
  5
1F0
330
3D
100
AcDbEntity
  8
Dimension
  6
Continuous
 62
     0
370
    -2
390
1D
100
AcDbLine
 10
-13.8130004337911
 20
5.174321959755138
 30
0.0
 11
-12.23408662248052
 21
5.174321959755138
 31
0.0
  0
MTEXT
  5
1F1
330
3D
100
AcDbEntity
  8
Dimension
 62
     0
390
1D
100
AcDbMText
 10
-13.22244925268885
 20
5.53589408397615
 30
0.0
 40
0.1992580384816237
 41
0.0
 46
0.0
 71
     1
 72
     1
  1
Ø 7.244
  7
Helvetica
 73
     1
 44
0.8397955333929318
  0
POINT
  5
1F2
330
3D
100
AcDbEntity
  8
Defpoints
 62
     0
370
     0
390
1D
100
AcDbPoint
 10
-17.2062937915815
 20
-2.29791886345261
 30
0.0
  0
POINT
  5
1F3
330
3D
100
AcDbEntity
  8
Defpoints
 62
     0
370
     0
390
1D
100
AcDbPoint
 10
-14.21099253225156
 20
4.297918863452611
 30
0.0
  0
ENDBLK
  5
1F4
330
3D
100
AcDbEntity
  8
Dimension
390
1D
100
AcDbBlockEnd
  0
BLOCK
  5
1F5
330
3E
100
AcDbEntity
  8
Dimension
390
1D
100
AcDbBlockBegin
  2
*D28
 70
     1
 10
0.0
 20
0.0
 30
0.0
  3
*D28
  1

  0
LINE
  5
1F6
330
3E
100
AcDbEntity
  8
Dimension
  6
Continuous
 62
     0
370
    -2
390
1D
100
AcDbLine
 10
-9.613015783948878
 20
4.139763779527563
 30
0.0
 11
-9.613015783948878
 21
7.023622047244057
 31
0.0
  0
LINE
  5
1F7
330
3E
100
AcDbEntity
  8
Dimension
  6
Continuous
 62
     0
370
    -2
390
1D
100
AcDbLine
 10
-6.778291611104942
 20
1.954955434591735
 30
0.0
 11
-6.778291611104942
 21
7.023622047244057
 31
0.0
  0
LINE
  5
1F8
330
3E
100
AcDbEntity
  8
Dimension
  6
Continuous
 62
     0
370
    -2
390
1D
100
AcDbLine
 10
-9.613015783948878
 20
6.826771653543307
 30
0.0
 11
-6.778291611104942
 21
6.826771653543307
 31
0.0
  0
POLYLINE
  5
1F9
102
{ACAD_REACTORS
330
1FE
102
}
330
3E
100
AcDbEntity
  8
None
  6
Continuous
 62
     0
370
     5
390
1D
100
AcDb2dPolyline
 66
     1
 10
0.0
 20
0.0
 30
0.0
 70
     1
 75
     5
  0
VERTEX
  5
1FA
330
1F9
100
AcDbEntity
  8
None
  6
Continuous
 62
     0
370
     5
390
1D
100
AcDbVertex
100
AcDb2dVertex
 10
-9.300515783948878
 20
6.74303753090858
 30
0.0
  0
VERTEX
  5
1FB
330
1F9
100
AcDbEntity
  8
None
  6
Continuous
 62
     0
370
     5
390
1D
100
AcDbVertex
100
AcDb2dVertex
 10
-9.613015783948878
 20
6.826771653543307
 30
0.0
  0
VERTEX
  5
1FC
330
1F9
100
AcDbEntity
  8
None
  6
Continuous
 62
     0
370
     5
390
1D
100
AcDbVertex
100
AcDb2dVertex
 10
-9.300515783948878
 20
6.910505776178033
 30
0.0
  0
SEQEND
  5
1FD
330
1F9
100
AcDbEntity
  8
None
  6
Continuous
 62
     0
370
     5
390
1D
  0
HATCH
  5
1FE
330
3E
100
AcDbEntity
  8
Dimension
  6
Continuous
 62
     0
370
     0
390
1D
100
AcDbHatch
 10
0.0
 20
0.0
 30
0.0
210
0.0
220
0.0
230
1.0
  2
SOLID
 70
     1
 71
     1
 91
        1
 92
        1
 93
        3
 72
     1
 10
-9.300515783948878
 20
6.74303753090858
 11
-9.613015783948878
 21
6.826771653543307
 72
     1
 10
-9.613015783948878
 20
6.826771653543307
 11
-9.300515783948878
 21
6.910505776178033
 72
     1
 10
-9.300515783948878
 20
6.910505776178033
 11
-9.300515783948878
 21
6.74303753090858
 97
        1
330
1F9
 75
     0
 76
     1
 98
        1
 10
0.0
 20
0.0
  0
POLYLINE
  5
1FF
102
{ACAD_REACTORS
330
204
102
}
330
3E
100
AcDbEntity
  8
None
  6
Continuous
 62
     0
370
     5
390
1D
100
AcDb2dPolyline
 66
     1
 10
0.0
 20
0.0
 30
0.0
 70
     1
 75
     5
  0
VERTEX
  5
200
330
1FF
100
AcDbEntity
  8
None
  6
Continuous
 62
     0
370
     5
390
1D
100
AcDbVertex
100
AcDb2dVertex
 10
-7.090791611104942
 20
6.910505776178033
 30
0.0
  0
VERTEX
  5
201
330
1FF
100
AcDbEntity
  8
None
  6
Continuous
 62
     0
370
     5
390
1D
100
AcDbVertex
100
AcDb2dVertex
 10
-6.778291611104942
 20
6.826771653543307
 30
0.0
  0
VERTEX
  5
202
330
1FF
100
AcDbEntity
  8
None
  6
Continuous
 62
     0
370
     5
390
1D
100
AcDbVertex
100
AcDb2dVertex
 10
-7.090791611104942
 20
6.74303753090858
 30
0.0
  0
SEQEND
  5
203
330
1FF
100
AcDbEntity
  8
None
  6
Continuous
 62
     0
370
     5
390
1D
  0
HATCH
  5
204
330
3E
100
AcDbEntity
  8
Dimension
  6
Continuous
 62
     0
370
     0
390
1D
100
AcDbHatch
 10
0.0
 20
0.0
 30
0.0
210
0.0
220
0.0
230
1.0
  2
SOLID
 70
     1
 71
     1
 91
        1
 92
        1
 93
        3
 72
     1
 10
-7.090791611104942
 20
6.910505776178033
 11
-6.778291611104942
 21
6.826771653543307
 72
     1
 10
-6.778291611104942
 20
6.826771653543307
 11
-7.090791611104942
 21
6.74303753090858
 72
     1
 10
-7.090791611104942
 20
6.74303753090858
 11
-7.090791611104942
 21
6.910505776178033
 97
        1
330
1FF
 75
     0
 76
     1
 98
        1
 10
0.0
 20
0.0
  0
MTEXT
  5
205
330
3E
100
AcDbEntity
  8
Dimension
 62
     0
390
1D
100
AcDbMText
 10
-8.542836896974793
 20
7.188343777764319
 30
0.0
 40
0.1992580384816237
 41
0.0
 46
0.0
 71
     1
 72
     1
  1
2.835
  7
Helvetica
 73
     1
 44
0.8397955333929318
  0
POINT
  5
206
330
3E
100
AcDbEntity
  8
Defpoints
 62
     0
370
     0
390
1D
100
AcDbPoint
 10
-6.778291611104942
 20
1.807317639316144
 30
0.0
  0
POINT
  5
207
330
3E
100
AcDbEntity
  8
Defpoints
 62
     0
370
     0
390
1D
100
AcDbPoint
 10
-9.613015783948878
 20
3.992125984251972
 30
0.0
  0
POINT
  5
208
330
3E
100
AcDbEntity
  8
Defpoints
 62
     0
370
     0
390
1D
100
AcDbPoint
 10
-9.613015783948878
 20
6.826771653543307
 30
0.0
  0
ENDBLK
  5
209
330
3E
100
AcDbEntity
  8
Dimension
390
1D
100
AcDbBlockEnd
  0
BLOCK
  5
20A
330
3F
100
AcDbEntity
  8
Dimension
390
1D
100
AcDbBlockBegin
  2
*D29
 70
     1
 10
0.0
 20
0.0
 30
0.0
  3
*D29
  1

  0
LINE
  5
20B
330
3F
100
AcDbEntity
  8
Dimension
  6
Continuous
 62
     0
370
    -2
390
1D
100
AcDbLine
 10
-6.943725936309256
 20
2.486220472440942
 30
0.0
 11
-6.943725936309256
 21
6.35925751833078
 31
0.0
  0
LINE
  5
20C
330
3F
100
AcDbEntity
  8
Dimension
  6
Continuous
 62
     0
370
    -2
390
1D
100
AcDbLine
 10
-7.132700823318957
 20
4.179133858267714
 30
0.0
 11
-7.132700823318957
 21
6.35925751833078
 31
0.0
  0
LINE
  5
20D
330
3F
100
AcDbEntity
  8
Dimension
  6
Continuous
 62
     0
370
    -2
390
1D
100
AcDbLine
 10
-7.132700823318957
 20
6.162407124630031
 30
0.0
 11
-6.943725936309256
 21
6.162407124630031
 31
0.0
  0
LINE
  5
20E
330
3F
100
AcDbEntity
  8
Dimension
  6
Continuous
 62
     0
370
    -2
390
1D
100
AcDbLine
 10
-6.943725936309256
 20
6.162407124630031
 30
0.0
 11
-5.648244245106324
 21
6.162407124630031
 31
0.0
  0
POLYLINE
  5
20F
102
{ACAD_REACTORS
330
214
102
}
330
3F
100
AcDbEntity
  8
None
  6
Continuous
 62
     0
370
     5
390
1D
100
AcDb2dPolyline
 66
     1
 10
0.0
 20
0.0
 30
0.0
 70
     1
 75
     5
  0
VERTEX
  5
210
330
20F
100
AcDbEntity
  8
None
  6
Continuous
 62
     0
370
     5
390
1D
100
AcDbVertex
100
AcDb2dVertex
 10
-6.631225936309256
 20
6.078673001995305
 30
0.0
  0
VERTEX
  5
211
330
20F
100
AcDbEntity
  8
None
  6
Continuous
 62
     0
370
     5
390
1D
100
AcDbVertex
100
AcDb2dVertex
 10
-6.943725936309256
 20
6.162407124630031
 30
0.0
  0
VERTEX
  5
212
330
20F
100
AcDbEntity
  8
None
  6
Continuous
 62
     0
370
     5
390
1D
100
AcDbVertex
100
AcDb2dVertex
 10
-6.631225936309256
 20
6.246141247264756
 30
0.0
  0
SEQEND
  5
213
330
20F
100
AcDbEntity
  8
None
  6
Continuous
 62
     0
370
     5
390
1D
  0
HATCH
  5
214
330
3F
100
AcDbEntity
  8
Dimension
  6
Continuous
 62
     0
370
     0
390
1D
100
AcDbHatch
 10
0.0
 20
0.0
 30
0.0
210
0.0
220
0.0
230
1.0
  2
SOLID
 70
     1
 71
     1
 91
        1
 92
        1
 93
        3
 72
     1
 10
-6.631225936309256
 20
6.078673001995305
 11
-6.943725936309256
 21
6.162407124630031
 72
     1
 10
-6.943725936309256
 20
6.162407124630031
 11
-6.631225936309256
 21
6.246141247264756
 72
     1
 10
-6.631225936309256
 20
6.246141247264756
 11
-6.631225936309256
 21
6.078673001995305
 97
        1
330
20F
 75
     0
 76
     1
 98
        1
 10
0.0
 20
0.0
  0
LINE
  5
215
330
3F
100
AcDbEntity
  8
Dimension
  6
Continuous
 62
     0
370
    -2
390
1D
100
AcDbLine
 10
-7.132700823318957
 20
6.162407124630031
 30
0.0
 11
-7.821677201271707
 21
6.162407124630031
 31
0.0
  0
POLYLINE
  5
216
102
{ACAD_REACTORS
330
21B
102
}
330
3F
100
AcDbEntity
  8
None
  6
Continuous
 62
     0
370
     5
390
1D
100
AcDb2dPolyline
 66
     1
 10
0.0
 20
0.0
 30
0.0
 70
     1
 75
     5
  0
VERTEX
  5
217
330
216
100
AcDbEntity
  8
None
  6
Continuous
 62
     0
370
     5
390
1D
100
AcDbVertex
100
AcDb2dVertex
 10
-7.445200823318957
 20
6.246141247264756
 30
0.0
  0
VERTEX
  5
218
330
216
100
AcDbEntity
  8
None
  6
Continuous
 62
     0
370
     5
390
1D
100
AcDbVertex
100
AcDb2dVertex
 10
-7.132700823318957
 20
6.162407124630031
 30
0.0
  0
VERTEX
  5
219
330
216
100
AcDbEntity
  8
None
  6
Continuous
 62
     0
370
     5
390
1D
100
AcDbVertex
100
AcDb2dVertex
 10
-7.445200823318957
 20
6.078673001995305
 30
0.0
  0
SEQEND
  5
21A
330
216
100
AcDbEntity
  8
None
  6
Continuous
 62
     0
370
     5
390
1D
  0
HATCH
  5
21B
330
3F
100
AcDbEntity
  8
Dimension
  6
Continuous
 62
     0
370
     0
390
1D
100
AcDbHatch
 10
0.0
 20
0.0
 30
0.0
210
0.0
220
0.0
230
1.0
  2
SOLID
 70
     1
 71
     1
 91
        1
 92
        1
 93
        3
 72
     1
 10
-7.445200823318957
 20
6.246141247264756
 11
-7.132700823318957
 21
6.162407124630031
 72
     1
 10
-7.132700823318957
 20
6.162407124630031
 11
-7.445200823318957
 21
6.078673001995305
 72
     1
 10
-7.445200823318957
 20
6.078673001995305
 11
-7.445200823318957
 21
6.246141247264756
 97
        1
330
216
 75
     0
 76
     1
 98
        1
 10
0.0
 20
0.0
  0
MTEXT
  5
21C
330
3F
100
AcDbEntity
  8
Dimension
 62
     0
390
1D
100
AcDbMText
 10
-6.188880095800768
 20
6.523979248851043
 30
0.0
 40
0.1992580384816237
 41
0.0
 46
0.0
 71
     1
 72
     1
  1
.189
  7
Helvetica
 73
     1
 44
0.8397955333929318
  0
POINT
  5
21D
330
3F
100
AcDbEntity
  8
Defpoints
 62
     0
370
     0
390
1D
100
AcDbPoint
 10
-7.132700823318957
 20
4.031496062992123
 30
0.0
  0
POINT
  5
21E
330
3F
100
AcDbEntity
  8
Defpoints
 62
     0
370
     0
390
1D
100
AcDbPoint
 10
-6.943725936309256
 20
2.338582677165352
 30
0.0
  0
POINT
  5
21F
330
3F
100
AcDbEntity
  8
Defpoints
 62
     0
370
     0
390
1D
100
AcDbPoint
 10
-6.943725936309256
 20
6.162407124630031
 30
0.0
  0
ENDBLK
  5
220
330
3F
100
AcDbEntity
  8
Dimension
390
1D
100
AcDbBlockEnd
  0
BLOCK
  5
221
330
40
100
AcDbEntity
  8
Dimension
390
1D
100
AcDbBlockBegin
  2
*D30
 70
     1
 10
0.0
 20
0.0
 30
0.0
  3
*D30
  1

  0
LINE
  5
222
330
40
100
AcDbEntity
  8
Dimension
  6
Continuous
 62
     0
370
    -2
390
1D
100
AcDbLine
 10
-6.778291611104942
 20
1.954957355858145
 30
0.0
 11
-6.778291611104942
 21
5.723269783020672
 31
0.0
  0
LINE
  5
223
330
40
100
AcDbEntity
  8
Dimension
  6
Continuous
 62
     0
370
    -2
390
1D
100
AcDbLine
 10
-7.132700823318958
 20
4.139763779527563
 30
0.0
 11
-7.132700823318958
 21
5.723269783020673
 31
0.0
  0
LINE
  5
224
330
40
100
AcDbEntity
  8
Dimension
  6
Continuous
 62
     0
370
    -2
390
1D
100
AcDbLine
 10
-7.132700823318958
 20
5.526419389319923
 30
0.0
 11
-6.778291611104942
 21
5.526419389319923
 31
0.0
  0
LINE
  5
225
330
40
100
AcDbEntity
  8
Dimension
  6
Continuous
 62
     0
370
    -2
390
1D
100
AcDbLine
 10
-6.778291611104942
 20
5.526419389319923
 30
0.0
 11
-5.648244245106324
 21
5.526419389319923
 31
0.0
  0
POLYLINE
  5
226
102
{ACAD_REACTORS
330
22B
102
}
330
40
100
AcDbEntity
  8
None
  6
Continuous
 62
     0
370
     5
390
1D
100
AcDb2dPolyline
 66
     1
 10
0.0
 20
0.0
 30
0.0
 70
     1
 75
     5
  0
VERTEX
  5
227
330
226
100
AcDbEntity
  8
None
  6
Continuous
 62
     0
370
     5
390
1D
100
AcDbVertex
100
AcDb2dVertex
 10
-6.465791611104942
 20
5.442685266685197
 30
0.0
  0
VERTEX
  5
228
330
226
100
AcDbEntity
  8
None
  6
Continuous
 62
     0
370
     5
390
1D
100
AcDbVertex
100
AcDb2dVertex
 10
-6.778291611104942
 20
5.526419389319923
 30
0.0
  0
VERTEX
  5
229
330
226
100
AcDbEntity
  8
None
  6
Continuous
 62
     0
370
     5
390
1D
100
AcDbVertex
100
AcDb2dVertex
 10
-6.465791611104942
 20
5.610153511954649
 30
0.0
  0
SEQEND
  5
22A
330
226
100
AcDbEntity
  8
None
  6
Continuous
 62
     0
370
     5
390
1D
  0
HATCH
  5
22B
330
40
100
AcDbEntity
  8
Dimension
  6
Continuous
 62
     0
370
     0
390
1D
100
AcDbHatch
 10
0.0
 20
0.0
 30
0.0
210
0.0
220
0.0
230
1.0
  2
SOLID
 70
     1
 71
     1
 91
        1
 92
        1
 93
        3
 72
     1
 10
-6.465791611104942
 20
5.442685266685197
 11
-6.778291611104942
 21
5.526419389319923
 72
     1
 10
-6.778291611104942
 20
5.526419389319923
 11
-6.465791611104942
 21
5.610153511954649
 72
     1
 10
-6.465791611104942
 20
5.610153511954649
 11
-6.465791611104942
 21
5.442685266685197
 97
        1
330
226
 75
     0
 76
     1
 98
        1
 10
0.0
 20
0.0
  0
LINE
  5
22C
330
40
100
AcDbEntity
  8
Dimension
  6
Continuous
 62
     0
370
    -2
390
1D
100
AcDbLine
 10
-7.132700823318958
 20
5.526419389319923
 30
0.0
 11
-7.821677201271708
 21
5.526419389319923
 31
0.0
  0
POLYLINE
  5
22D
102
{ACAD_REACTORS
330
232
102
}
330
40
100
AcDbEntity
  8
None
  6
Continuous
 62
     0
370
     5
390
1D
100
AcDb2dPolyline
 66
     1
 10
0.0
 20
0.0
 30
0.0
 70
     1
 75
     5
  0
VERTEX
  5
22E
330
22D
100
AcDbEntity
  8
None
  6
Continuous
 62
     0
370
     5
390
1D
100
AcDbVertex
100
AcDb2dVertex
 10
-7.445200823318958
 20
5.610153511954649
 30
0.0
  0
VERTEX
  5
22F
330
22D
100
AcDbEntity
  8
None
  6
Continuous
 62
     0
370
     5
390
1D
100
AcDbVertex
100
AcDb2dVertex
 10
-7.132700823318958
 20
5.526419389319923
 30
0.0
  0
VERTEX
  5
230
330
22D
100
AcDbEntity
  8
None
  6
Continuous
 62
     0
370
     5
390
1D
100
AcDbVertex
100
AcDb2dVertex
 10
-7.445200823318958
 20
5.442685266685197
 30
0.0
  0
SEQEND
  5
231
330
22D
100
AcDbEntity
  8
None
  6
Continuous
 62
     0
370
     5
390
1D
  0
HATCH
  5
232
330
40
100
AcDbEntity
  8
Dimension
  6
Continuous
 62
     0
370
     0
390
1D
100
AcDbHatch
 10
0.0
 20
0.0
 30
0.0
210
0.0
220
0.0
230
1.0
  2
SOLID
 70
     1
 71
     1
 91
        1
 92
        1
 93
        3
 72
     1
 10
-7.445200823318958
 20
5.610153511954649
 11
-7.132700823318958
 21
5.526419389319923
 72
     1
 10
-7.132700823318958
 20
5.526419389319923
 11
-7.445200823318958
 21
5.442685266685197
 72
     1
 10
-7.445200823318958
 20
5.442685266685197
 11
-7.445200823318958
 21
5.610153511954649
 97
        1
330
22D
 75
     0
 76
     1
 98
        1
 10
0.0
 20
0.0
  0
MTEXT
  5
233
330
40
100
AcDbEntity
  8
Dimension
 62
     0
390
1D
100
AcDbMText
 10
-6.188880095800767
 20
5.887991513540936
 30
0.0
 40
0.1992580384816237
 41
0.0
 46
0.0
 71
     1
 72
     1
  1
.354
  7
Helvetica
 73
     1
 44
0.8397955333929318
  0
POINT
  5
234
330
40
100
AcDbEntity
  8
Defpoints
 62
     0
370
     0
390
1D
100
AcDbPoint
 10
-7.132700823318958
 20
3.992125984251972
 30
0.0
  0
POINT
  5
235
330
40
100
AcDbEntity
  8
Defpoints
 62
     0
370
     0
390
1D
100
AcDbPoint
 10
-6.778291611104942
 20
1.807319560582555
 30
0.0
  0
POINT
  5
236
330
40
100
AcDbEntity
  8
Defpoints
 62
     0
370
     0
390
1D
100
AcDbPoint
 10
-6.778291611104942
 20
5.526419389319923
 30
0.0
  0
ENDBLK
  5
237
330
40
100
AcDbEntity
  8
Dimension
390
1D
100
AcDbBlockEnd
  0
BLOCK
  5
238
330
41
100
AcDbEntity
  8
None
390
1D
100
AcDbBlockBegin
  2
Group-17
 70
     0
 10
0.0
 20
0.0
 30
0.0
  3
Group-17
  1

  0
LINE
  5
239
330
41
100
AcDbEntity
  8
None
  6
STYLE_12
 62
     7
370
    15
390
1D
100
AcDbLine
 10
-0.3911188817196401
 20
4.777879621609483
 30
0.0
 11
-0.4096156486810994
 21
4.384613579835479
 31
0.0
  0
LINE
  5
23A
330
41
100
AcDbEntity
  8
None
  6
STYLE_12
 62
     7
370
    15
390
1D
100
AcDbLine
 10
-0.7878910407345493
 20
4.384613565826642
 30
0.0
 11
-0.8063875100488449
 21
4.777879621599988
 31
0.0
  0
LINE
  5
23B
330
41
100
AcDbEntity
  8
None
  6
STYLE_12
 62
     7
370
    15
390
1D
100
AcDbLine
 10
-0.7670710676735053
 20
4.779945355304194
 30
0.0
 11
-0.7485745983592075
 21
4.386679299530847
 31
0.0
  0
LINE
  5
23C
330
41
100
AcDbEntity
  8
None
  6
STYLE_12
 62
     7
370
    15
390
1D
100
AcDbLine
 10
-0.4304353239315191
 20
4.779945355304196
 30
0.0
 11
-0.4489317932458149
 21
4.386679299530849
 31
0.0
  0
LINE
  5
23D
330
41
100
AcDbEntity
  8
None
  6
STYLE_02
 62
     7
370
    15
390
1D
100
AcDbLine
 10
-0.5987531958025111
 20
4.323252441918366
 30
0.0
 11
-0.5987531958025111
 21
4.874433544280571
 31
0.0
  0
ENDBLK
  5
23E
330
41
100
AcDbEntity
  8
None
390
1D
100
AcDbBlockEnd
  0
BLOCK
  5
23F
330
42
100
AcDbEntity
  8
Dimension
390
1D
100
AcDbBlockBegin
  2
*D32
 70
     1
 10
0.0
 20
0.0
 30
0.0
  3
*D32
  1

  0
LINE
  5
240
330
42
100
AcDbEntity
  8
Dimension
  6
Continuous
 62
     0
370
    -2
390
1D
100
AcDbLine
 10
-7.132700823318957
 20
4.179133858267714
 30
0.0
 11
-7.132700823318957
 21
5.212598425196809
 31
0.0
  0
LINE
  5
241
330
42
100
AcDbEntity
  8
Dimension
  6
Continuous
 62
     0
370
    -2
390
1D
100
AcDbLine
 10
-7.920102398040376
 20
4.864173228346451
 30
0.0
 11
-7.920102398040376
 21
5.212598425196811
 31
0.0
  0
LINE
  5
242
330
42
100
AcDbEntity
  8
Dimension
  6
Continuous
 62
     0
370
    -2
390
1D
100
AcDbLine
 10
-7.920102398040376
 20
5.01574803149606
 30
0.0
 11
-7.132700823318957
 21
5.01574803149606
 31
0.0
  0
LINE
  5
243
330
42
100
AcDbEntity
  8
Dimension
  6
Continuous
 62
     0
370
    -2
390
1D
100
AcDbLine
 10
-7.132700823318957
 20
5.01574803149606
 30
0.0
 11
-6.443724445366207
 21
5.01574803149606
 31
0.0
  0
POLYLINE
  5
244
102
{ACAD_REACTORS
330
249
102
}
330
42
100
AcDbEntity
  8
None
  6
Continuous
 62
     0
370
     5
390
1D
100
AcDb2dPolyline
 66
     1
 10
0.0
 20
0.0
 30
0.0
 70
     1
 75
     5
  0
VERTEX
  5
245
330
244
100
AcDbEntity
  8
None
  6
Continuous
 62
     0
370
     5
390
1D
100
AcDbVertex
100
AcDb2dVertex
 10
-6.820200823318957
 20
4.932013908861334
 30
0.0
  0
VERTEX
  5
246
330
244
100
AcDbEntity
  8
None
  6
Continuous
 62
     0
370
     5
390
1D
100
AcDbVertex
100
AcDb2dVertex
 10
-7.132700823318957
 20
5.01574803149606
 30
0.0
  0
VERTEX
  5
247
330
244
100
AcDbEntity
  8
None
  6
Continuous
 62
     0
370
     5
390
1D
100
AcDbVertex
100
AcDb2dVertex
 10
-6.820200823318957
 20
5.099482154130786
 30
0.0
  0
SEQEND
  5
248
330
244
100
AcDbEntity
  8
None
  6
Continuous
 62
     0
370
     5
390
1D
  0
HATCH
  5
249
330
42
100
AcDbEntity
  8
Dimension
  6
Continuous
 62
     0
370
     0
390
1D
100
AcDbHatch
 10
0.0
 20
0.0
 30
0.0
210
0.0
220
0.0
230
1.0
  2
SOLID
 70
     1
 71
     1
 91
        1
 92
        1
 93
        3
 72
     1
 10
-6.820200823318957
 20
4.932013908861334
 11
-7.132700823318957
 21
5.01574803149606
 72
     1
 10
-7.132700823318957
 20
5.01574803149606
 11
-6.820200823318957
 21
5.099482154130786
 72
     1
 10
-6.820200823318957
 20
5.099482154130786
 11
-6.820200823318957
 21
4.932013908861334
 97
        1
330
244
 75
     0
 76
     1
 98
        1
 10
0.0
 20
0.0
  0
LINE
  5
24A
330
42
100
AcDbEntity
  8
Dimension
  6
Continuous
 62
     0
370
    -2
390
1D
100
AcDbLine
 10
-7.920102398040376
 20
5.01574803149606
 30
0.0
 11
-8.609078775993126
 21
5.01574803149606
 31
0.0
  0
POLYLINE
  5
24B
102
{ACAD_REACTORS
330
250
102
}
330
42
100
AcDbEntity
  8
None
  6
Continuous
 62
     0
370
     5
390
1D
100
AcDb2dPolyline
 66
     1
 10
0.0
 20
0.0
 30
0.0
 70
     1
 75
     5
  0
VERTEX
  5
24C
330
24B
100
AcDbEntity
  8
None
  6
Continuous
 62
     0
370
     5
390
1D
100
AcDbVertex
100
AcDb2dVertex
 10
-8.232602398040376
 20
5.099482154130786
 30
0.0
  0
VERTEX
  5
24D
330
24B
100
AcDbEntity
  8
None
  6
Continuous
 62
     0
370
     5
390
1D
100
AcDbVertex
100
AcDb2dVertex
 10
-7.920102398040376
 20
5.01574803149606
 30
0.0
  0
VERTEX
  5
24E
330
24B
100
AcDbEntity
  8
None
  6
Continuous
 62
     0
370
     5
390
1D
100
AcDbVertex
100
AcDb2dVertex
 10
-8.232602398040376
 20
4.932013908861334
 30
0.0
  0
SEQEND
  5
24F
330
24B
100
AcDbEntity
  8
None
  6
Continuous
 62
     0
370
     5
390
1D
  0
HATCH
  5
250
330
42
100
AcDbEntity
  8
Dimension
  6
Continuous
 62
     0
370
     0
390
1D
100
AcDbHatch
 10
0.0
 20
0.0
 30
0.0
210
0.0
220
0.0
230
1.0
  2
SOLID
 70
     1
 71
     1
 91
        1
 92
        1
 93
        3
 72
     1
 10
-8.232602398040376
 20
5.099482154130786
 11
-7.920102398040376
 21
5.01574803149606
 72
     1
 10
-7.920102398040376
 20
5.01574803149606
 11
-8.232602398040376
 21
4.932013908861334
 72
     1
 10
-8.232602398040376
 20
4.932013908861334
 11
-8.232602398040376
 21
5.099482154130786
 97
        1
330
24B
 75
     0
 76
     1
 98
        1
 10
0.0
 20
0.0
  0
MTEXT
  5
251
330
42
100
AcDbEntity
  8
Dimension
 62
     0
390
1D
100
AcDbMText
 10
-7.796719536026888
 20
5.377320155717073
 30
0.0
 40
0.1992580384816237
 41
0.0
 46
0.0
 71
     1
 72
     1
  1
.787
  7
Helvetica
 73
     1
 44
0.8397955333929318
  0
POINT
  5
252
330
42
100
AcDbEntity
  8
Defpoints
 62
     0
370
     0
390
1D
100
AcDbPoint
 10
-7.920102398040376
 20
4.71653543307086
 30
0.0
  0
POINT
  5
253
330
42
100
AcDbEntity
  8
Defpoints
 62
     0
370
     0
390
1D
100
AcDbPoint
 10
-7.132700823318957
 20
4.031496062992123
 30
0.0
  0
POINT
  5
254
330
42
100
AcDbEntity
  8
Defpoints
 62
     0
370
     0
390
1D
100
AcDbPoint
 10
-7.132700823318957
 20
5.01574803149606
 30
0.0
  0
ENDBLK
  5
255
330
42
100
AcDbEntity
  8
Dimension
390
1D
100
AcDbBlockEnd
  0
BLOCK
  5
256
330
43
100
AcDbEntity
  8
Dimension
390
1D
100
AcDbBlockBegin
  2
*D33
 70
     1
 10
0.0
 20
0.0
 30
0.0
  3
*D33
  1

  0
LINE
  5
257
330
43
100
AcDbEntity
  8
Dimension
  6
Continuous
 62
     0
370
    -2
390
1D
100
AcDbLine
 10
0.5287821162667061
 20
-0.2297125912682448
 30
0.0
 11
1.69293164123308
 21
-2.937007874015748
 31
0.0
  0
POLYLINE
  5
258
102
{ACAD_REACTORS
330
25D
102
}
330
43
100
AcDbEntity
  8
None
  6
Continuous
 62
     0
370
     5
390
1D
100
AcDb2dPolyline
 66
     1
 10
0.0
 20
0.0
 30
0.0
 70
     1
 75
     5
  0
VERTEX
  5
259
330
258
100
AcDbEntity
  8
None
  6
Continuous
 62
     0
370
     5
390
1D
100
AcDbVertex
100
AcDb2dVertex
 10
0.5793923898452515
 20
-0.5492532827329033
 30
0.0
  0
VERTEX
  5
25A
330
258
100
AcDbEntity
  8
None
  6
Continuous
 62
     0
370
     5
390
1D
100
AcDbVertex
100
AcDb2dVertex
 10
0.5287821162667061
 20
-0.2297125912682448
 30
0.0
  0
VERTEX
  5
25B
330
258
100
AcDbEntity
  8
None
  6
Continuous
 62
     0
370
     5
390
1D
100
AcDbVertex
100
AcDb2dVertex
 10
0.7323822446105366
 20
-0.4811378108302117
 30
0.0
  0
SEQEND
  5
25C
330
258
100
AcDbEntity
  8
None
  6
Continuous
 62
     0
370
     5
390
1D
  0
HATCH
  5
25D
330
43
100
AcDbEntity
  8
Dimension
  6
Continuous
 62
     0
370
     0
390
1D
100
AcDbHatch
 10
0.0
 20
0.0
 30
0.0
210
0.0
220
0.0
230
1.0
  2
SOLID
 70
     1
 71
     1
 91
        1
 92
        1
 93
        3
 72
     1
 10
0.5793923898452515
 20
-0.5492532827329033
 11
0.5287821162667061
 21
-0.2297125912682448
 72
     1
 10
0.5287821162667061
 20
-0.2297125912682448
 11
0.7323822446105366
 21
-0.4811378108302117
 72
     1
 10
0.7323822446105366
 20
-0.4811378108302117
 11
0.5793923898452515
 21
-0.5492532827329033
 97
        1
330
258
 75
     0
 76
     1
 98
        1
 10
0.0
 20
0.0
  0
LINE
  5
25E
330
43
100
AcDbEntity
  8
Dimension
  6
Continuous
 62
     0
370
    -2
390
1D
100
AcDbLine
 10
1.69293164123308
 20
-2.937007874015748
 30
0.0
 11
3.271845452543665
 21
-2.937007874015748
 31
0.0
  0
MTEXT
  5
25F
330
43
100
AcDbEntity
  8
Dimension
 62
     0
390
1D
100
AcDbMText
 10
2.283482822335329
 20
-2.525676344720391
 30
0.0
 40
0.1992580384816239
 41
0.0
 46
0.0
 71
     1
 72
     1
  1
Ø 
  7
Helvetica
 73
     1
 44
0.8397955333929318
  0
MTEXT
  5
260
330
43
100
AcDbEntity
  8
Dimension
 62
     0
390
1D
100
AcDbMText
 10
2.57672283969644
 20
-2.282620789164835
 30
0.0
 40
0.1992580384816239
 41
0.0
 46
0.0
 71
     1
 72
     1
  1
2.677
  7
Helvetica
 73
     1
 44
0.8397955333929318
  0
MTEXT
  5
261
330
43
100
AcDbEntity
  8
Dimension
 62
     0
390
1D
100
AcDbMText
 10
2.57672283969644
 20
-2.629843011387057
 30
0.0
 40
0.1992580384816239
 41
0.0
 46
0.0
 71
     1
 72
     1
  1
2.676
  7
Helvetica
 73
     1
 44
0.8397955333929318
  0
POINT
  5
262
330
43
100
AcDbEntity
  8
Defpoints
 62
     0
370
     0
390
1D
100
AcDbPoint
 10
-0.528782116266707
 20
2.229712591268247
 30
0.0
  0
POINT
  5
263
330
43
100
AcDbEntity
  8
Defpoints
 62
     0
370
     0
390
1D
100
AcDbPoint
 10
0.5287821162667061
 20
-0.2297125912682448
 30
0.0
  0
ENDBLK
  5
264
330
43
100
AcDbEntity
  8
Dimension
390
1D
100
AcDbBlockEnd
  0
BLOCK
  5
265
330
44
100
AcDbEntity
  8
None
390
1D
100
AcDbBlockBegin
  2
Group-18
 70
     0
 10
0.0
 20
0.0
 30
0.0
  3
Group-18
  1

  0
LINE
  5
266
330
44
100
AcDbEntity
  8
None
  6
STYLE_05
 62
     5
370
    15
390
1D
100
AcDbLine
 10
3.703168815985874
 20
1.32522094585538
 30
0.0
 11
4.037814485277212
 21
1.32522094585538
 31
0.0
  0
LINE
  5
267
330
44
100
AcDbEntity
  8
None
  6
STYLE_05
 62
     5
370
    15
390
1D
100
AcDbLine
 10
3.703168815985874
 20
0.990575276564041
 30
0.0
 11
4.037814485277212
 21
0.990575276564041
 31
0.0
  0
ENDBLK
  5
268
330
44
100
AcDbEntity
  8
None
390
1D
100
AcDbBlockEnd
  0
BLOCK
  5
269
330
45
100
AcDbEntity
  8
None
390
1D
100
AcDbBlockBegin
  2
Group-19
 70
     0
 10
0.0
 20
0.0
 30
0.0
  3
Group-19
  1

  0
LINE
  5
26A
330
45
100
AcDbEntity
  8
None
  6
STYLE_12
 62
     7
370
    15
390
1D
100
AcDbLine
 10
-12.00727547007844
 20
0.9502637971268398
 30
0.0
 11
-11.61400942830443
 21
0.9687605640882992
 31
0.0
  0
LINE
  5
26B
330
45
100
AcDbEntity
  8
None
  6
STYLE_12
 62
     7
370
    15
390
1D
100
AcDbLine
 10
-11.6140094142956
 20
1.347035956141748
 30
0.0
 11
-12.00727547006894
 21
1.365532425456045
 31
0.0
  0
LINE
  5
26C
330
45
100
AcDbEntity
  8
None
  6
STYLE_12
 62
     7
370
    15
390
1D
100
AcDbLine
 10
-12.00934120377315
 20
1.326215983080705
 30
0.0
 11
-11.6160751479998
 21
1.307719513766407
 31
0.0
  0
LINE
  5
26D
330
45
100
AcDbEntity
  8
None
  6
STYLE_12
 62
     7
370
    15
390
1D
100
AcDbLine
 10
-12.00934120377315
 20
0.9895802393387189
 30
0.0
 11
-11.6160751479998
 21
1.008076708653014
 31
0.0
  0
LINE
  5
26E
330
45
100
AcDbEntity
  8
None
  6
STYLE_02
 62
     7
370
    15
390
1D
100
AcDbLine
 10
-11.55264829038732
 20
1.157898111209711
 30
0.0
 11
-12.10382939274953
 21
1.157898111209711
 31
0.0
  0
ENDBLK
  5
26F
330
45
100
AcDbEntity
  8
None
390
1D
100
AcDbBlockEnd
  0
BLOCK
  5
270
330
46
100
AcDbEntity
  8
None
390
1D
100
AcDbBlockBegin
  2
Group-20
 70
     0
 10
0.0
 20
0.0
 30
0.0
  3
Group-20
  1

  0
LINE
  5
271
330
46
100
AcDbEntity
  8
None
  6
STYLE_05
 62
     7
370
    15
390
1D
100
AcDbLine
 10
-4.769113573426673
 20
1.32522094585538
 30
0.0
 11
-5.103759242718012
 21
1.32522094585538
 31
0.0
  0
LINE
  5
272
330
46
100
AcDbEntity
  8
None
  6
STYLE_05
 62
     7
370
    15
390
1D
100
AcDbLine
 10
-4.769113573426673
 20
0.990575276564041
 30
0.0
 11
-5.103759242718012
 21
0.990575276564041
 31
0.0
  0
ENDBLK
  5
273
330
46
100
AcDbEntity
  8
None
390
1D
100
AcDbBlockEnd
  0
BLOCK
  5
274
330
47
100
AcDbEntity
  8
None
390
1D
100
AcDbBlockBegin
  2
Group-21
 70
     0
 10
0.0
 20
0.0
 30
0.0
  3
Group-21
  1

  0
POLYLINE
  5
275
330
47
100
AcDbEntity
  8
None
  6
Continuous
 62
     7
370
    15
390
1D
100
AcDb2dPolyline
 66
     1
 10
0.0
 20
0.0
 30
0.0
 70
     1
 75
     5
  0
VERTEX
  5
276
330
275
100
AcDbEntity
  8
None
  6
Continuous
 62
     7
370
    15
390
1D
100
AcDbVertex
100
AcDb2dVertex
 10
10.97411718243468
 20
-7.245229441133697
 30
0.0
  0
VERTEX
  5
277
330
275
100
AcDbEntity
  8
None
  6
Continuous
 62
     7
370
    15
390
1D
100
AcDbVertex
100
AcDb2dVertex
 10
11.2189880262919
 20
-8.104111066057854
 30
0.0
  0
VERTEX
  5
278
330
275
100
AcDbEntity
  8
None
  6
Continuous
 62
     7
370
    15
390
1D
100
AcDbVertex
100
AcDb2dVertex
 10
11.40828898952507
 20
-8.025710753995957
 30
0.0
  0
SEQEND
  5
279
330
275
100
AcDbEntity
  8
None
  6
Continuous
 62
     7
370
    15
390
1D
  0
POLYLINE
  5
27B
330
47
100
AcDbEntity
  8
None
  6
Continuous
 62
     7
370
    15
390
1D
100
AcDb2dPolyline
 66
     1
 10
0.0
 20
0.0
 30
0.0
 70
     1
 75
     5
  0
VERTEX
  5
27C
330
27B
100
AcDbEntity
  8
None
  6
Continuous
 62
     7
370
    15
390
1D
100
AcDbVertex
100
AcDb2dVertex
 10
10.63192368398977
 20
-7.473879045068347
 30
0.0
  0
VERTEX
  5
27D
330
27B
100
AcDbEntity
  8
None
  6
Continuous
 62
     7
370
    15
390
1D
100
AcDbVertex
100
AcDb2dVertex
 10
11.1868346129595
 20
-8.173674184172395
 30
0.0
  0
VERTEX
  5
27E
330
27B
100
AcDbEntity
  8
None
  6
Continuous
 62
     7
370
    15
390
1D
100
AcDbVertex
100
AcDb2dVertex
 10
11.33172339785696
 20
-8.028799398155822
 30
0.0
  0
SEQEND
  5
27F
330
27B
100
AcDbEntity
  8
None
  6
Continuous
 62
     7
370
    15
390
1D
  0
POLYLINE
  5
281
330
47
100
AcDbEntity
  8
None
  6
Continuous
 62
     7
370
    15
390
1D
100
AcDb2dPolyline
 66
     1
 10
0.0
 20
0.0
 30
0.0
 70
     1
 75
     5
  0
VERTEX
  5
282
330
281
100
AcDbEntity
  8
None
  6
Continuous
 62
     7
370
    15
390
1D
100
AcDbVertex
100
AcDb2dVertex
 10
10.4032785298607
 20
-7.816075516778297
 30
0.0
  0
VERTEX
  5
283
330
281
100
AcDbEntity
  8
None
  6
Continuous
 62
     7
370
    15
390
1D
100
AcDbVertex
100
AcDb2dVertex
 10
11.18374938528742
 20
-8.250246703792374
 30
0.0
  0
VERTEX
  5
284
330
281
100
AcDbEntity
  8
None
  6
Continuous
 62
     7
370
    15
390
1D
100
AcDbVertex
100
AcDb2dVertex
 10
11.26216798776863
 20
-8.060953316698946
 30
0.0
  0
SEQEND
  5
285
330
281
100
AcDbEntity
  8
None
  6
Continuous
 62
     7
370
    15
390
1D
  0
POLYLINE
  5
287
330
47
100
AcDbEntity
  8
None
  6
Continuous
 62
     7
370
    15
390
1D
100
AcDb2dPolyline
 66
     1
 10
0.0
 20
0.0
 30
0.0
 70
     1
 75
     5
  0
VERTEX
  5
288
330
287
100
AcDbEntity
  8
None
  6
Continuous
 62
     7
370
    15
390
1D
100
AcDbVertex
100
AcDb2dVertex
 10
10.32299087209017
 20
-8.219722545464451
 30
0.0
  0
VERTEX
  5
289
330
287
100
AcDbEntity
  8
None
  6
Continuous
 62
     7
370
    15
390
1D
100
AcDbVertex
100
AcDb2dVertex
 10
11.21020204122106
 20
-8.322171152937276
 30
0.0
  0
VERTEX
  5
28A
330
287
100
AcDbEntity
  8
None
  6
Continuous
 62
     7
370
    15
390
1D
100
AcDbVertex
100
AcDb2dVertex
 10
11.21021193992467
 20
-8.117277367003137
 30
0.0
  0
SEQEND
  5
28B
330
287
100
AcDbEntity
  8
None
  6
Continuous
 62
     7
370
    15
390
1D
  0
POLYLINE
  5
28D
330
47
100
AcDbEntity
  8
None
  6
Continuous
 62
     7
370
    15
390
1D
100
AcDb2dPolyline
 66
     1
 10
0.0
 20
0.0
 30
0.0
 70
     1
 75
     5
  0
VERTEX
  5
28E
330
28D
100
AcDbEntity
  8
None
  6
Continuous
 62
     7
370
    15
390
1D
100
AcDbVertex
100
AcDb2dVertex
 10
10.4032837787643
 20
-8.623368530078762
 30
0.0
  0
VERTEX
  5
28F
330
28D
100
AcDbEntity
  8
None
  6
Continuous
 62
     7
370
    15
390
1D
100
AcDbVertex
100
AcDb2dVertex
 10
11.26216540368845
 20
-8.378497686221541
 30
0.0
  0
VERTEX
  5
290
330
28D
100
AcDbEntity
  8
None
  6
Continuous
 62
     7
370
    15
390
1D
100
AcDbVertex
100
AcDb2dVertex
 10
11.18376509162656
 20
-8.18919672298837
 30
0.0
  0
SEQEND
  5
291
330
28D
100
AcDbEntity
  8
None
  6
Continuous
 62
     7
370
    15
390
1D
  0
POLYLINE
  5
293
330
47
100
AcDbEntity
  8
None
  6
Continuous
 62
     7
370
    15
390
1D
100
AcDb2dPolyline
 66
     1
 10
0.0
 20
0.0
 30
0.0
 70
     1
 75
     5
  0
VERTEX
  5
294
330
293
100
AcDbEntity
  8
None
  6
Continuous
 62
     7
370
    15
390
1D
100
AcDbVertex
100
AcDb2dVertex
 10
12.35226152028333
 20
-8.623355858104546
 30
0.0
  0
VERTEX
  5
295
330
293
100
AcDbEntity
  8
None
  6
Continuous
 62
     7
370
    15
390
1D
100
AcDbVertex
100
AcDb2dVertex
 10
11.57179066485662
 20
-8.18918467109047
 30
0.0
  0
VERTEX
  5
296
330
293
100
AcDbEntity
  8
None
  6
Continuous
 62
     7
370
    15
390
1D
100
AcDbVertex
100
AcDb2dVertex
 10
11.49337206237541
 20
-8.378478058183905
 30
0.0
  0
SEQEND
  5
297
330
293
100
AcDbEntity
  8
None
  6
Continuous
 62
     7
370
    15
390
1D
  0
POLYLINE
  5
299
330
47
100
AcDbEntity
  8
None
  6
Continuous
 62
     7
370
    15
390
1D
100
AcDb2dPolyline
 66
     1
 10
0.0
 20
0.0
 30
0.0
 70
     1
 75
     5
  0
VERTEX
  5
29A
330
299
100
AcDbEntity
  8
None
  6
Continuous
 62
     7
370
    15
390
1D
100
AcDbVertex
100
AcDb2dVertex
 10
12.43254917805387
 20
-8.219708829418394
 30
0.0
  0
VERTEX
  5
29B
330
299
100
AcDbEntity
  8
None
  6
Continuous
 62
     7
370
    15
390
1D
100
AcDbVertex
100
AcDb2dVertex
 10
11.54533800892298
 20
-8.11726022194557
 30
0.0
  0
VERTEX
  5
29C
330
299
100
AcDbEntity
  8
None
  6
Continuous
 62
     7
370
    15
390
1D
100
AcDbVertex
100
AcDb2dVertex
 10
11.54532811021937
 20
-8.322154007879714
 30
0.0
  0
SEQEND
  5
29D
330
299
100
AcDbEntity
  8
None
  6
Continuous
 62
     7
370
    15
390
1D
  0
POLYLINE
  5
29F
330
47
100
AcDbEntity
  8
None
  6
Continuous
 62
     7
370
    15
390
1D
100
AcDb2dPolyline
 66
     1
 10
0.0
 20
0.0
 30
0.0
 70
     1
 75
     5
  0
VERTEX
  5
2A0
330
29F
100
AcDbEntity
  8
None
  6
Continuous
 62
     7
370
    15
390
1D
100
AcDbVertex
100
AcDb2dVertex
 10
12.35225627137974
 20
-7.816062844804081
 30
0.0
  0
VERTEX
  5
2A1
330
29F
100
AcDbEntity
  8
None
  6
Continuous
 62
     7
370
    15
390
1D
100
AcDbVertex
100
AcDb2dVertex
 10
11.49337464645558
 20
-8.060933688661308
 30
0.0
  0
VERTEX
  5
2A2
330
29F
100
AcDbEntity
  8
None
  6
Continuous
 62
     7
370
    15
390
1D
100
AcDbVertex
100
AcDb2dVertex
 10
11.57177495851749
 20
-8.25023465189448
 30
0.0
  0
SEQEND
  5
2A3
330
29F
100
AcDbEntity
  8
None
  6
Continuous
 62
     7
370
    15
390
1D
  0
POLYLINE
  5
2A5
330
47
100
AcDbEntity
  8
None
  6
Continuous
 62
     7
370
    15
390
1D
100
AcDb2dPolyline
 66
     1
 10
0.0
 20
0.0
 30
0.0
 70
     1
 75
     5
  0
VERTEX
  5
2A6
330
2A5
100
AcDbEntity
  8
None
  6
Continuous
 62
     7
370
    15
390
1D
100
AcDbVertex
100
AcDb2dVertex
 10
12.1236066674451
 20
-7.473869346359169
 30
0.0
  0
VERTEX
  5
2A7
330
2A5
100
AcDbEntity
  8
None
  6
Continuous
 62
     7
370
    15
390
1D
100
AcDbVertex
100
AcDb2dVertex
 10
11.42381152834105
 20
-8.02878027532891
 30
0.0
  0
VERTEX
  5
2A8
330
2A5
100
AcDbEntity
  8
None
  6
Continuous
 62
     7
370
    15
390
1D
100
AcDbVertex
100
AcDb2dVertex
 10
11.56868631435762
 20
-8.17366906022637
 30
0.0
  0
SEQEND
  5
2A9
330
2A5
100
AcDbEntity
  8
None
  6
Continuous
 62
     7
370
    15
390
1D
  0
POLYLINE
  5
2AB
330
47
100
AcDbEntity
  8
None
  6
Continuous
 62
     7
370
    15
390
1D
100
AcDb2dPolyline
 66
     1
 10
0.0
 20
0.0
 30
0.0
 70
     1
 75
     5
  0
VERTEX
  5
2AC
330
2AB
100
AcDbEntity
  8
None
  6
Continuous
 62
     7
370
    15
390
1D
100
AcDbVertex
100
AcDb2dVertex
 10
11.78141019573515
 20
-7.245224192230115
 30
0.0
  0
VERTEX
  5
2AD
330
2AB
100
AcDbEntity
  8
None
  6
Continuous
 62
     7
370
    15
390
1D
100
AcDbVertex
100
AcDb2dVertex
 10
11.34723900872107
 20
-8.025695047656825
 30
0.0
  0
VERTEX
  5
2AE
330
2AB
100
AcDbEntity
  8
None
  6
Continuous
 62
     7
370
    15
390
1D
100
AcDbVertex
100
AcDb2dVertex
 10
11.5365323958145
 20
-8.104113650138034
 30
0.0
  0
SEQEND
  5
2AF
330
2AB
100
AcDbEntity
  8
None
  6
Continuous
 62
     7
370
    15
390
1D
  0
POLYLINE
  5
2B1
330
47
100
AcDbEntity
  8
None
  6
Continuous
 62
     7
370
    15
390
1D
100
AcDb2dPolyline
 66
     1
 10
0.0
 20
0.0
 30
0.0
 70
     1
 75
     5
  0
VERTEX
  5
2B2
330
2B1
100
AcDbEntity
  8
None
  6
Continuous
 62
     7
370
    15
390
1D
100
AcDbVertex
100
AcDb2dVertex
 10
11.37776316704899
 20
-7.164936534459581
 30
0.0
  0
VERTEX
  5
2B3
330
2B1
100
AcDbEntity
  8
None
  6
Continuous
 62
     7
370
    15
390
1D
100
AcDbVertex
100
AcDb2dVertex
 10
11.27531455957617
 20
-8.052147703590462
 30
0.0
  0
VERTEX
  5
2B4
330
2B1
100
AcDbEntity
  8
None
  6
Continuous
 62
     7
370
    15
390
1D
100
AcDbVertex
100
AcDb2dVertex
 10
11.48020834551031
 20
-8.052157602294066
 30
0.0
  0
SEQEND
  5
2B5
330
2B1
100
AcDbEntity
  8
None
  6
Continuous
 62
     7
370
    15
390
1D
  0
ENDBLK
  5
2B7
330
47
100
AcDbEntity
  8
None
390
1D
100
AcDbBlockEnd
  0
BLOCK
  5
2B8
330
48
100
AcDbEntity
  8
None
390
1D
100
AcDbBlockBegin
  2
Group-22
 70
     0
 10
0.0
 20
0.0
 30
0.0
  3
Group-22
  1

  0
LINE
  5
2B9
330
48
100
AcDbEntity
  8
None
  6
Continuous
 62
   255
370
    25
390
1D
100
AcDbLine
 10
11.37777002507202
 20
-8.464937127223312
 30
0.0
 11
11.13708629581448
 21
-8.325978311346912
 31
0.0
  0
LINE
  5
2BA
330
48
100
AcDbEntity
  8
None
  6
Continuous
 62
   255
370
    25
390
1D
100
AcDbLine
 10
11.23937688074893
 20
-8.385035808094383
 30
0.0
 11
11.21909339020559
 21
-8.270002416937567
 31
0.0
  0
LINE
  5
2BB
330
48
100
AcDbEntity
  8
None
  6
Continuous
 62
   255
370
    25
390
1D
100
AcDbLine
 10
11.23937688074893
 20
-8.385035808094383
 30
0.0
 11
11.129613296452
 21
-8.424986485584835
 31
0.0
  0
ENDBLK
  5
2BC
330
48
100
AcDbEntity
  8
None
390
1D
100
AcDbBlockEnd
  0
BLOCK
  5
2BD
330
49
100
AcDbEntity
  8
None
390
1D
100
AcDbBlockBegin
  2
Group-23
 70
     0
 10
0.0
 20
0.0
 30
0.0
  3
Group-23
  1

  0
LINE
  5
2BE
330
49
100
AcDbEntity
  8
None
  6
Continuous
 62
   255
370
    25
390
1D
100
AcDbLine
 10
11.37777002507202
 20
-8.464937127223312
 30
0.0
 11
11.13708629581448
 21
-8.603895943099719
 31
0.0
  0
LINE
  5
2BF
330
49
100
AcDbEntity
  8
None
  6
Continuous
 62
   255
370
    25
390
1D
100
AcDbLine
 10
11.23937688074893
 20
-8.544838446352248
 30
0.0
 11
11.129613296452
 21
-8.504887768861792
 31
0.0
  0
LINE
  5
2C0
330
49
100
AcDbEntity
  8
None
  6
Continuous
 62
   255
370
    25
390
1D
100
AcDbLine
 10
11.23937688074893
 20
-8.544838446352248
 30
0.0
 11
11.21909339020559
 21
-8.659871837509058
 31
0.0
  0
ENDBLK
  5
2C1
330
49
100
AcDbEntity
  8
None
390
1D
100
AcDbBlockEnd
  0
BLOCK
  5
2C2
330
4A
100
AcDbEntity
  8
None
390
1D
100
AcDbBlockBegin
  2
Group-24
 70
     0
 10
0.0
 20
0.0
 30
0.0
  3
Group-24
  1

  0
LINE
  5
2C3
330
4A
100
AcDbEntity
  8
None
  6
Continuous
 62
   255
370
    25
390
1D
100
AcDbLine
 10
11.37777002507202
 20
-8.464937127223312
 30
0.0
 11
11.37777002507202
 21
-8.74285475897613
 31
0.0
  0
LINE
  5
2C4
330
4A
100
AcDbEntity
  8
None
  6
Continuous
 62
   255
370
    25
390
1D
100
AcDbLine
 10
11.37777002507202
 20
-8.62473976548118
 30
0.0
 11
11.28828993131842
 21
-8.699822479147539
 31
0.0
  0
LINE
  5
2C5
330
4A
100
AcDbEntity
  8
None
  6
Continuous
 62
   255
370
    25
390
1D
100
AcDbLine
 10
11.37777002507202
 20
-8.62473976548118
 30
0.0
 11
11.46725011882562
 21
-8.699822479147539
 31
0.0
  0
ENDBLK
  5
2C6
330
4A
100
AcDbEntity
  8
None
390
1D
100
AcDbBlockEnd
  0
BLOCK
  5
2C7
330
4B
100
AcDbEntity
  8
None
390
1D
100
AcDbBlockBegin
  2
Group-25
 70
     0
 10
0.0
 20
0.0
 30
0.0
  3
Group-25
  1

  0
LINE
  5
2C8
330
4B
100
AcDbEntity
  8
None
  6
Continuous
 62
   255
370
    25
390
1D
100
AcDbLine
 10
11.37777002507202
 20
-8.464937127223312
 30
0.0
 11
11.61845375432956
 21
-8.603895943099719
 31
0.0
  0
LINE
  5
2C9
330
4B
100
AcDbEntity
  8
None
  6
Continuous
 62
   255
370
    25
390
1D
100
AcDbLine
 10
11.51616316939511
 20
-8.544838446352248
 30
0.0
 11
11.53644665993844
 21
-8.659871837509058
 31
0.0
  0
LINE
  5
2CA
330
4B
100
AcDbEntity
  8
None
  6
Continuous
 62
   255
370
    25
390
1D
100
AcDbLine
 10
11.51616316939511
 20
-8.544838446352248
 30
0.0
 11
11.62592675369205
 21
-8.504887768861792
 31
0.0
  0
ENDBLK
  5
2CB
330
4B
100
AcDbEntity
  8
None
390
1D
100
AcDbBlockEnd
  0
BLOCK
  5
2CC
330
4C
100
AcDbEntity
  8
None
390
1D
100
AcDbBlockBegin
  2
Group-26
 70
     0
 10
0.0
 20
0.0
 30
0.0
  3
Group-26
  1

  0
LINE
  5
2CD
330
4C
100
AcDbEntity
  8
None
  6
Continuous
 62
   255
370
    25
390
1D
100
AcDbLine
 10
11.37777002507202
 20
-8.464937127223312
 30
0.0
 11
11.61845375432956
 21
-8.325978311346912
 31
0.0
  0
LINE
  5
2CE
330
4C
100
AcDbEntity
  8
None
  6
Continuous
 62
   255
370
    25
390
1D
100
AcDbLine
 10
11.51616316939511
 20
-8.385035808094383
 30
0.0
 11
11.62592675369205
 21
-8.424986485584835
 31
0.0
  0
LINE
  5
2CF
330
4C
100
AcDbEntity
  8
None
  6
Continuous
 62
   255
370
    25
390
1D
100
AcDbLine
 10
11.51616316939511
 20
-8.385035808094383
 30
0.0
 11
11.53644665993844
 21
-8.270002416937567
 31
0.0
  0
ENDBLK
  5
2D0
330
4C
100
AcDbEntity
  8
None
390
1D
100
AcDbBlockEnd
  0
BLOCK
  5
2D1
330
4D
100
AcDbEntity
  8
None
390
1D
100
AcDbBlockBegin
  2
Group-27
 70
     0
 10
0.0
 20
0.0
 30
0.0
  3
Group-27
  1

  0
LINE
  5
2D2
330
4D
100
AcDbEntity
  8
None
  6
Continuous
 62
   255
370
    25
390
1D
100
AcDbLine
 10
11.37777002507202
 20
-8.464937127223312
 30
0.0
 11
11.37777002507202
 21
-8.187019495470501
 31
0.0
  0
LINE
  5
2D3
330
4D
100
AcDbEntity
  8
None
  6
Continuous
 62
   255
370
    25
390
1D
100
AcDbLine
 10
11.37777002507202
 20
-8.30513448896545
 30
0.0
 11
11.46725011882562
 21
-8.230051775299092
 31
0.0
  0
LINE
  5
2D4
330
4D
100
AcDbEntity
  8
None
  6
Continuous
 62
   255
370
    25
390
1D
100
AcDbLine
 10
11.37777002507202
 20
-8.30513448896545
 30
0.0
 11
11.28828993131842
 21
-8.230051775299092
 31
0.0
  0
ENDBLK
  5
2D5
330
4D
100
AcDbEntity
  8
None
390
1D
100
AcDbBlockEnd
  0
BLOCK
  5
2D6
330
4E
100
AcDbEntity
  8
None
390
1D
100
AcDbBlockBegin
  2
Group-28
 70
     0
 10
0.0
 20
0.0
 30
0.0
  3
Group-28
  1

  0
INSERT
  5
2D7
330
4E
100
AcDbEntity
  8
None
 62
   255
390
1D
100
AcDbBlockReference
  2
Group-22
 10
0.0
 20
0.0
 30
0.0
  0
INSERT
  5
2D8
330
4E
100
AcDbEntity
  8
None
 62
   255
390
1D
100
AcDbBlockReference
  2
Group-23
 10
0.0
 20
0.0
 30
0.0
  0
INSERT
  5
2D9
330
4E
100
AcDbEntity
  8
None
 62
   255
390
1D
100
AcDbBlockReference
  2
Group-24
 10
0.0
 20
0.0
 30
0.0
  0
INSERT
  5
2DA
330
4E
100
AcDbEntity
  8
None
 62
   255
390
1D
100
AcDbBlockReference
  2
Group-25
 10
0.0
 20
0.0
 30
0.0
  0
INSERT
  5
2DB
330
4E
100
AcDbEntity
  8
None
 62
   255
390
1D
100
AcDbBlockReference
  2
Group-26
 10
0.0
 20
0.0
 30
0.0
  0
INSERT
  5
2DC
330
4E
100
AcDbEntity
  8
None
 62
   255
390
1D
100
AcDbBlockReference
  2
Group-27
 10
0.0
 20
0.0
 30
0.0
  0
ENDBLK
  5
2DD
330
4E
100
AcDbEntity
  8
None
390
1D
100
AcDbBlockEnd
  0
BLOCK
  5
2DE
330
4F
100
AcDbEntity
  8
None
390
1D
100
AcDbBlockBegin
  2
Group-29
 70
     0
 10
0.0
 20
0.0
 30
0.0
  3
Group-29
  1

  0
POLYLINE
  5
2DF
330
4F
100
AcDbEntity
  8
None
  6
Continuous
 62
     7
370
     5
390
1D
100
AcDb2dPolyline
 66
     1
 10
0.0
 20
0.0
 30
0.0
 70
     1
 75
     5
  0
VERTEX
  5
2E0
330
2DF
100
AcDbEntity
  8
None
  6
Continuous
 62
     7
370
     5
390
1D
100
AcDbVertex
100
AcDb2dVertex
 10
10.58590912577633
 20
-8.842986846887063
 30
0.0
  0
VERTEX
  5
2E1
330
2DF
100
AcDbEntity
  8
None
  6
Continuous
 62
     7
370
     5
390
1D
100
AcDbVertex
100
AcDb2dVertex
 10
12.16963092436771
 20
-8.842986846887063
 30
0.0
  0
VERTEX
  5
2E2
330
2DF
100
AcDbEntity
  8
None
  6
Continuous
 62
     7
370
     5
390
1D
100
AcDbVertex
100
AcDb2dVertex
 10
11.37777002507202
 20
-7.471443536779742
 30
0.0
  0
SEQEND
  5
2E3
330
2DF
100
AcDbEntity
  8
None
  6
Continuous
 62
     7
370
     5
390
1D
  0
LINE
  5
2E5
330
4F
100
AcDbEntity
  8
None
  6
Continuous
 62
     1
370
     5
390
1D
100
AcDbLine
 10
12.41016931582044
 20
-8.219715687441422
 30
0.0
 11
11.84753946315541
 21
-8.285108071383263
 31
0.0
  0
INSERT
  5
2E6
330
4F
100
AcDbEntity
  8
None
 62
     7
390
1D
100
AcDbBlockReference
  2
Group-21
 10
0.0
 20
0.0
 30
0.0
  0
INSERT
  5
2E7
330
4F
100
AcDbEntity
  8
None
 62
   255
390
1D
100
AcDbBlockReference
  2
Group-28
 10
0.0
 20
0.0
 30
0.0
  0
ENDBLK
  5
2E8
330
4F
100
AcDbEntity
  8
None
390
1D
100
AcDbBlockEnd
  0
BLOCK
  5
2E9
330
50
100
AcDbEntity
  8
None
390
1D
100
AcDbBlockBegin
  2
Group-30
 70
     0
 10
0.0
 20
0.0
 30
0.0
  3
Group-30
  1

  0
MTEXT
  5
2EA
330
50
100
AcDbEntity
  8
None
 62
     7
390
1D
100
AcDbMText
 10
11.37176895809704
 20
-9.013937440276505
 30
0.0
 40
0.3365812692125401
 41
0.0
 46
0.0
 71
     2
 72
     1
  1
PLACID
  7
Optima
 73
     1
 44
0.6164830475628545
  0
MTEXT
  5
2EB
330
50
100
AcDbEntity
  8
None
 62
     7
390
1D
100
AcDbMText
 10
10.55855396150818
 20
-9.430530404942441
 30
0.0
 40
0.2043529134504707
 41
0.0
 46
0.0
 71
     1
 72
     1
  1
INDUSTRIES
  7
Optima
 73
     1
 44
1.052953045237355
  0
INSERT
  5
2EC
330
50
100
AcDbEntity
  8
None
 62
     7
390
1D
100
AcDbBlockReference
  2
Group-29
 10
0.0
 20
0.0
 30
0.0
  0
ENDBLK
  5
2ED
330
50
100
AcDbEntity
  8
None
390
1D
100
AcDbBlockEnd
  0
BLOCK
  5
2EE
330
51
100
AcDbEntity
  8
None
390
1D
100
AcDbBlockBegin
  2
Group-31
 70
     0
 10
0.0
 20
0.0
 30
0.0
  3
Group-31
  1

  0
INSERT
  5
2EF
330
51
100
AcDbEntity
  8
None
 62
     7
390
1D
100
AcDbBlockReference
  2
Group-30
 10
0.0
 20
0.0
 30
0.0
  0
MTEXT
  5
2F0
330
51
100
AcDbEntity
  8
None
 62
     7
390
1D
100
AcDbMText
 10
4.56887539177183
 20
-8.90555226653099
 30
0.0
 40
0.2964959518445185
 41
4.881810957822652
 46
0.0
 71
     1
 72
     1
  1
Telephone  518 523-2422\Pwww.placidindustries.com
  7
Helvetica
 73
     1
 44
0.8397955333929318
  0
LINE
  5
2F1
330
51
100
AcDbEntity
  8
None
  6
Continuous
 62
     7
370
     5
390
1D
100
AcDbLine
 10
4.56887539177183
 20
-8.781137117023311
 30
0.0
 11
9.293275239371825
 21
-8.781137117023311
 31
0.0
  0
MTEXT
  5
2F2
330
51
100
AcDbEntity
  8
None
 62
     7
390
1D
100
AcDbMText
 10
4.565603171680945
 20
-8.352374505986269
 30
0.0
 40
0.2964959518445185
 41
0.0
 46
0.0
 71
     1
 72
     1
  1
Lake Placid,   NY      USA
  7
Helvetica
 73
     1
 44
0.8397955333929318
  0
ENDBLK
  5
2F3
330
51
100
AcDbEntity
  8
None
390
1D
100
AcDbBlockEnd
  0
BLOCK
  5
2F4
330
52
100
AcDbEntity
  8
Dimension
390
1D
100
AcDbBlockBegin
  2
*D48
 70
     1
 10
0.0
 20
0.0
 30
0.0
  3
*D48
  1

  0
LINE
  5
2F5
330
52
100
AcDbEntity
  8
Dimension
  6
Continuous
 62
     0
370
    -2
390
1D
100
AcDbLine
 10
-11.90977854639391
 20
-6.840551181102363
 30
0.0
 11
-11.90977854639391
 21
-7.773403324584285
 31
0.0
  0
LINE
  5
2F6
330
52
100
AcDbEntity
  8
Dimension
  6
Continuous
 62
     0
370
    -2
390
1D
100
AcDbLine
 10
-11.95308563300808
 20
-6.840551181102363
 30
0.0
 11
-11.95308563300808
 21
-7.773403324584285
 31
0.0
  0
LINE
  5
2F7
330
52
100
AcDbEntity
  8
Dimension
  6
Continuous
 62
     0
370
    -2
390
1D
100
AcDbLine
 10
-11.95308563300808
 20
-7.576552930883534
 30
0.0
 11
-11.90977854639391
 21
-7.576552930883534
 31
0.0
  0
LINE
  5
2F8
330
52
100
AcDbEntity
  8
Dimension
  6
Continuous
 62
     0
370
    -2
390
1D
100
AcDbLine
 10
-11.90977854639391
 20
-7.576552930883534
 30
0.0
 11
-9.514761330250957
 21
-7.576552930883534
 31
0.0
  0
POLYLINE
  5
2F9
102
{ACAD_REACTORS
330
2FE
102
}
330
52
100
AcDbEntity
  8
None
  6
Continuous
 62
     0
370
     5
390
1D
100
AcDb2dPolyline
 66
     1
 10
0.0
 20
0.0
 30
0.0
 70
     1
 75
     5
  0
VERTEX
  5
2FA
330
2F9
100
AcDbEntity
  8
None
  6
Continuous
 62
     0
370
     5
390
1D
100
AcDbVertex
100
AcDb2dVertex
 10
-11.59727854639391
 20
-7.66028705351826
 30
0.0
  0
VERTEX
  5
2FB
330
2F9
100
AcDbEntity
  8
None
  6
Continuous
 62
     0
370
     5
390
1D
100
AcDbVertex
100
AcDb2dVertex
 10
-11.90977854639391
 20
-7.576552930883534
 30
0.0
  0
VERTEX
  5
2FC
330
2F9
100
AcDbEntity
  8
None
  6
Continuous
 62
     0
370
     5
390
1D
100
AcDbVertex
100
AcDb2dVertex
 10
-11.59727854639391
 20
-7.492818808248808
 30
0.0
  0
SEQEND
  5
2FD
330
2F9
100
AcDbEntity
  8
None
  6
Continuous
 62
     0
370
     5
390
1D
  0
HATCH
  5
2FE
330
52
100
AcDbEntity
  8
Dimension
  6
Continuous
 62
     0
370
     0
390
1D
100
AcDbHatch
 10
0.0
 20
0.0
 30
0.0
210
0.0
220
0.0
230
1.0
  2
SOLID
 70
     1
 71
     1
 91
        1
 92
        1
 93
        3
 72
     1
 10
-11.59727854639391
 20
-7.66028705351826
 11
-11.90977854639391
 21
-7.576552930883534
 72
     1
 10
-11.90977854639391
 20
-7.576552930883534
 11
-11.59727854639391
 21
-7.492818808248808
 72
     1
 10
-11.59727854639391
 20
-7.492818808248808
 11
-11.59727854639391
 21
-7.66028705351826
 97
        1
330
2F9
 75
     0
 76
     1
 98
        1
 10
0.0
 20
0.0
  0
LINE
  5
2FF
330
52
100
AcDbEntity
  8
Dimension
  6
Continuous
 62
     0
370
    -2
390
1D
100
AcDbLine
 10
-11.95308563300808
 20
-7.576552930883534
 30
0.0
 11
-12.64206201096083
 21
-7.576552930883534
 31
0.0
  0
POLYLINE
  5
300
102
{ACAD_REACTORS
330
305
102
}
330
52
100
AcDbEntity
  8
None
  6
Continuous
 62
     0
370
     5
390
1D
100
AcDb2dPolyline
 66
     1
 10
0.0
 20
0.0
 30
0.0
 70
     1
 75
     5
  0
VERTEX
  5
301
330
300
100
AcDbEntity
  8
None
  6
Continuous
 62
     0
370
     5
390
1D
100
AcDbVertex
100
AcDb2dVertex
 10
-12.26558563300808
 20
-7.492818808248808
 30
0.0
  0
VERTEX
  5
302
330
300
100
AcDbEntity
  8
None
  6
Continuous
 62
     0
370
     5
390
1D
100
AcDbVertex
100
AcDb2dVertex
 10
-11.95308563300808
 20
-7.576552930883534
 30
0.0
  0
VERTEX
  5
303
330
300
100
AcDbEntity
  8
None
  6
Continuous
 62
     0
370
     5
390
1D
100
AcDbVertex
100
AcDb2dVertex
 10
-12.26558563300808
 20
-7.66028705351826
 30
0.0
  0
SEQEND
  5
304
330
300
100
AcDbEntity
  8
None
  6
Continuous
 62
     0
370
     5
390
1D
  0
HATCH
  5
305
330
52
100
AcDbEntity
  8
Dimension
  6
Continuous
 62
     0
370
     0
390
1D
100
AcDbHatch
 10
0.0
 20
0.0
 30
0.0
210
0.0
220
0.0
230
1.0
  2
SOLID
 70
     1
 71
     1
 91
        1
 92
        1
 93
        3
 72
     1
 10
-12.26558563300808
 20
-7.492818808248808
 11
-11.95308563300808
 21
-7.576552930883534
 72
     1
 10
-11.95308563300808
 20
-7.576552930883534
 11
-12.26558563300808
 21
-7.66028705351826
 72
     1
 10
-12.26558563300808
 20
-7.66028705351826
 11
-12.26558563300808
 21
-7.492818808248808
 97
        1
330
300
 75
     0
 76
     1
 98
        1
 10
0.0
 20
0.0
  0
MTEXT
  5
306
330
52
100
AcDbEntity
  8
Dimension
 62
     0
390
1D
100
AcDbMText
 10
-11.25982426427874
 20
-7.214980806662521
 30
0.0
 40
0.1992580384816237
 41
0.0
 46
0.0
 71
     1
 72
     1
  1
.043 x Ø1.220
  7
Helvetica
 73
     1
 44
0.8397955333929318
  0
POINT
  5
307
330
52
100
AcDbEntity
  8
Defpoints
 62
     0
370
     0
390
1D
100
AcDbPoint
 10
-11.95308563300808
 20
-6.692913385826772
 30
0.0
  0
POINT
  5
308
330
52
100
AcDbEntity
  8
Defpoints
 62
     0
370
     0
390
1D
100
AcDbPoint
 10
-11.90977854639391
 20
-6.692913385826772
 30
0.0
  0
POINT
  5
309
330
52
100
AcDbEntity
  8
Defpoints
 62
     0
370
     0
390
1D
100
AcDbPoint
 10
-11.90977854639391
 20
-7.576552930883534
 30
0.0
  0
ENDBLK
  5
30A
330
52
100
AcDbEntity
  8
Dimension
390
1D
100
AcDbBlockEnd
  0
BLOCK
  5
30B
330
53
100
AcDbEntity
  8
Dimension
390
1D
100
AcDbBlockBegin
  2
*D49
 70
     1
 10
0.0
 20
0.0
 30
0.0
  3
*D49
  1

  0
LINE
  5
30C
330
53
100
AcDbEntity
  8
Dimension
  6
Continuous
 62
     0
370
    -2
390
1D
100
AcDbLine
 10
-12.06725886135454
 20
-6.840551181102363
 30
0.0
 11
-12.06725886135454
 21
-7.184806423669377
 31
0.0
  0
LINE
  5
30D
330
53
100
AcDbEntity
  8
Dimension
  6
Continuous
 62
     0
370
    -2
390
1D
100
AcDbLine
 10
-11.95308563300808
 20
-6.840551181102363
 30
0.0
 11
-11.95308563300808
 21
-7.184806423669377
 31
0.0
  0
LINE
  5
30E
330
53
100
AcDbEntity
  8
Dimension
  6
Continuous
 62
     0
370
    -2
390
1D
100
AcDbLine
 10
-11.95308563300808
 20
-6.987956029968626
 30
0.0
 11
-12.06725886135454
 21
-6.987956029968626
 31
0.0
  0
LINE
  5
30F
330
53
100
AcDbEntity
  8
Dimension
  6
Continuous
 62
     0
370
    -2
390
1D
100
AcDbLine
 10
-12.06725886135454
 20
-6.987956029968626
 30
0.0
 11
-13.21778294961885
 21
-6.987956029968626
 31
0.0
  0
POLYLINE
  5
310
102
{ACAD_REACTORS
330
315
102
}
330
53
100
AcDbEntity
  8
None
  6
Continuous
 62
     0
370
     5
390
1D
100
AcDb2dPolyline
 66
     1
 10
0.0
 20
0.0
 30
0.0
 70
     1
 75
     5
  0
VERTEX
  5
311
330
310
100
AcDbEntity
  8
None
  6
Continuous
 62
     0
370
     5
390
1D
100
AcDbVertex
100
AcDb2dVertex
 10
-12.37975886135454
 20
-6.9042219073339
 30
0.0
  0
VERTEX
  5
312
330
310
100
AcDbEntity
  8
None
  6
Continuous
 62
     0
370
     5
390
1D
100
AcDbVertex
100
AcDb2dVertex
 10
-12.06725886135454
 20
-6.987956029968626
 30
0.0
  0
VERTEX
  5
313
330
310
100
AcDbEntity
  8
None
  6
Continuous
 62
     0
370
     5
390
1D
100
AcDbVertex
100
AcDb2dVertex
 10
-12.37975886135454
 20
-7.071690152603352
 30
0.0
  0
SEQEND
  5
314
330
310
100
AcDbEntity
  8
None
  6
Continuous
 62
     0
370
     5
390
1D
  0
HATCH
  5
315
330
53
100
AcDbEntity
  8
Dimension
  6
Continuous
 62
     0
370
     0
390
1D
100
AcDbHatch
 10
0.0
 20
0.0
 30
0.0
210
0.0
220
0.0
230
1.0
  2
SOLID
 70
     1
 71
     1
 91
        1
 92
        1
 93
        3
 72
     1
 10
-12.37975886135454
 20
-6.9042219073339
 11
-12.06725886135454
 21
-6.987956029968626
 72
     1
 10
-12.06725886135454
 20
-6.987956029968626
 11
-12.37975886135454
 21
-7.071690152603352
 72
     1
 10
-12.37975886135454
 20
-7.071690152603352
 11
-12.37975886135454
 21
-6.9042219073339
 97
        1
330
310
 75
     0
 76
     1
 98
        1
 10
0.0
 20
0.0
  0
LINE
  5
316
330
53
100
AcDbEntity
  8
Dimension
  6
Continuous
 62
     0
370
    -2
390
1D
100
AcDbLine
 10
-11.95308563300808
 20
-6.987956029968626
 30
0.0
 11
-11.26410925505533
 21
-6.987956029968626
 31
0.0
  0
POLYLINE
  5
317
102
{ACAD_REACTORS
330
31C
102
}
330
53
100
AcDbEntity
  8
None
  6
Continuous
 62
     0
370
     5
390
1D
100
AcDb2dPolyline
 66
     1
 10
0.0
 20
0.0
 30
0.0
 70
     1
 75
     5
  0
VERTEX
  5
318
330
317
100
AcDbEntity
  8
None
  6
Continuous
 62
     0
370
     5
390
1D
100
AcDbVertex
100
AcDb2dVertex
 10
-11.64058563300808
 20
-7.071690152603352
 30
0.0
  0
VERTEX
  5
319
330
317
100
AcDbEntity
  8
None
  6
Continuous
 62
     0
370
     5
390
1D
100
AcDbVertex
100
AcDb2dVertex
 10
-11.95308563300808
 20
-6.987956029968626
 30
0.0
  0
VERTEX
  5
31A
330
317
100
AcDbEntity
  8
None
  6
Continuous
 62
     0
370
     5
390
1D
100
AcDbVertex
100
AcDb2dVertex
 10
-11.64058563300808
 20
-6.9042219073339
 30
0.0
  0
SEQEND
  5
31B
330
317
100
AcDbEntity
  8
None
  6
Continuous
 62
     0
370
     5
390
1D
  0
HATCH
  5
31C
330
53
100
AcDbEntity
  8
Dimension
  6
Continuous
 62
     0
370
     0
390
1D
100
AcDbHatch
 10
0.0
 20
0.0
 30
0.0
210
0.0
220
0.0
230
1.0
  2
SOLID
 70
     1
 71
     1
 91
        1
 92
        1
 93
        3
 72
     1
 10
-11.64058563300808
 20
-7.071690152603352
 11
-11.95308563300808
 21
-6.987956029968626
 72
     1
 10
-11.95308563300808
 20
-6.987956029968626
 11
-11.64058563300808
 21
-6.9042219073339
 72
     1
 10
-11.64058563300808
 20
-6.9042219073339
 11
-11.64058563300808
 21
-7.071690152603352
 97
        1
330
317
 75
     0
 76
     1
 98
        1
 10
0.0
 20
0.0
  0
MTEXT
  5
31D
330
53
100
AcDbEntity
  8
Dimension
 62
     0
390
1D
100
AcDbMText
 10
-13.21778294961885
 20
-6.626383905747613
 30
0.0
 40
0.1992580384816237
 41
0.0
 46
0.0
 71
     1
 72
     1
  1
.114
  7
Helvetica
 73
     1
 44
0.8397955333929318
  0
POINT
  5
31E
330
53
100
AcDbEntity
  8
Defpoints
 62
     0
370
     0
390
1D
100
AcDbPoint
 10
-11.95308563300808
 20
-6.692913385826772
 30
0.0
  0
POINT
  5
31F
330
53
100
AcDbEntity
  8
Defpoints
 62
     0
370
     0
390
1D
100
AcDbPoint
 10
-12.06725886135454
 20
-6.692913385826772
 30
0.0
  0
POINT
  5
320
330
53
100
AcDbEntity
  8
Defpoints
 62
     0
370
     0
390
1D
100
AcDbPoint
 10
-12.06725886135454
 20
-6.987956029968626
 30
0.0
  0
ENDBLK
  5
321
330
53
100
AcDbEntity
  8
Dimension
390
1D
100
AcDbBlockEnd
  0
BLOCK
  5
322
330
54
100
AcDbEntity
  8
Dimension
390
1D
100
AcDbBlockBegin
  2
Group-32
 70
     0
 10
0.0
 20
0.0
 30
0.0
  3
Group-32
  1

  0
LINE
  5
323
330
54
100
AcDbEntity
  8
None
  6
Continuous
 62
     5
370
    15
390
1D
100
AcDbLine
 10
-8.633356951804663
 20
1.15789811120971
 30
0.0
 11
-8.141230967552664
 21
1.15789811120971
 31
0.0
  0
LINE
  5
324
330
54
100
AcDbEntity
  8
None
  6
Continuous
 62
     5
370
    15
390
1D
100
AcDbLine
 10
-8.387293959678663
 20
0.9118351190837102
 30
0.0
 11
-8.387293959678663
 21
1.40396110333571
 31
0.0
  0
LINE
  5
325
330
54
100
AcDbEntity
  8
None
  6
Continuous
 62
     5
370
    15
390
1D
100
AcDbLine
 10
-12.3046167943244
 20
1.15789811120971
 30
0.0
 11
-8.830207345505414
 21
1.15789811120971
 31
0.0
  0
LINE
  5
326
330
54
100
AcDbEntity
  8
None
  6
Continuous
 62
     5
370
    15
390
1D
100
AcDbLine
 10
-7.944380573851912
 20
1.15789811120971
 30
0.0
 11
-4.469971125032928
 21
1.15789811120971
 31
0.0
  0
LINE
  5
327
330
54
100
AcDbEntity
  8
None
  6
Continuous
 62
     5
370
    15
390
1D
100
AcDbLine
 10
-8.387293959678663
 20
5.075220945855445
 30
0.0
 11
-8.387293959678663
 21
1.60081149703646
 31
0.0
  0
LINE
  5
328
330
54
100
AcDbEntity
  8
None
  6
Continuous
 62
     5
370
    15
390
1D
100
AcDbLine
 10
-8.387293959678663
 20
0.7149847253829602
 30
0.0
 11
-8.387293959678663
 21
-2.759424723436025
 31
0.0
  0
ENDBLK
  5
329
330
54
100
AcDbEntity
  8
Dimension
390
1D
100
AcDbBlockEnd
  0
BLOCK
  5
32A
330
55
100
AcDbEntity
  8
Dimension
390
1D
100
AcDbBlockBegin
  2
Group-33
 70
     0
 10
0.0
 20
0.0
 30
0.0
  3
Group-33
  1

  0
LINE
  5
32B
330
55
100
AcDbEntity
  8
None
  6
Continuous
 62
     5
370
    15
390
1D
100
AcDbLine
 10
7.075286210111864
 20
1.15789811120971
 30
0.0
 11
7.567412194363864
 21
1.15789811120971
 31
0.0
  0
LINE
  5
32C
330
55
100
AcDbEntity
  8
None
  6
Continuous
 62
     5
370
    15
390
1D
100
AcDbLine
 10
7.321349202237864
 20
0.9118351190837102
 30
0.0
 11
7.321349202237864
 21
1.40396110333571
 31
0.0
  0
LINE
  5
32D
330
55
100
AcDbEntity
  8
None
  6
Continuous
 62
     5
370
    15
390
1D
100
AcDbLine
 10
3.404026367592128
 20
1.15789811120971
 30
0.0
 11
6.878435816411113
 21
1.15789811120971
 31
0.0
  0
LINE
  5
32E
330
55
100
AcDbEntity
  8
None
  6
Continuous
 62
     5
370
    15
390
1D
100
AcDbLine
 10
7.764262588064614
 20
1.15789811120971
 30
0.0
 11
11.2386720368836
 21
1.15789811120971
 31
0.0
  0
LINE
  5
32F
330
55
100
AcDbEntity
  8
None
  6
Continuous
 62
     5
370
    15
390
1D
100
AcDbLine
 10
7.321349202237864
 20
5.075220945855446
 30
0.0
 11
7.321349202237864
 21
1.60081149703646
 31
0.0
  0
LINE
  5
330
330
55
100
AcDbEntity
  8
None
  6
Continuous
 62
     5
370
    15
390
1D
100
AcDbLine
 10
7.321349202237864
 20
0.7149847253829602
 30
0.0
 11
7.321349202237864
 21
-2.759424723436026
 31
0.0
  0
ENDBLK
  5
331
330
55
100
AcDbEntity
  8
Dimension
390
1D
100
AcDbBlockEnd
  0
BLOCK
  5
332
330
56
100
AcDbEntity
  8
Dimension
390
1D
100
AcDbBlockBegin
  2
*D52
 70
     1
 10
0.0
 20
0.0
 30
0.0
  3
*D52
  1

  0
LINE
  5
333
330
56
100
AcDbEntity
  8
Dimension
  6
Continuous
 62
     0
370
    -2
390
1D
100
AcDbLine
 10
0.0
 20
1.147637795275591
 30
0.0
 11
0.0
 21
5.575516857152846
 31
0.0
  0
LINE
  5
334
330
56
100
AcDbEntity
  8
Dimension
  6
Continuous
 62
     0
370
    -2
390
1D
100
AcDbLine
 10
1.884842519685043
 20
4.264643008360624
 30
0.0
 11
2.287758428576431
 21
4.962513833738296
 31
0.0
  0
ARC
  5
335
330
56
100
AcDbEntity
  8
Dimension
  6
Continuous
 62
     0
370
    -2
390
1D
100
AcDbCircle
 10
0.0
 20
0.9999999999999999
 30
0.0
 40
4.378666463452095
100
AcDbArc
 50
59.99999999999989
 51
90.0
  0
POLYLINE
  5
336
102
{ACAD_REACTORS
330
33B
102
}
330
56
100
AcDbEntity
  8
None
  6
Continuous
 62
     0
370
     5
390
1D
100
AcDb2dPolyline
 66
     1
 10
0.0
 20
0.0
 30
0.0
 70
     1
 75
     5
  0
VERTEX
  5
337
330
336
100
AcDbEntity
  8
None
  6
Continuous
 62
     0
370
     5
390
1D
100
AcDbVertex
100
AcDb2dVertex
 10
0.3093873547066899
 20
5.284077256662928
 30
0.0
  0
VERTEX
  5
338
330
336
100
AcDbEntity
  8
None
  6
Continuous
 62
     0
370
     5
390
1D
100
AcDbVertex
100
AcDb2dVertex
 10
0.0
 20
5.378666463452097
 30
0.0
  0
VERTEX
  5
339
330
336
100
AcDbEntity
  8
None
  6
Continuous
 62
     0
370
     5
390
1D
100
AcDbVertex
100
AcDb2dVertex
 10
0.315231912180244
 20
5.451443484802202
 30
0.0
  0
SEQEND
  5
33A
330
336
100
AcDbEntity
  8
None
  6
Continuous
 62
     0
370
     5
390
1D
  0
HATCH
  5
33B
330
56
100
AcDbEntity
  8
Dimension
  6
Continuous
 62
     0
370
     0
390
1D
100
AcDbHatch
 10
0.0
 20
0.0
 30
0.0
210
0.0
220
0.0
230
1.0
  2
SOLID
 70
     1
 71
     1
 91
        1
 92
        1
 93
        3
 72
     1
 10
0.3093873547066899
 20
5.284077256662928
 11
0.0
 21
5.378666463452097
 72
     1
 10
0.0
 20
5.378666463452097
 11
0.315231912180244
 21
5.451443484802202
 72
     1
 10
0.315231912180244
 20
5.451443484802202
 11
0.3093873547066899
 21
5.284077256662928
 97
        1
330
336
 75
     0
 76
     1
 98
        1
 10
0.0
 20
0.0
  0
POLYLINE
  5
33C
102
{ACAD_REACTORS
330
341
102
}
330
56
100
AcDbEntity
  8
None
  6
Continuous
 62
     0
370
     5
390
1D
100
AcDb2dPolyline
 66
     1
 10
0.0
 20
0.0
 30
0.0
 70
     1
 75
     5
  0
VERTEX
  5
33D
330
33C
100
AcDbEntity
  8
None
  6
Continuous
 62
     0
370
     5
390
1D
100
AcDbVertex
100
AcDb2dVertex
 10
1.95272289836947
 20
5.012679097439555
 30
0.0
  0
VERTEX
  5
33E
330
33C
100
AcDbEntity
  8
None
  6
Continuous
 62
     0
370
     5
390
1D
100
AcDbVertex
100
AcDb2dVertex
 10
2.189333231726054
 20
4.792036392048478
 30
0.0
  0
VERTEX
  5
33F
330
33C
100
AcDbEntity
  8
None
  6
Continuous
 62
     0
370
     5
390
1D
100
AcDbVertex
100
AcDb2dVertex
 10
1.874101319545811
 20
4.864813413398583
 30
0.0
  0
SEQEND
  5
340
330
33C
100
AcDbEntity
  8
None
  6
Continuous
 62
     0
370
     5
390
1D
  0
HATCH
  5
341
330
56
100
AcDbEntity
  8
Dimension
  6
Continuous
 62
     0
370
     0
390
1D
100
AcDbHatch
 10
0.0
 20
0.0
 30
0.0
210
0.0
220
0.0
230
1.0
  2
SOLID
 70
     1
 71
     1
 91
        1
 92
        1
 93
        3
 72
     1
 10
1.95272289836947
 20
5.012679097439555
 11
2.189333231726054
 21
4.792036392048478
 72
     1
 10
2.189333231726054
 20
4.792036392048478
 11
1.874101319545811
 21
4.864813413398583
 72
     1
 10
1.874101319545811
 20
4.864813413398583
 11
1.95272289836947
 21
5.012679097439555
 97
        1
330
33C
 75
     0
 76
     1
 98
        1
 10
0.0
 20
0.0
  0
MTEXT
  5
342
330
56
100
AcDbEntity
  8
Dimension
 62
     0
390
1D
100
AcDbMText
 10
0.9232535185528308
 20
5.353725060235822
 30
0.0
 40
0.1992580384816237
 41
0.0
 46
0.0
 71
     1
 72
     1
  1
30°
  7
Helvetica
 73
     1
 44
0.8397955333929318
  0
POINT
  5
343
330
56
100
AcDbEntity
  8
Defpoints
 62
     0
370
     0
390
1D
100
AcDbPoint
 10
0.0
 20
4.917322834645736
 30
0.0
  0
POINT
  5
344
330
56
100
AcDbEntity
  8
Defpoints
 62
     0
370
     0
390
1D
100
AcDbPoint
 10
1.811023622047249
 20
4.136784927093237
 30
0.0
  0
POINT
  5
345
330
56
100
AcDbEntity
  8
Defpoints
 62
     0
370
     0
390
1D
100
AcDbPoint
 10
0.0
 20
0.9999999999999999
 30
0.0
  0
ENDBLK
  5
346
330
56
100
AcDbEntity
  8
Dimension
390
1D
100
AcDbBlockEnd
  0
BLOCK
  5
347
330
57
100
AcDbEntity
  8
None
390
1D
100
AcDbBlockBegin
  2
Group-34
 70
     0
 10
0.0
 20
0.0
 30
0.0
  3
Group-34
  1

  0
LINE
  5
348
330
57
100
AcDbEntity
  8
None
  6
STYLE_05
 62
     7
370
    15
390
1D
100
AcDbLine
 10
-0.4314303612385732
 20
-2.464149132884781
 30
0.0
 11
-0.4314303612385732
 21
-2.129503463593443
 31
0.0
  0
LINE
  5
349
330
57
100
AcDbEntity
  8
None
  6
STYLE_05
 62
     7
370
    15
390
1D
100
AcDbLine
 10
-0.7660760305299118
 20
-2.464149132884781
 30
0.0
 11
-0.7660760305299118
 21
-2.129503463593443
 31
0.0
  0
ENDBLK
  5
34A
330
57
100
AcDbEntity
  8
None
390
1D
100
AcDbBlockEnd
  0
BLOCK
  5
34B
330
58
100
AcDbEntity
  8
None
390
1D
100
AcDbBlockBegin
  2
Group-35
 70
     0
 10
0.0
 20
0.0
 30
0.0
  3
Group-35
  1

  0
LINE
  5
34C
330
58
100
AcDbEntity
  8
PLB-Tw~
 62
   148
370
    15
390
1D
100
AcDbLine
 10
-0.2837925659630112
 20
3.072858741130969
 30
0.0
 11
-0.2837925659630112
 21
2.864984725382949
 31
0.0
  0
LINE
  5
34D
330
58
100
AcDbEntity
  8
PLB-Tw~
 62
   148
370
    15
390
1D
100
AcDbLine
 10
-0.3310366604512002
 20
2.96892173325696
 30
0.0
 11
-0.2837925659630112
 21
3.072858741130973
 31
0.0
  0
LINE
  5
34E
330
58
100
AcDbEntity
  8
PLB-Tw~
  6
STYLE_05
 62
   148
370
    15
390
1D
100
AcDbLine
 10
-0.2129264242307278
 20
2.850811497036487
 30
0.0
 11
-0.2129264242307278
 21
3.087031969477433
 31
0.0
  0
LINE
  5
34F
330
58
100
AcDbEntity
  8
PLB-Tw~
  6
STYLE_05
 62
   148
370
    15
390
1D
100
AcDbLine
 10
-0.2837925659630112
 20
2.864984725382941
 30
0.0
 11
0.1650263316747894
 21
2.864984725382938
 31
0.0
  0
LINE
  5
350
330
58
100
AcDbEntity
  8
PLB-Tw~
  6
STYLE_05
 62
    18
370
    15
390
1D
100
AcDbLine
 10
-0.2129264242307278
 20
2.850811497036485
 30
0.0
 11
0.1732092488759044
 21
2.850811497036483
 31
0.0
  0
LINE
  5
351
330
58
100
AcDbEntity
  8
PLB-Tw~
 62
   148
370
    15
390
1D
100
AcDbLine
 10
-0.2837925659630112
 20
2.864984725382946
 30
0.0
 11
-0.3310366604512002
 21
2.96892173325696
 31
0.0
  0
LINE
  5
352
330
58
100
AcDbEntity
  8
PLB-Tw~
  6
STYLE_05
 62
   148
370
    15
390
1D
100
AcDbLine
 10
-0.2837925659630112
 20
3.072858741130974
 30
0.0
 11
0.1650263316747844
 21
3.07285874113097
 31
0.0
  0
LINE
  5
353
330
58
100
AcDbEntity
  8
PLB-Tw~
  6
STYLE_05
 62
    18
370
    15
390
1D
100
AcDbLine
 10
-0.2129264242307278
 20
3.087031969477433
 30
0.0
 11
0.1732092488759044
 21
3.08703196947743
 31
0.0
  0
LINE
  5
354
330
58
100
AcDbEntity
  8
PLB-Tw~
  6
STYLE_05
 62
   148
370
    15
390
1D
100
AcDbLine
 10
0.1650263316747894
 20
2.864984725382938
 30
0.0
 11
0.1650263316747844
 21
3.072858741130971
 31
0.0
  0
LINE
  5
355
330
58
100
AcDbEntity
  8
PLB-Tw~
 62
   148
370
    15
390
1D
100
AcDbLine
 10
0.1650263316747894
 20
2.86498472538294
 30
0.0
 11
0.1886483789188893
 21
2.82407013937737
 31
0.0
  0
LINE
  5
356
330
58
100
AcDbEntity
  8
PLB-Tw~
 62
   148
370
    15
390
1D
100
AcDbLine
 10
0.1650263316747894
 20
3.072858741130973
 30
0.0
 11
0.1886483789188893
 21
3.113773327136543
 31
0.0
  0
ENDBLK
  5
357
330
58
100
AcDbEntity
  8
None
390
1D
100
AcDbBlockEnd
  0
BLOCK
  5
358
330
59
100
AcDbEntity
  8
None
390
1D
100
AcDbBlockBegin
  2
Group-36
 70
     0
 10
0.0
 20
0.0
 30
0.0
  3
Group-36
  1

  0
INSERT
  5
359
330
59
100
AcDbEntity
  8
None
 62
     7
390
1D
100
AcDbBlockReference
  2
Group-35
 10
0.0
 20
0.0
 30
0.0
  0
LINE
  5
35A
330
59
100
AcDbEntity
  8
None
  6
STYLE_02
 62
     5
370
    15
390
1D
100
AcDbLine
 10
-0.4255248494275703
 20
2.96892173325696
 30
0.0
 11
0.2831365678952644
 21
2.96892173325696
 31
0.0
  0
ENDBLK
  5
35B
330
59
100
AcDbEntity
  8
None
390
1D
100
AcDbBlockEnd
  0
BLOCK
  5
35C
330
5A
100
AcDbEntity
  8
None
390
1D
100
AcDbBlockBegin
  2
Group-37
 70
     0
 10
0.0
 20
0.0
 30
0.0
  3
Group-37
  1

  0
LINE
  5
35D
330
5A
100
AcDbEntity
  8
PLB-Tw~
 62
   148
370
    15
390
1D
100
AcDbLine
 10
-0.2837925659630112
 20
-0.5491885029635254
 30
0.0
 11
-0.2837925659630112
 21
-0.757062518711545
 31
0.0
  0
LINE
  5
35E
330
5A
100
AcDbEntity
  8
PLB-Tw~
 62
   148
370
    15
390
1D
100
AcDbLine
 10
-0.3310366604512002
 20
-0.6531255108375339
 30
0.0
 11
-0.2837925659630112
 21
-0.5491885029635213
 31
0.0
  0
LINE
  5
35F
330
5A
100
AcDbEntity
  8
PLB-Tw~
  6
STYLE_05
 62
   148
370
    15
390
1D
100
AcDbLine
 10
-0.2129264242307278
 20
-0.7712357470580075
 30
0.0
 11
-0.2129264242307278
 21
-0.5350152746170614
 31
0.0
  0
LINE
  5
360
330
5A
100
AcDbEntity
  8
PLB-Tw~
  6
STYLE_05
 62
   148
370
    15
390
1D
100
AcDbLine
 10
-0.2837925659630112
 20
-0.7570625187115531
 30
0.0
 11
0.1650263316747894
 21
-0.7570625187115558
 31
0.0
  0
LINE
  5
361
330
5A
100
AcDbEntity
  8
PLB-Tw~
  6
STYLE_05
 62
    18
370
    15
390
1D
100
AcDbLine
 10
-0.2129264242307278
 20
-0.7712357470580089
 30
0.0
 11
0.1732092488759044
 21
-0.7712357470580103
 31
0.0
  0
LINE
  5
362
330
5A
100
AcDbEntity
  8
PLB-Tw~
 62
   148
370
    15
390
1D
100
AcDbLine
 10
-0.2837925659630112
 20
-0.7570625187115477
 30
0.0
 11
-0.3310366604512002
 21
-0.6531255108375339
 31
0.0
  0
LINE
  5
363
330
5A
100
AcDbEntity
  8
PLB-Tw~
  6
STYLE_05
 62
   148
370
    15
390
1D
100
AcDbLine
 10
-0.2837925659630112
 20
-0.5491885029635198
 30
0.0
 11
0.1650263316747844
 21
-0.5491885029635241
 31
0.0
  0
LINE
  5
364
330
5A
100
AcDbEntity
  8
PLB-Tw~
  6
STYLE_05
 62
    18
370
    15
390
1D
100
AcDbLine
 10
-0.2129264242307278
 20
-0.5350152746170614
 30
0.0
 11
0.1732092488759044
 21
-0.535015274617064
 31
0.0
  0
LINE
  5
365
330
5A
100
AcDbEntity
  8
PLB-Tw~
  6
STYLE_05
 62
   148
370
    15
390
1D
100
AcDbLine
 10
0.1650263316747894
 20
-0.7570625187115558
 30
0.0
 11
0.1650263316747844
 21
-0.5491885029635226
 31
0.0
  0
LINE
  5
366
330
5A
100
AcDbEntity
  8
PLB-Tw~
 62
   148
370
    15
390
1D
100
AcDbLine
 10
0.1650263316747894
 20
-0.7570625187115545
 30
0.0
 11
0.1886483789188893
 21
-0.7979771047171241
 31
0.0
  0
LINE
  5
367
330
5A
100
AcDbEntity
  8
PLB-Tw~
 62
   148
370
    15
390
1D
100
AcDbLine
 10
0.1650263316747894
 20
-0.5491885029635213
 30
0.0
 11
0.1886483789188893
 21
-0.5082739169579515
 31
0.0
  0
ENDBLK
  5
368
330
5A
100
AcDbEntity
  8
None
390
1D
100
AcDbBlockEnd
  0
BLOCK
  5
369
330
5B
100
AcDbEntity
  8
None
390
1D
100
AcDbBlockBegin
  2
Group-38
 70
     0
 10
0.0
 20
0.0
 30
0.0
  3
Group-38
  1

  0
INSERT
  5
36A
330
5B
100
AcDbEntity
  8
None
 62
     7
390
1D
100
AcDbBlockReference
  2
Group-37
 10
0.0
 20
0.0
 30
0.0
  0
LINE
  5
36B
330
5B
100
AcDbEntity
  8
None
  6
STYLE_02
 62
     5
370
    15
390
1D
100
AcDbLine
 10
-0.4255248494275703
 20
-0.6531255108375339
 30
0.0
 11
0.2831365678952644
 21
-0.6531255108375339
 31
0.0
  0
ENDBLK
  5
36C
330
5B
100
AcDbEntity
  8
None
390
1D
100
AcDbBlockEnd
  0
BLOCK
  5
36D
330
5C
100
AcDbEntity
  8
Dimension
390
1D
100
AcDbBlockBegin
  2
*D58
 70
     1
 10
0.0
 20
0.0
 30
0.0
  3
*D58
  1

  0
LINE
  5
36E
330
5C
100
AcDbEntity
  8
Dimension
  6
Continuous
 62
     0
370
    -2
390
1D
100
AcDbLine
 10
-9.613015783948887
 20
-2.139763779527565
 30
0.0
 11
-9.613015783948887
 21
-4.551181102362167
 31
0.0
  0
LINE
  5
36F
330
5C
100
AcDbEntity
  8
Dimension
  6
Continuous
 62
     0
370
    -2
390
1D
100
AcDbLine
 10
-7.132700823318957
 20
-2.179133858267722
 30
0.0
 11
-7.132700823318957
 21
-4.551181102362167
 31
0.0
  0
LINE
  5
370
330
5C
100
AcDbEntity
  8
Dimension
  6
Continuous
 62
     0
370
    -2
390
1D
100
AcDbLine
 10
-9.613015783948887
 20
-4.354330708661418
 30
0.0
 11
-7.132700823318957
 21
-4.354330708661418
 31
0.0
  0
POLYLINE
  5
371
102
{ACAD_REACTORS
330
376
102
}
330
5C
100
AcDbEntity
  8
None
  6
Continuous
 62
     0
370
     5
390
1D
100
AcDb2dPolyline
 66
     1
 10
0.0
 20
0.0
 30
0.0
 70
     1
 75
     5
  0
VERTEX
  5
372
330
371
100
AcDbEntity
  8
None
  6
Continuous
 62
     0
370
     5
390
1D
100
AcDbVertex
100
AcDb2dVertex
 10
-9.300515783948887
 20
-4.438064831296143
 30
0.0
  0
VERTEX
  5
373
330
371
100
AcDbEntity
  8
None
  6
Continuous
 62
     0
370
     5
390
1D
100
AcDbVertex
100
AcDb2dVertex
 10
-9.613015783948887
 20
-4.354330708661418
 30
0.0
  0
VERTEX
  5
374
330
371
100
AcDbEntity
  8
None
  6
Continuous
 62
     0
370
     5
390
1D
100
AcDbVertex
100
AcDb2dVertex
 10
-9.300515783948887
 20
-4.270596586026691
 30
0.0
  0
SEQEND
  5
375
330
371
100
AcDbEntity
  8
None
  6
Continuous
 62
     0
370
     5
390
1D
  0
HATCH
  5
376
330
5C
100
AcDbEntity
  8
Dimension
  6
Continuous
 62
     0
370
     0
390
1D
100
AcDbHatch
 10
0.0
 20
0.0
 30
0.0
210
0.0
220
0.0
230
1.0
  2
SOLID
 70
     1
 71
     1
 91
        1
 92
        1
 93
        3
 72
     1
 10
-9.300515783948887
 20
-4.438064831296143
 11
-9.613015783948887
 21
-4.354330708661418
 72
     1
 10
-9.613015783948887
 20
-4.354330708661418
 11
-9.300515783948887
 21
-4.270596586026691
 72
     1
 10
-9.300515783948887
 20
-4.270596586026691
 11
-9.300515783948887
 21
-4.438064831296143
 97
        1
330
371
 75
     0
 76
     1
 98
        1
 10
0.0
 20
0.0
  0
POLYLINE
  5
377
102
{ACAD_REACTORS
330
37C
102
}
330
5C
100
AcDbEntity
  8
None
  6
Continuous
 62
     0
370
     5
390
1D
100
AcDb2dPolyline
 66
     1
 10
0.0
 20
0.0
 30
0.0
 70
     1
 75
     5
  0
VERTEX
  5
378
330
377
100
AcDbEntity
  8
None
  6
Continuous
 62
     0
370
     5
390
1D
100
AcDbVertex
100
AcDb2dVertex
 10
-7.445200823318957
 20
-4.270596586026691
 30
0.0
  0
VERTEX
  5
379
330
377
100
AcDbEntity
  8
None
  6
Continuous
 62
     0
370
     5
390
1D
100
AcDbVertex
100
AcDb2dVertex
 10
-7.132700823318957
 20
-4.354330708661418
 30
0.0
  0
VERTEX
  5
37A
330
377
100
AcDbEntity
  8
None
  6
Continuous
 62
     0
370
     5
390
1D
100
AcDbVertex
100
AcDb2dVertex
 10
-7.445200823318957
 20
-4.438064831296143
 30
0.0
  0
SEQEND
  5
37B
330
377
100
AcDbEntity
  8
None
  6
Continuous
 62
     0
370
     5
390
1D
  0
HATCH
  5
37C
330
5C
100
AcDbEntity
  8
Dimension
  6
Continuous
 62
     0
370
     0
390
1D
100
AcDbHatch
 10
0.0
 20
0.0
 30
0.0
210
0.0
220
0.0
230
1.0
  2
SOLID
 70
     1
 71
     1
 91
        1
 92
        1
 93
        3
 72
     1
 10
-7.445200823318957
 20
-4.270596586026691
 11
-7.132700823318957
 21
-4.354330708661418
 72
     1
 10
-7.132700823318957
 20
-4.354330708661418
 11
-7.445200823318957
 21
-4.438064831296143
 72
     1
 10
-7.445200823318957
 20
-4.438064831296143
 11
-7.445200823318957
 21
-4.270596586026691
 97
        1
330
377
 75
     0
 76
     1
 98
        1
 10
0.0
 20
0.0
  0
MTEXT
  5
37D
330
5C
100
AcDbEntity
  8
Dimension
 62
     0
390
1D
100
AcDbMText
 10
-8.643176228981144
 20
-3.992758584440405
 30
0.0
 40
0.1992580384816237
 41
0.0
 46
0.0
 71
     1
 72
     1
  1
2.48
  7
Helvetica
 73
     1
 44
0.8397955333929318
  0
POINT
  5
37E
330
5C
100
AcDbEntity
  8
Defpoints
 62
     0
370
     0
390
1D
100
AcDbPoint
 10
-7.132700823318957
 20
-2.031496062992132
 30
0.0
  0
POINT
  5
37F
330
5C
100
AcDbEntity
  8
Defpoints
 62
     0
370
     0
390
1D
100
AcDbPoint
 10
-9.613015783948887
 20
-1.992125984251974
 30
0.0
  0
POINT
  5
380
330
5C
100
AcDbEntity
  8
Defpoints
 62
     0
370
     0
390
1D
100
AcDbPoint
 10
-9.613015783948887
 20
-4.354330708661418
 30
0.0
  0
ENDBLK
  5
381
330
5C
100
AcDbEntity
  8
Dimension
390
1D
100
AcDbBlockEnd
  0
BLOCK
  5
382
330
5D
100
AcDbEntity
  8
None
390
1D
100
AcDbBlockBegin
  2
Group-39
 70
     0
 10
0.0
 20
0.0
 30
0.0
  3
Group-39
  1

  0
LINE
  5
383
330
5D
100
AcDbEntity
  8
None
  6
STYLE_12
 62
     7
370
    15
390
1D
100
AcDbLine
 10
10.94133071263764
 20
0.9502637971268398
 30
0.0
 11
10.54806467086363
 21
0.9687605640882992
 31
0.0
  0
LINE
  5
384
330
5D
100
AcDbEntity
  8
None
  6
STYLE_12
 62
     7
370
    15
390
1D
100
AcDbLine
 10
10.5480646568548
 20
1.347035956141748
 30
0.0
 11
10.94133071262814
 21
1.365532425456045
 31
0.0
  0
LINE
  5
385
330
5D
100
AcDbEntity
  8
None
  6
STYLE_12
 62
     7
370
    15
390
1D
100
AcDbLine
 10
10.94339644633235
 20
1.326215983080705
 30
0.0
 11
10.550130390559
 21
1.307719513766407
 31
0.0
  0
LINE
  5
386
330
5D
100
AcDbEntity
  8
None
  6
STYLE_12
 62
     7
370
    15
390
1D
100
AcDbLine
 10
10.94339644633235
 20
0.9895802393387189
 30
0.0
 11
10.550130390559
 21
1.008076708653014
 31
0.0
  0
LINE
  5
387
330
5D
100
AcDbEntity
  8
None
  6
STYLE_02
 62
     7
370
    15
390
1D
100
AcDbLine
 10
10.48670353294652
 20
1.157898111209711
 30
0.0
 11
11.03788463530872
 21
1.157898111209711
 31
0.0
  0
ENDBLK
  5
388
330
5D
100
AcDbEntity
  8
None
390
1D
100
AcDbBlockEnd
  0
BLOCK
  5
389
330
5E
100
AcDbEntity
  8
None
390
1D
100
AcDbBlockBegin
  2
Group-40
 70
     0
 10
0.0
 20
0.0
 30
0.0
  3
Group-40
  1

  0
LINE
  5
38A
330
5E
100
AcDbEntity
  8
PLB-050-30Tw~
  6
STYLE_12
 62
     5
370
    15
390
1D
100
AcDbLine
 10
7.321349202237864
 20
3.165772126957743
 30
0.0
 11
7.321349202237864
 21
2.772071339556168
 31
0.0
  0
CIRCLE
  5
38B
330
5E
100
AcDbEntity
  8
PLB-050-30Tw~
  6
Continuous
 62
   148
370
    25
390
1D
100
AcDbCircle
 10
7.321349202237864
 20
2.968921733256956
 30
0.0
 40
0.0885826771653543
  0
ARC
  5
38C
330
5E
100
AcDbEntity
  8
PLB-050-30Tw~
  6
STYLE_12
 62
   148
370
    15
390
1D
100
AcDbCircle
 10
7.321349202237864
 20
2.968921733256956
 30
0.0
 40
0.1181102362204721
100
AcDbArc
 50
120.0000000000008
 51
28.13132809565141
  0
ENDBLK
  5
38D
330
5E
100
AcDbEntity
  8
None
390
1D
100
AcDbBlockEnd
  0
BLOCK
  5
38E
330
5F
100
AcDbEntity
  8
None
390
1D
100
AcDbBlockBegin
  2
Group-41
 70
     0
 10
0.0
 20
0.0
 30
0.0
  3
Group-41
  1

  0
LINE
  5
38F
330
5F
100
AcDbEntity
  8
PLB-050-30Tw~
  6
STYLE_12
 62
     5
370
    15
390
1D
100
AcDbLine
 10
5.58247929700139
 20
2.161835119083726
 30
0.0
 11
5.923434180381091
 21
1.964984725382939
 31
0.0
  0
CIRCLE
  5
390
330
5F
100
AcDbEntity
  8
PLB-050-30Tw~
  6
Continuous
 62
   148
370
    25
390
1D
100
AcDbCircle
 10
5.752956738691241
 20
2.063409922233332
 30
0.0
 40
0.0885826771653538
  0
ARC
  5
391
330
5F
100
AcDbEntity
  8
PLB-050-30Tw~
  6
STYLE_12
 62
   148
370
    15
390
1D
100
AcDbCircle
 10
5.752956738691241
 20
2.063409922233332
 30
0.0
 40
0.1181102362204725
100
AcDbArc
 50
180.0000000000006
 51
88.13132809565158
  0
ENDBLK
  5
392
330
5F
100
AcDbEntity
  8
None
390
1D
100
AcDbBlockEnd
  0
BLOCK
  5
393
330
60
100
AcDbEntity
  8
None
390
1D
100
AcDbBlockBegin
  2
Group-42
 70
     0
 10
0.0
 20
0.0
 30
0.0
  3
Group-42
  1

  0
LINE
  5
394
330
60
100
AcDbEntity
  8
PLB-050-30Tw~
  6
STYLE_12
 62
     5
370
    15
390
1D
100
AcDbLine
 10
5.582479297001392
 20
0.1539611033356939
 30
0.0
 11
5.923434180381092
 21
0.3508114970364813
 31
0.0
  0
CIRCLE
  5
395
330
60
100
AcDbEntity
  8
PLB-050-30Tw~
  6
Continuous
 62
   148
370
    25
390
1D
100
AcDbCircle
 10
5.752956738691241
 20
0.2523863001860876
 30
0.0
 40
0.0885826771653548
  0
ARC
  5
396
330
60
100
AcDbEntity
  8
PLB-050-30Tw~
  6
STYLE_12
 62
   148
370
    15
390
1D
100
AcDbCircle
 10
5.752956738691241
 20
0.2523863001860876
 30
0.0
 40
0.1181102362204723
100
AcDbArc
 50
240.0000000000012
 51
148.131328095651
  0
ENDBLK
  5
397
330
60
100
AcDbEntity
  8
None
390
1D
100
AcDbBlockEnd
  0
BLOCK
  5
398
330
61
100
AcDbEntity
  8
None
390
1D
100
AcDbBlockBegin
  2
Group-43
 70
     0
 10
0.0
 20
0.0
 30
0.0
  3
Group-43
  1

  0
LINE
  5
399
330
61
100
AcDbEntity
  8
PLB-050-30Tw~
  6
STYLE_12
 62
     5
370
    15
390
1D
100
AcDbLine
 10
7.321349202237864
 20
-0.8499759045383231
 30
0.0
 11
7.321349202237864
 21
-0.4562751171367482
 31
0.0
  0
CIRCLE
  5
39A
330
61
100
AcDbEntity
  8
PLB-050-30Tw~
  6
Continuous
 62
   148
370
    25
390
1D
100
AcDbCircle
 10
7.321349202237864
 20
-0.6531255108375356
 30
0.0
 40
0.0885826771653543
  0
ARC
  5
39B
330
61
100
AcDbEntity
  8
PLB-050-30Tw~
  6
STYLE_12
 62
   148
370
    15
390
1D
100
AcDbCircle
 10
7.321349202237864
 20
-0.6531255108375356
 30
0.0
 40
0.1181102362204721
100
AcDbArc
 50
300.0000000000008
 51
208.1313280956514
  0
ENDBLK
  5
39C
330
61
100
AcDbEntity
  8
None
390
1D
100
AcDbBlockEnd
  0
BLOCK
  5
39D
330
62
100
AcDbEntity
  8
None
390
1D
100
AcDbBlockBegin
  2
Group-44
 70
     0
 10
0.0
 20
0.0
 30
0.0
  3
Group-44
  1

  0
LINE
  5
39E
330
62
100
AcDbEntity
  8
PLB-050-30Tw~
  6
STYLE_12
 62
     5
370
    15
390
1D
100
AcDbLine
 10
9.060219107474337
 20
0.1539611033356933
 30
0.0
 11
8.719264224094635
 21
0.3508114970364807
 31
0.0
  0
CIRCLE
  5
39F
330
62
100
AcDbEntity
  8
PLB-050-30Tw~
  6
Continuous
 62
   148
370
    25
390
1D
100
AcDbCircle
 10
8.889741665784486
 20
0.252386300186087
 30
0.0
 40
0.0885826771653538
  0
ARC
  5
3A0
330
62
100
AcDbEntity
  8
PLB-050-30Tw~
  6
STYLE_12
 62
   148
370
    15
390
1D
100
AcDbCircle
 10
8.889741665784486
 20
0.252386300186087
 30
0.0
 40
0.1181102362204713
100
AcDbArc
 50
0.0000000000005684
 51
268.1313280956511
  0
ENDBLK
  5
3A1
330
62
100
AcDbEntity
  8
None
390
1D
100
AcDbBlockEnd
  0
BLOCK
  5
3A2
330
63
100
AcDbEntity
  8
None
390
1D
100
AcDbBlockBegin
  2
Group-45
 70
     0
 10
0.0
 20
0.0
 30
0.0
  3
Group-45
  1

  0
LINE
  5
3A3
330
63
100
AcDbEntity
  8
PLB-050-30Tw~
  6
STYLE_12
 62
     5
370
    15
390
1D
100
AcDbLine
 10
9.060219107474337
 20
2.161835119083726
 30
0.0
 11
8.719264224094637
 21
1.964984725382939
 31
0.0
  0
CIRCLE
  5
3A4
330
63
100
AcDbEntity
  8
PLB-050-30Tw~
  6
Continuous
 62
   148
370
    25
390
1D
100
AcDbCircle
 10
8.889741665784486
 20
2.063409922233332
 30
0.0
 40
0.0885826771653538
  0
ARC
  5
3A5
330
63
100
AcDbEntity
  8
PLB-050-30Tw~
  6
STYLE_12
 62
   148
370
    15
390
1D
100
AcDbCircle
 10
8.889741665784486
 20
2.063409922233332
 30
0.0
 40
0.1181102362204719
100
AcDbArc
 50
60.00000000000048
 51
328.1313280956518
  0
ENDBLK
  5
3A6
330
63
100
AcDbEntity
  8
None
390
1D
100
AcDbBlockEnd
  0
BLOCK
  5
3A7
330
64
100
AcDbEntity
  8
DRAWING
390
1D
100
AcDbBlockBegin
  2
Group-46
 70
     0
 10
0.0
 20
0.0
 30
0.0
  3
Group-46
  1

  0
ARC
  5
3A8
330
64
100
AcDbEntity
  8
DRAWING
  6
Continuous
 62
     7
370
    35
390
1D
100
AcDbCircle
 10
1.99280829690453
 20
-7.31233160944686
 30
0.0
 40
0.1949516741267398
100
AcDbArc
 50
63.83742133659168
 51
116.1625786634083
  0
ARC
  5
3A9
330
64
100
AcDbEntity
  8
DRAWING
  6
Continuous
 62
     7
370
    35
390
1D
100
AcDbCircle
 10
2.16472437840453
 20
-6.962375209446861
 30
0.0
 40
0.19495167412674
100
AcDbArc
 50
243.8374213365916
 51
296.1625786634084
  0
ENDBLK
  5
3AA
330
64
100
AcDbEntity
  8
DRAWING
390
1D
100
AcDbBlockEnd
  0
BLOCK
  5
3AB
330
65
100
AcDbEntity
  8
DRAWING
390
1D
100
AcDbBlockBegin
  2
Group-47
 70
     0
 10
0.0
 20
0.0
 30
0.0
  3
Group-47
  1

  0
ARC
  5
3AC
330
65
100
AcDbEntity
  8
DRAWING
  6
Continuous
 62
     7
370
    35
390
1D
100
AcDbCircle
 10
1.99280829690453
 20
-7.429544572227814
 30
0.0
 40
0.1949516741267398
100
AcDbArc
 50
63.83742133659168
 51
116.1625786634083
  0
ARC
  5
3AD
330
65
100
AcDbEntity
  8
DRAWING
  6
Continuous
 62
     7
370
    35
390
1D
100
AcDbCircle
 10
2.16472437840453
 20
-7.079588172227815
 30
0.0
 40
0.19495167412674
100
AcDbArc
 50
243.8374213365916
 51
296.1625786634084
  0
ENDBLK
  5
3AE
330
65
100
AcDbEntity
  8
DRAWING
390
1D
100
AcDbBlockEnd
  0
BLOCK
  5
3AF
330
66
100
AcDbEntity
  8
Dimension
390
1D
100
AcDbBlockBegin
  2
*D68
 70
     1
 10
0.0
 20
0.0
 30
0.0
  3
*D68
  1

  0
LINE
  5
3B0
330
66
100
AcDbEntity
  8
Dimension
  6
Continuous
 62
     0
370
    -2
390
1D
100
AcDbLine
 10
-5.400082864583335
 20
-5.822000000000001
 30
0.0
 11
-5.400082864583335
 21
-5.182650000000002
 31
0.0
  0
LINE
  5
3B1
330
66
100
AcDbEntity
  8
Dimension
  6
Continuous
 62
     0
370
    -2
390
1D
100
AcDbLine
 10
-5.085082864583335
 20
-5.822000000000001
 30
0.0
 11
-5.085082864583335
 21
-5.182650000000002
 31
0.0
  0
LINE
  5
3B2
330
66
100
AcDbEntity
  8
Dimension
  6
Continuous
 62
     0
370
    -2
390
1D
100
AcDbLine
 10
-5.085082864583335
 20
-5.379500000000001
 30
0.0
 11
-5.400082864583335
 21
-5.379500000000001
 31
0.0
  0
LINE
  5
3B3
330
66
100
AcDbEntity
  8
Dimension
  6
Continuous
 62
     0
370
    -2
390
1D
100
AcDbLine
 10
-5.400082864583335
 20
-5.379500000000001
 30
0.0
 11
-6.226852864583334
 21
-5.379500000000001
 31
0.0
  0
POLYLINE
  5
3B4
102
{ACAD_REACTORS
330
3B9
102
}
330
66
100
AcDbEntity
  8
None
  6
Continuous
 62
     0
370
     5
390
1D
100
AcDb2dPolyline
 66
     1
 10
0.0
 20
0.0
 30
0.0
 70
     1
 75
     5
  0
VERTEX
  5
3B5
330
3B4
100
AcDbEntity
  8
None
  6
Continuous
 62
     0
370
     5
390
1D
100
AcDbVertex
100
AcDb2dVertex
 10
-5.712582864583335
 20
-5.295765877365275
 30
0.0
  0
VERTEX
  5
3B6
330
3B4
100
AcDbEntity
  8
None
  6
Continuous
 62
     0
370
     5
390
1D
100
AcDbVertex
100
AcDb2dVertex
 10
-5.400082864583335
 20
-5.379500000000001
 30
0.0
  0
VERTEX
  5
3B7
330
3B4
100
AcDbEntity
  8
None
  6
Continuous
 62
     0
370
     5
390
1D
100
AcDbVertex
100
AcDb2dVertex
 10
-5.712582864583335
 20
-5.463234122634727
 30
0.0
  0
SEQEND
  5
3B8
330
3B4
100
AcDbEntity
  8
None
  6
Continuous
 62
     0
370
     5
390
1D
  0
HATCH
  5
3B9
330
66
100
AcDbEntity
  8
Dimension
  6
Continuous
 62
     0
370
     0
390
1D
100
AcDbHatch
 10
0.0
 20
0.0
 30
0.0
210
0.0
220
0.0
230
1.0
  2
SOLID
 70
     1
 71
     1
 91
        1
 92
        1
 93
        3
 72
     1
 10
-5.712582864583335
 20
-5.295765877365275
 11
-5.400082864583335
 21
-5.379500000000001
 72
     1
 10
-5.400082864583335
 20
-5.379500000000001
 11
-5.712582864583335
 21
-5.463234122634727
 72
     1
 10
-5.712582864583335
 20
-5.463234122634727
 11
-5.712582864583335
 21
-5.295765877365275
 97
        1
330
3B4
 75
     0
 76
     1
 98
        1
 10
0.0
 20
0.0
  0
LINE
  5
3BA
330
66
100
AcDbEntity
  8
Dimension
  6
Continuous
 62
     0
370
    -2
390
1D
100
AcDbLine
 10
-5.085082864583335
 20
-5.379500000000001
 30
0.0
 11
-4.396107864583335
 21
-5.379500000000001
 31
0.0
  0
POLYLINE
  5
3BB
102
{ACAD_REACTORS
330
3C0
102
}
330
66
100
AcDbEntity
  8
None
  6
Continuous
 62
     0
370
     5
390
1D
100
AcDb2dPolyline
 66
     1
 10
0.0
 20
0.0
 30
0.0
 70
     1
 75
     5
  0
VERTEX
  5
3BC
330
3BB
100
AcDbEntity
  8
None
  6
Continuous
 62
     0
370
     5
390
1D
100
AcDbVertex
100
AcDb2dVertex
 10
-4.772582864583335
 20
-5.463234122634727
 30
0.0
  0
VERTEX
  5
3BD
330
3BB
100
AcDbEntity
  8
None
  6
Continuous
 62
     0
370
     5
390
1D
100
AcDbVertex
100
AcDb2dVertex
 10
-5.085082864583335
 20
-5.379500000000001
 30
0.0
  0
VERTEX
  5
3BE
330
3BB
100
AcDbEntity
  8
None
  6
Continuous
 62
     0
370
     5
390
1D
100
AcDbVertex
100
AcDb2dVertex
 10
-4.772582864583335
 20
-5.295765877365275
 30
0.0
  0
SEQEND
  5
3BF
330
3BB
100
AcDbEntity
  8
None
  6
Continuous
 62
     0
370
     5
390
1D
  0
HATCH
  5
3C0
330
66
100
AcDbEntity
  8
Dimension
  6
Continuous
 62
     0
370
     0
390
1D
100
AcDbHatch
 10
0.0
 20
0.0
 30
0.0
210
0.0
220
0.0
230
1.0
  2
SOLID
 70
     1
 71
     1
 91
        1
 92
        1
 93
        3
 72
     1
 10
-4.772582864583335
 20
-5.463234122634727
 11
-5.085082864583335
 21
-5.379500000000001
 72
     1
 10
-5.085082864583335
 20
-5.379500000000001
 11
-4.772582864583335
 21
-5.295765877365275
 72
     1
 10
-4.772582864583335
 20
-5.295765877365275
 11
-4.772582864583335
 21
-5.463234122634727
 97
        1
330
3BB
 75
     0
 76
     1
 98
        1
 10
0.0
 20
0.0
  0
MTEXT
  5
3C1
330
66
100
AcDbEntity
  8
Dimension
 62
     0
390
1D
100
AcDbMText
 10
-6.921975477430557
 20
-5.081630850407266
 30
0.0
 40
0.1992580384816239
 41
0.0
 46
0.0
 71
     1
 72
     1
  1
.3147
  7
Helvetica
 73
     1
 44
0.8397955333929318
  0
MTEXT
  5
3C2
330
66
100
AcDbEntity
  8
Dimension
 62
     0
390
1D
100
AcDbMText
 10
-6.921975477430557
 20
-5.428853072629487
 30
0.0
 40
0.1992580384816239
 41
0.0
 46
0.0
 71
     1
 72
     1
  1
.3140
  7
Helvetica
 73
     1
 44
0.8397955333929318
  0
POINT
  5
3C3
330
66
100
AcDbEntity
  8
Defpoints
 62
     0
370
     0
390
1D
100
AcDbPoint
 10
-5.085082864583335
 20
-5.947000000000001
 30
0.0
  0
POINT
  5
3C4
330
66
100
AcDbEntity
  8
Defpoints
 62
     0
370
     0
390
1D
100
AcDbPoint
 10
-5.400082864583335
 20
-5.947000000000001
 30
0.0
  0
POINT
  5
3C5
330
66
100
AcDbEntity
  8
Defpoints
 62
     0
370
     0
390
1D
100
AcDbPoint
 10
-5.400082864583335
 20
-5.379500000000001
 30
0.0
  0
ENDBLK
  5
3C6
330
66
100
AcDbEntity
  8
Dimension
390
1D
100
AcDbBlockEnd
  0
BLOCK
  5
3C7
330
67
100
AcDbEntity
  8
Dimension
390
1D
100
AcDbBlockBegin
  2
*D69
 70
     1
 10
0.0
 20
0.0
 30
0.0
  3
*D69
  1

  0
LINE
  5
3C8
330
67
100
AcDbEntity
  8
Dimension
  6
Continuous
 62
     0
370
    -2
390
1D
100
AcDbLine
 10
-3.969784862391236
 20
-5.822204500000001
 30
0.0
 11
-3.969784862391236
 21
-5.15712709840766
 31
0.0
  0
LINE
  5
3C9
330
67
100
AcDbEntity
  8
Dimension
  6
Continuous
 62
     0
370
    -2
390
1D
100
AcDbLine
 10
-1.719784862391236
 20
-5.822204500000001
 30
0.0
 11
-1.719784862391236
 21
-5.15712709840766
 31
0.0
  0
LINE
  5
3CA
330
67
100
AcDbEntity
  8
Dimension
  6
Continuous
 62
     0
370
    -2
390
1D
100
AcDbLine
 10
-3.969784862391236
 20
-5.35397709840766
 30
0.0
 11
-1.719784862391236
 21
-5.35397709840766
 31
0.0
  0
POLYLINE
  5
3CB
102
{ACAD_REACTORS
330
3D0
102
}
330
67
100
AcDbEntity
  8
None
  6
Continuous
 62
     0
370
     5
390
1D
100
AcDb2dPolyline
 66
     1
 10
0.0
 20
0.0
 30
0.0
 70
     1
 75
     5
  0
VERTEX
  5
3CC
330
3CB
100
AcDbEntity
  8
None
  6
Continuous
 62
     0
370
     5
390
1D
100
AcDbVertex
100
AcDb2dVertex
 10
-3.657284862391236
 20
-5.437711221042385
 30
0.0
  0
VERTEX
  5
3CD
330
3CB
100
AcDbEntity
  8
None
  6
Continuous
 62
     0
370
     5
390
1D
100
AcDbVertex
100
AcDb2dVertex
 10
-3.969784862391236
 20
-5.35397709840766
 30
0.0
  0
VERTEX
  5
3CE
330
3CB
100
AcDbEntity
  8
None
  6
Continuous
 62
     0
370
     5
390
1D
100
AcDbVertex
100
AcDb2dVertex
 10
-3.657284862391236
 20
-5.270242975772934
 30
0.0
  0
SEQEND
  5
3CF
330
3CB
100
AcDbEntity
  8
None
  6
Continuous
 62
     0
370
     5
390
1D
  0
HATCH
  5
3D0
330
67
100
AcDbEntity
  8
Dimension
  6
Continuous
 62
     0
370
     0
390
1D
100
AcDbHatch
 10
0.0
 20
0.0
 30
0.0
210
0.0
220
0.0
230
1.0
  2
SOLID
 70
     1
 71
     1
 91
        1
 92
        1
 93
        3
 72
     1
 10
-3.657284862391236
 20
-5.437711221042385
 11
-3.969784862391236
 21
-5.35397709840766
 72
     1
 10
-3.969784862391236
 20
-5.35397709840766
 11
-3.657284862391236
 21
-5.270242975772934
 72
     1
 10
-3.657284862391236
 20
-5.270242975772934
 11
-3.657284862391236
 21
-5.437711221042385
 97
        1
330
3CB
 75
     0
 76
     1
 98
        1
 10
0.0
 20
0.0
  0
POLYLINE
  5
3D1
102
{ACAD_REACTORS
330
3D6
102
}
330
67
100
AcDbEntity
  8
None
  6
Continuous
 62
     0
370
     5
390
1D
100
AcDb2dPolyline
 66
     1
 10
0.0
 20
0.0
 30
0.0
 70
     1
 75
     5
  0
VERTEX
  5
3D2
330
3D1
100
AcDbEntity
  8
None
  6
Continuous
 62
     0
370
     5
390
1D
100
AcDbVertex
100
AcDb2dVertex
 10
-2.032284862391236
 20
-5.270242975772934
 30
0.0
  0
VERTEX
  5
3D3
330
3D1
100
AcDbEntity
  8
None
  6
Continuous
 62
     0
370
     5
390
1D
100
AcDbVertex
100
AcDb2dVertex
 10
-1.719784862391236
 20
-5.35397709840766
 30
0.0
  0
VERTEX
  5
3D4
330
3D1
100
AcDbEntity
  8
None
  6
Continuous
 62
     0
370
     5
390
1D
100
AcDbVertex
100
AcDb2dVertex
 10
-2.032284862391236
 20
-5.437711221042385
 30
0.0
  0
SEQEND
  5
3D5
330
3D1
100
AcDbEntity
  8
None
  6
Continuous
 62
     0
370
     5
390
1D
  0
HATCH
  5
3D6
330
67
100
AcDbEntity
  8
Dimension
  6
Continuous
 62
     0
370
     0
390
1D
100
AcDbHatch
 10
0.0
 20
0.0
 30
0.0
210
0.0
220
0.0
230
1.0
  2
SOLID
 70
     1
 71
     1
 91
        1
 92
        1
 93
        3
 72
     1
 10
-2.032284862391236
 20
-5.270242975772934
 11
-1.719784862391236
 21
-5.35397709840766
 72
     1
 10
-1.719784862391236
 20
-5.35397709840766
 11
-2.032284862391236
 21
-5.437711221042385
 72
     1
 10
-2.032284862391236
 20
-5.437711221042385
 11
-2.032284862391236
 21
-5.270242975772934
 97
        1
330
3D1
 75
     0
 76
     1
 98
        1
 10
0.0
 20
0.0
  0
MTEXT
  5
3D7
330
67
100
AcDbEntity
  8
Dimension
 62
     0
390
1D
100
AcDbMText
 10
-3.115102787738458
 20
-5.229719059926036
 30
0.0
 40
0.1992580384816239
 41
0.0
 46
0.0
 71
     1
 72
     1
  1
2.25
  7
Helvetica
 73
     1
 44
0.8397955333929318
  0
POINT
  5
3D8
330
67
100
AcDbEntity
  8
Defpoints
 62
     0
370
     0
390
1D
100
AcDbPoint
 10
-1.719784862391236
 20
-5.947204500000002
 30
0.0
  0
POINT
  5
3D9
330
67
100
AcDbEntity
  8
Defpoints
 62
     0
370
     0
390
1D
100
AcDbPoint
 10
-3.969784862391236
 20
-5.947204500000002
 30
0.0
  0
POINT
  5
3DA
330
67
100
AcDbEntity
  8
Defpoints
 62
     0
370
     0
390
1D
100
AcDbPoint
 10
-3.969784862391236
 20
-5.35397709840766
 30
0.0
  0
ENDBLK
  5
3DB
330
67
100
AcDbEntity
  8
Dimension
390
1D
100
AcDbBlockEnd
  0
BLOCK
  5
3DC
330
68
100
AcDbEntity
  8
Dimension
390
1D
100
AcDbBlockBegin
  2
*D70
 70
     1
 10
0.0
 20
0.0
 30
0.0
  3
*D70
  1

  0
LINE
  5
3DD
330
68
100
AcDbEntity
  8
Dimension
  6
Continuous
 62
     0
370
    -2
390
1D
100
AcDbLine
 10
-1.594784862391236
 20
-6.222795500000001
 30
0.0
 11
-0.403150000000001
 21
-6.222795500000001
 31
0.0
  0
LINE
  5
3DE
330
68
100
AcDbEntity
  8
Dimension
  6
Continuous
 62
     0
370
    -2
390
1D
100
AcDbLine
 10
-1.594784862391236
 20
-5.947204500000002
 30
0.0
 11
-0.403150000000001
 21
-5.947204500000002
 31
0.0
  0
LINE
  5
3DF
330
68
100
AcDbEntity
  8
Dimension
  6
Continuous
 62
     0
370
    -2
390
1D
100
AcDbLine
 10
-0.6000000000000005
 20
-5.947204500000002
 30
0.0
 11
-0.6000000000000005
 21
-6.222795500000001
 31
0.0
  0
LINE
  5
3E0
330
68
100
AcDbEntity
  8
Dimension
  6
Continuous
 62
     0
370
    -2
390
1D
100
AcDbLine
 10
-0.6000000000000005
 20
-6.222795500000001
 30
0.0
 11
-0.6000000000000005
 21
-6.911770500000001
 31
0.0
  0
POLYLINE
  5
3E1
102
{ACAD_REACTORS
330
3E6
102
}
330
68
100
AcDbEntity
  8
None
  6
Continuous
 62
     0
370
     5
390
1D
100
AcDb2dPolyline
 66
     1
 10
0.0
 20
0.0
 30
0.0
 70
     1
 75
     5
  0
VERTEX
  5
3E2
330
3E1
100
AcDbEntity
  8
None
  6
Continuous
 62
     0
370
     5
390
1D
100
AcDbVertex
100
AcDb2dVertex
 10
-0.6837341226347267
 20
-6.535295500000001
 30
0.0
  0
VERTEX
  5
3E3
330
3E1
100
AcDbEntity
  8
None
  6
Continuous
 62
     0
370
     5
390
1D
100
AcDbVertex
100
AcDb2dVertex
 10
-0.6000000000000005
 20
-6.222795500000001
 30
0.0
  0
VERTEX
  5
3E4
330
3E1
100
AcDbEntity
  8
None
  6
Continuous
 62
     0
370
     5
390
1D
100
AcDbVertex
100
AcDb2dVertex
 10
-0.5162658773652753
 20
-6.535295500000001
 30
0.0
  0
SEQEND
  5
3E5
330
3E1
100
AcDbEntity
  8
None
  6
Continuous
 62
     0
370
     5
390
1D
  0
HATCH
  5
3E6
330
68
100
AcDbEntity
  8
Dimension
  6
Continuous
 62
     0
370
     0
390
1D
100
AcDbHatch
 10
0.0
 20
0.0
 30
0.0
210
0.0
220
0.0
230
1.0
  2
SOLID
 70
     1
 71
     1
 91
        1
 92
        1
 93
        3
 72
     1
 10
-0.6837341226347267
 20
-6.535295500000001
 11
-0.6000000000000005
 21
-6.222795500000001
 72
     1
 10
-0.6000000000000005
 20
-6.222795500000001
 11
-0.5162658773652753
 21
-6.535295500000001
 72
     1
 10
-0.5162658773652753
 20
-6.535295500000001
 11
-0.6837341226347267
 21
-6.535295500000001
 97
        1
330
3E1
 75
     0
 76
     1
 98
        1
 10
0.0
 20
0.0
  0
LINE
  5
3E7
330
68
100
AcDbEntity
  8
Dimension
  6
Continuous
 62
     0
370
    -2
390
1D
100
AcDbLine
 10
-0.6000000000000005
 20
-5.947204500000002
 30
0.0
 11
-0.6000000000000005
 21
-5.199999999999999
 31
0.0
  0
POLYLINE
  5
3E8
102
{ACAD_REACTORS
330
3ED
102
}
330
68
100
AcDbEntity
  8
None
  6
Continuous
 62
     0
370
     5
390
1D
100
AcDb2dPolyline
 66
     1
 10
0.0
 20
0.0
 30
0.0
 70
     1
 75
     5
  0
VERTEX
  5
3E9
330
3E8
100
AcDbEntity
  8
None
  6
Continuous
 62
     0
370
     5
390
1D
100
AcDbVertex
100
AcDb2dVertex
 10
-0.5162658773652753
 20
-5.634704500000002
 30
0.0
  0
VERTEX
  5
3EA
330
3E8
100
AcDbEntity
  8
None
  6
Continuous
 62
     0
370
     5
390
1D
100
AcDbVertex
100
AcDb2dVertex
 10
-0.6000000000000005
 20
-5.947204500000002
 30
0.0
  0
VERTEX
  5
3EB
330
3E8
100
AcDbEntity
  8
None
  6
Continuous
 62
     0
370
     5
390
1D
100
AcDbVertex
100
AcDb2dVertex
 10
-0.6837341226347267
 20
-5.634704500000002
 30
0.0
  0
SEQEND
  5
3EC
330
3E8
100
AcDbEntity
  8
None
  6
Continuous
 62
     0
370
     5
390
1D
  0
HATCH
  5
3ED
330
68
100
AcDbEntity
  8
Dimension
  6
Continuous
 62
     0
370
     0
390
1D
100
AcDbHatch
 10
0.0
 20
0.0
 30
0.0
210
0.0
220
0.0
230
1.0
  2
SOLID
 70
     1
 71
     1
 91
        1
 92
        1
 93
        3
 72
     1
 10
-0.5162658773652753
 20
-5.634704500000002
 11
-0.6000000000000005
 21
-5.947204500000002
 72
     1
 10
-0.6000000000000005
 20
-5.947204500000002
 11
-0.6837341226347267
 21
-5.634704500000002
 72
     1
 10
-0.6837341226347267
 20
-5.634704500000002
 11
-0.5162658773652753
 21
-5.634704500000002
 97
        1
330
3E8
 75
     0
 76
     1
 98
        1
 10
0.0
 20
0.0
  0
MTEXT
  5
3EE
330
68
100
AcDbEntity
  8
Dimension
 62
     0
390
1D
100
AcDbMText
 10
-1.34863009982639
 20
-5.075741961518376
 30
0.0
 40
0.1992580384816239
 41
0.0
 46
0.0
 71
     1
 72
     1
  1
.276 (7 mm)
  7
Helvetica
 73
     1
 44
0.8397955333929318
  0
POINT
  5
3EF
330
68
100
AcDbEntity
  8
Defpoints
 62
     0
370
     0
390
1D
100
AcDbPoint
 10
-1.719784862391236
 20
-5.947204500000002
 30
0.0
  0
POINT
  5
3F0
330
68
100
AcDbEntity
  8
Defpoints
 62
     0
370
     0
390
1D
100
AcDbPoint
 10
-1.719784862391236
 20
-6.222795500000001
 30
0.0
  0
POINT
  5
3F1
330
68
100
AcDbEntity
  8
Defpoints
 62
     0
370
     0
390
1D
100
AcDbPoint
 10
-0.6000000000000005
 20
-6.222795500000001
 30
0.0
  0
ENDBLK
  5
3F2
330
68
100
AcDbEntity
  8
Dimension
390
1D
100
AcDbBlockEnd
  0
ENDSEC
  0
SECTION
  2
ENTITIES
  0
LINE
  5
3F3
330
A
100
AcDbEntity
  8
PLB-050-30Tw~
  6
Continuous
 62
   148
370
    25
390
1D
100
AcDbLine
 10
-9.298055154027631
 20
-2.622047244094492
 30
0.0
 11
-8.451598461114258
 21
-2.622047244094492
 31
0.0
  0
ARC
  5
3F4
330
A
100
AcDbEntity
  8
PLB-050-30Tw~
  6
Continuous
 62
   148
370
    25
390
1D
100
AcDbCircle
 10
-9.298055154027628
 20
-2.582677165354334
 30
0.0
 40
0.0393700787401575
100
AcDbArc
 50
180.0
 51
270.0
  0
LINE
  5
3F5
330
A
100
AcDbEntity
  8
PLB-050-30Tw~
  6
Continuous
 62
   148
370
    25
390
1D
100
AcDbLine
 10
-9.337425232767774
 20
-2.582677165354334
 30
0.0
 11
-9.337425232767774
 21
-0.5307133155437226
 31
0.0
  0
ARC
  5
3F6
330
A
100
AcDbEntity
  8
PLB-050-30Tw~
  6
Continuous
 62
   148
370
    25
390
1D
100
AcDbCircle
 10
-9.298055154027619
 20
4.582677165354328
 30
0.0
 40
0.0393700787401575
100
AcDbArc
 50
90.0
 51
180.0
  0
LINE
  5
3F7
330
A
100
AcDbEntity
  8
PLB-050-30Tw~
  6
Continuous
 62
   148
370
    25
390
1D
100
AcDbLine
 10
-9.298055154027619
 20
4.622047244094485
 30
0.0
 11
-8.45159846111424
 21
4.622047244094485
 31
0.0
  0
LINE
  5
3F8
330
A
100
AcDbEntity
  8
PLB-050-30Tw~
  6
Continuous
 62
   148
370
    25
390
1D
100
AcDbLine
 10
-8.451598461114258
 20
-2.622047244094492
 30
0.0
 11
-7.487031531980383
 21
-2.622047244094493
 31
0.0
  0
ARC
  5
3F9
330
A
100
AcDbEntity
  8
PLB-050-30Tw~
  6
Continuous
 62
   148
370
    25
390
1D
100
AcDbCircle
 10
-7.487031531980383
 20
-2.582677165354335
 30
0.0
 40
0.0393700787401575
100
AcDbArc
 50
270.0
 51
0.0
  0
LINE
  5
3FA
330
A
100
AcDbEntity
  8
PLB-050-30Tw~
  6
Continuous
 62
   148
370
    25
390
1D
100
AcDbLine
 10
-7.447661453240217
 20
-2.582677165354335
 30
0.0
 11
-7.447661453240217
 21
0.5606507265994157
 31
0.0
  0
ARC
  5
3FB
330
A
100
AcDbEntity
  8
PLB-050-30Tw~
  6
Continuous
 62
   148
370
    25
390
1D
100
AcDbCircle
 10
-7.487031531980374
 20
4.582677165354328
 30
0.0
 40
0.0393700787401575
100
AcDbArc
 50
0.0
 51
90.0
  0
LINE
  5
3FC
330
A
100
AcDbEntity
  8
PLB-050-30Tw~
  6
Continuous
 62
   148
370
    25
390
1D
100
AcDbLine
 10
-8.45159846111424
 20
4.622047244094485
 30
0.0
 11
-7.487031531980374
 21
4.622047244094485
 31
0.0
  0
LINE
  5
3FD
330
A
100
AcDbEntity
  8
PLB-050-30Tw~
 62
   148
370
    25
390
1D
100
AcDbLine
 10
-6.853102398122092
 20
0.4094488188976344
 30
0.0
 11
-6.794047280011856
 21
0.3503937007874004
 31
0.0
  0
LINE
  5
3FE
330
A
100
AcDbEntity
  8
PLB-050-30Tw~
 62
   148
370
    25
390
1D
100
AcDbLine
 10
-6.853102398122092
 20
1.590551181102364
 30
0.0
 11
-6.794047280011856
 21
1.6496062992126
 31
0.0
  0
LINE
  5
3FF
330
A
100
AcDbEntity
  8
PLB-050-30Tw~
 62
   148
370
    25
390
1D
100
AcDbLine
 10
-9.553525051680307
 20
0.4094488188976321
 30
0.0
 11
-9.612580169790544
 21
0.3503937007873936
 31
0.0
  0
LINE
  5
400
330
A
100
AcDbEntity
  8
PLB-050-30Tw~
 62
   148
370
    25
390
1D
100
AcDbLine
 10
-9.55388216228604
 20
1.590551181102357
 30
0.0
 11
-9.612937280396276
 21
1.649606299212593
 31
0.0
  0
LINE
  5
401
330
A
100
AcDbEntity
  8
PLB-050-30Tw~
 62
   148
370
    25
390
1D
100
AcDbLine
 10
-9.455099854829914
 20
0.4094488188976321
 30
0.0
 11
-8.758301945404618
 21
0.4094488188976332
 31
0.0
  0
LINE
  5
402
330
A
100
AcDbEntity
  8
PLB-050-30Tw~
 62
   148
370
    25
390
1D
100
AcDbLine
 10
-9.455456965435646
 20
1.590551181102357
 30
0.0
 11
-8.883120199369213
 21
1.590551181102357
 31
0.0
  0
LINE
  5
403
330
A
100
AcDbEntity
  8
PLB-050-30Tw~
 62
   148
370
    25
390
1D
100
AcDbLine
 10
-6.908220508358316
 20
0.4094488188976344
 30
0.0
 11
-6.853102398122092
 21
0.4094488188976344
 31
0.0
  0
LINE
  5
404
330
A
100
AcDbEntity
  8
PLB-050-30Tw~
 62
   148
370
    25
390
1D
100
AcDbLine
 10
-6.908220508358316
 20
1.590551181102364
 30
0.0
 11
-6.853102398122092
 21
1.590551181102364
 31
0.0
  0
LINE
  5
405
330
A
100
AcDbEntity
  8
PLB-050-30Tw~
 62
   148
370
    25
390
1D
100
AcDbLine
 10
-6.951527594972486
 20
0.3897637795275511
 30
0.0
 11
-6.908220508358316
 21
0.3897637795275511
 31
0.0
  0
LINE
  5
406
330
A
100
AcDbEntity
  8
PLB-050-30Tw~
 62
   148
370
    25
390
1D
100
AcDbLine
 10
-6.908220508358316
 20
0.4094488188976321
 30
0.0
 11
-6.908220508358316
 21
0.3897637795275511
 31
0.0
  0
LINE
  5
407
330
A
100
AcDbEntity
  8
PLB-050-30Tw~
 62
   148
370
    25
390
1D
100
AcDbLine
 10
-6.951527594972486
 20
0.4094488188976344
 30
0.0
 11
-6.951527594972486
 21
0.3897637795275511
 31
0.0
  0
LINE
  5
408
330
A
100
AcDbEntity
  8
PLB-050-30Tw~
 62
   148
370
    25
390
1D
100
AcDbLine
 10
-6.951527594972486
 20
1.610236220472438
 30
0.0
 11
-6.908220508358316
 21
1.610236220472441
 31
0.0
  0
LINE
  5
409
330
A
100
AcDbEntity
  8
PLB-050-30Tw~
 62
   148
370
    25
390
1D
100
AcDbLine
 10
-6.951527594972486
 20
1.610236220472438
 30
0.0
 11
-6.951527594972486
 21
1.59055118110236
 31
0.0
  0
LINE
  5
40A
330
A
100
AcDbEntity
  8
PLB-050-30Tw~
 62
   148
370
    25
390
1D
100
AcDbLine
 10
-6.908220508358316
 20
1.610236220472438
 30
0.0
 11
-6.908220508358316
 21
1.590551181102362
 31
0.0
  0
LINE
  5
40B
330
A
100
AcDbEntity
  8
PLB-050-30Tw~
 62
   148
370
    25
390
1D
100
AcDbLine
 10
-9.498406941444088
 20
0.4094488188976344
 30
0.0
 11
-9.498406941444088
 21
0.3897637795275556
 31
0.0
  0
LINE
  5
40C
330
A
100
AcDbEntity
  8
PLB-050-30Tw~
 62
   148
370
    25
390
1D
100
AcDbLine
 10
-9.455099854829914
 20
0.4094488188976344
 30
0.0
 11
-9.455099854829914
 21
0.3897637795275578
 31
0.0
  0
LINE
  5
40D
330
A
100
AcDbEntity
  8
PLB-050-30Tw~
 62
   148
370
    25
390
1D
100
AcDbLine
 10
-9.498406941444092
 20
0.3897637795275556
 30
0.0
 11
-9.455099854829914
 21
0.3897637795275556
 31
0.0
  0
LINE
  5
40E
330
A
100
AcDbEntity
  8
PLB-050-30Tw~
 62
   148
370
    25
390
1D
100
AcDbLine
 10
-9.49876405204982
 20
1.610236220472434
 30
0.0
 11
-9.49876405204982
 21
1.59055118110236
 31
0.0
  0
LINE
  5
40F
330
A
100
AcDbEntity
  8
PLB-050-30Tw~
 62
   148
370
    25
390
1D
100
AcDbLine
 10
-9.455456965435646
 20
1.610236220472436
 30
0.0
 11
-9.455456965435646
 21
1.59055118110236
 31
0.0
  0
LINE
  5
410
330
A
100
AcDbEntity
  8
PLB-050-30Tw~
 62
   148
370
    25
390
1D
100
AcDbLine
 10
-9.498764052049825
 20
1.610236220472434
 30
0.0
 11
-9.455456965435646
 21
1.610236220472436
 31
0.0
  0
LINE
  5
411
330
A
100
AcDbEntity
  8
PLB-050-30Tw~
 62
   148
370
    25
390
1D
100
AcDbLine
 10
-9.612580169790547
 20
0.1931444109696015
 30
0.0
 11
-9.533840012310232
 21
0.1931444109696015
 31
0.0
  0
LINE
  5
412
330
A
100
AcDbEntity
  8
PLB-050-30Tw~
 62
   148
370
    25
390
1D
100
AcDbLine
 10
-9.612580169790544
 20
0.3503937007873947
 30
0.0
 11
-9.612580169790547
 21
0.1931444109696038
 31
0.0
  0
LINE
  5
413
330
A
100
AcDbEntity
  8
PLB-050-30Tw~
 62
   148
370
    25
390
1D
100
AcDbLine
 10
-9.612937280396281
 20
1.807317639316063
 30
0.0
 11
-9.612937280396276
 21
1.649606299212591
 31
0.0
  0
LINE
  5
414
330
A
100
AcDbEntity
  8
PLB-050-30Tw~
 62
   148
370
    25
390
1D
100
AcDbLine
 10
-9.612937280396281
 20
1.807317639316063
 30
0.0
 11
-9.534197122915966
 21
1.807317639316063
 31
0.0
  0
LINE
  5
415
330
A
100
AcDbEntity
  8
PLB-050-30Tw~
 62
   148
370
    25
390
1D
100
AcDbLine
 10
-9.462973870577951
 20
0.232514489709759
 30
0.0
 11
-9.462973870577951
 21
0.1931444109696015
 31
0.0
  0
LINE
  5
416
330
A
100
AcDbEntity
  8
PLB-050-30Tw~
 62
   148
370
    25
390
1D
100
AcDbLine
 10
-9.533840012310236
 20
0.232514489709759
 30
0.0
 11
-9.533840012310236
 21
0.0729745923018125
 31
0.0
  0
LINE
  5
417
330
A
100
AcDbEntity
  8
PLB-050-30Tw~
 62
   148
370
    25
390
1D
100
AcDbLine
 10
-9.533840012310232
 20
0.232514489709759
 30
0.0
 11
-9.462973870577951
 21
0.232514489709759
 31
0.0
  0
LINE
  5
418
330
A
100
AcDbEntity
  8
PLB-050-30Tw~
 62
   148
370
    25
390
1D
100
AcDbLine
 10
-9.463330981183685
 20
1.807317639316063
 30
0.0
 11
-9.463330981183685
 21
1.767947560575906
 31
0.0
  0
LINE
  5
419
330
A
100
AcDbEntity
  8
PLB-050-30Tw~
 62
   148
370
    25
390
1D
100
AcDbLine
 10
-9.53419712291597
 20
1.927487457983855
 30
0.0
 11
-9.53419712291597
 21
1.767947560575906
 31
0.0
  0
LINE
  5
41A
330
A
100
AcDbEntity
  8
PLB-050-30Tw~
 62
   148
370
    25
390
1D
100
AcDbLine
 10
-9.53419712291597
 20
1.767947560575906
 30
0.0
 11
-9.463330981183685
 21
1.767947560575906
 31
0.0
  0
LINE
  5
41B
330
A
100
AcDbEntity
  8
PLB-050-30Tw~
 62
   148
370
    25
390
1D
100
AcDbLine
 10
-7.287830725432297
 20
0.1931463322360941
 30
0.0
 11
-6.943653579224462
 21
0.1931463322360941
 31
0.0
  0
LINE
  5
41C
330
A
100
AcDbEntity
  8
PLB-050-30Tw~
 62
   148
370
    25
390
1D
100
AcDbLine
 10
-6.794047280011865
 20
0.3503937007874093
 30
0.0
 11
-6.794047280011865
 21
0.1931463322360941
 31
0.0
  0
LINE
  5
41D
330
A
100
AcDbEntity
  8
PLB-050-30Tw~
 62
   148
370
    25
390
1D
100
AcDbLine
 10
-6.943653579224462
 20
0.2325164109762516
 30
0.0
 11
-6.943653579224462
 21
0.1931463322360941
 31
0.0
  0
LINE
  5
41E
330
A
100
AcDbEntity
  8
PLB-050-30Tw~
 62
   148
370
    25
390
1D
100
AcDbLine
 10
-6.87278743749218
 20
0.2325164109762516
 30
0.0
 11
-6.87278743749218
 21
0.0729765135683062
 31
0.0
  0
LINE
  5
41F
330
A
100
AcDbEntity
  8
PLB-050-30Tw~
 62
   148
370
    25
390
1D
100
AcDbLine
 10
-6.872787437492171
 20
0.1931463322360941
 30
0.0
 11
-6.794047280011856
 21
0.1931463322360941
 31
0.0
  0
LINE
  5
420
330
A
100
AcDbEntity
  8
PLB-050-30Tw~
 62
   148
370
    25
390
1D
100
AcDbLine
 10
-6.872787437492171
 20
1.807319560582555
 30
0.0
 11
-6.794047280011856
 21
1.807319560582555
 31
0.0
  0
LINE
  5
421
330
A
100
AcDbEntity
  8
PLB-050-30Tw~
 62
   148
370
    25
390
1D
100
AcDbLine
 10
-6.943653579224462
 20
0.2325164109762516
 30
0.0
 11
-6.87278743749218
 21
0.2325164109762516
 31
0.0
  0
LINE
  5
422
330
A
100
AcDbEntity
  8
PLB-050-30Tw~
 62
   148
370
    25
390
1D
100
AcDbLine
 10
-6.943653579224462
 20
1.7679494818424
 30
0.0
 11
-6.87278743749218
 21
1.7679494818424
 31
0.0
  0
LINE
  5
423
330
A
100
AcDbEntity
  8
PLB-050-30Tw~
 62
   148
370
    25
390
1D
100
AcDbLine
 10
-6.943653579224462
 20
1.807319560582555
 30
0.0
 11
-6.943653579224462
 21
1.7679494818424
 31
0.0
  0
LINE
  5
424
330
A
100
AcDbEntity
  8
PLB-050-30Tw~
 62
   148
370
    25
390
1D
100
AcDbLine
 10
-6.87278743749218
 20
1.927489379250346
 30
0.0
 11
-6.87278743749218
 21
1.7679494818424
 31
0.0
  0
LINE
  5
425
330
A
100
AcDbEntity
  8
PLB-050-30Tw~
 62
   148
370
    25
390
1D
100
AcDbLine
 10
-9.553525051680307
 20
0.4094488188976321
 30
0.0
 11
-9.498406941444088
 21
0.4094488188976344
 31
0.0
  0
LINE
  5
426
330
A
100
AcDbEntity
  8
PLB-050-30Tw~
 62
   148
370
    25
390
1D
100
AcDbLine
 10
-9.55388216228604
 20
1.590551181102357
 30
0.0
 11
-9.49876405204982
 21
1.590551181102357
 31
0.0
  0
LINE
  5
427
330
A
100
AcDbEntity
  8
PLB-050-30Tw~
 62
   148
370
    25
390
1D
100
AcDbLine
 10
-6.794047280011865
 20
1.807319560582555
 30
0.0
 11
-6.794047280011865
 21
1.649606299212591
 31
0.0
  0
LINE
  5
428
330
A
100
AcDbEntity
  8
PLB-050-30Tw~
 62
   148
370
    25
390
1D
100
AcDbLine
 10
-9.462973870577951
 20
0.1931444109696015
 30
0.0
 11
-8.86830884219231
 21
0.1931444109696015
 31
0.0
  0
LINE
  5
429
330
A
100
AcDbEntity
  8
PLB-050-30Tw~
 62
   148
370
    25
390
1D
100
AcDbLine
 10
-9.613015783948878
 20
-0.3385826771653578
 30
0.0
 11
-9.234689839084567
 21
-0.3385826771653578
 31
0.0
  0
LINE
  5
42A
330
A
100
AcDbEntity
  8
PLB-050-30Tw~
 62
   148
370
    25
390
1D
100
AcDbLine
 10
-9.613015783948887
 20
2.338582677165354
 30
0.0
 11
-9.325197729105179
 21
2.338582677165354
 31
0.0
  0
LINE
  5
42B
330
A
100
AcDbEntity
  8
PLB-050-30Tw~
 62
   148
370
    25
390
1D
100
AcDbLine
 10
-9.613015783948887
 20
-1.992125984251974
 30
0.0
 11
-9.455535468988248
 21
-2.149606299212603
 31
0.0
  0
LINE
  5
42C
330
A
100
AcDbEntity
  8
PLB-050-30Tw~
 62
   148
370
    25
390
1D
100
AcDbLine
 10
-9.613015783948878
 20
3.992125984251972
 30
0.0
 11
-9.455535468988248
 21
4.149606299212595
 31
0.0
  0
LINE
  5
42D
330
A
100
AcDbEntity
  8
PLB-050-30Tw~
 62
   148
370
    25
390
1D
100
AcDbLine
 10
-9.337425232767774
 20
4.149606299212595
 30
0.0
 11
-9.455535468988248
 21
4.149606299212595
 31
0.0
  0
LINE
  5
42E
330
A
100
AcDbEntity
  8
PLB-050-30Tw~
 62
   148
370
    25
390
1D
100
AcDbLine
 10
-9.337425232767774
 20
-2.149606299212603
 30
0.0
 11
-9.455535468988248
 21
-2.149606299212603
 31
0.0
  0
LINE
  5
42F
330
A
100
AcDbEntity
  8
PLB-050-30Tw~
 62
   148
370
    25
390
1D
100
AcDbLine
 10
-7.196589882151123
 20
-0.3385826771653589
 30
0.0
 11
-7.093330744578799
 21
-0.3385826771653589
 31
0.0
  0
LINE
  5
430
330
A
100
AcDbEntity
  8
PLB-050-30Tw~
 62
   148
370
    25
390
1D
100
AcDbLine
 10
-7.374269748420059
 20
2.338582677165352
 30
0.0
 11
-7.093330744578817
 21
2.338582677165354
 31
0.0
  0
LINE
  5
431
330
A
100
AcDbEntity
  8
PLB-050-30Tw~
 62
   148
370
    25
390
1D
100
AcDbLine
 10
-7.447661453240217
 20
4.149606299212595
 30
0.0
 11
-7.25081105953943
 21
4.149606299212595
 31
0.0
  0
LINE
  5
432
330
A
100
AcDbEntity
  8
PLB-050-30Tw~
 62
   148
370
    25
390
1D
100
AcDbLine
 10
-7.447661453240217
 20
-2.149606299212603
 30
0.0
 11
-7.25081105953943
 21
-2.149606299212603
 31
0.0
  0
LINE
  5
433
330
A
100
AcDbEntity
  8
PLB-050-30Tw~
 62
   148
370
    25
390
1D
100
AcDbLine
 10
-8.911792768215742
 20
0.193144410969606
 30
0.0
 11
-8.86830884219231
 21
0.193144410969606
 31
0.0
  0
LINE
  5
434
330
A
100
AcDbEntity
  8
PLB-050-30Tw~
 62
   148
370
    25
390
1D
100
AcDbLine
 10
-8.911792768215742
 20
0.1370183385171407
 30
0.0
 11
-8.911792768215742
 21
0.1931444109696071
 31
0.0
  0
LINE
  5
435
330
A
100
AcDbEntity
  8
PLB-050-30Tw~
 62
   148
370
    25
390
1D
100
AcDbLine
 10
-7.494834681586666
 20
1.964799875543189
 30
0.0
 11
-7.494834681586666
 21
1.807319560582555
 31
0.0
  0
LINE
  5
436
330
A
100
AcDbEntity
  8
PLB-050-30Tw~
 62
   148
370
    25
390
1D
100
AcDbLine
 10
-7.132700823318957
 20
-0.3385826771653589
 30
0.0
 11
-7.132700823318957
 21
-2.031496062992132
 31
0.0
  0
LINE
  5
437
330
A
100
AcDbEntity
  8
PLB-050-30Tw~
 62
   148
370
    25
390
1D
100
AcDbLine
 10
-7.132700823318957
 20
4.031496062992123
 30
0.0
 11
-7.132700823318975
 21
2.338582677165349
 31
0.0
  0
LINE
  5
438
330
A
100
AcDbEntity
  8
PLB-050-30Tw~
 62
   148
370
    25
390
1D
100
AcDbLine
 10
-7.49490703867146
 20
2.003160165883082
 30
0.0
 11
-7.49490703867146
 21
1.807319560582555
 31
0.0
  0
LINE
  5
439
330
A
100
AcDbEntity
  8
PLB-050-30Tw~
 62
   148
370
    25
390
1D
100
AcDbLine
 10
-7.196589882151123
 20
-0.3385826771653589
 30
0.0
 11
-6.943725936309256
 21
-0.3385826771653589
 31
0.0
  0
LINE
  5
43A
330
A
100
AcDbEntity
  8
PLB-050-30Tw~
 62
   148
370
    25
390
1D
100
AcDbLine
 10
-7.374269748420059
 20
2.338582677165352
 30
0.0
 11
-6.943725936309256
 21
2.338582677165352
 31
0.0
  0
LINE
  5
43B
330
A
100
AcDbEntity
  8
PLB-050-30Tw~
 62
   148
370
    25
390
1D
100
AcDbLine
 10
-9.234689839084567
 20
-0.3385826771653578
 30
0.0
 11
-9.46304622766274
 21
-0.3385826771653578
 31
0.0
  0
LINE
  5
43C
330
A
100
AcDbEntity
  8
PLB-050-30Tw~
 62
   148
370
    25
390
1D
100
AcDbLine
 10
-9.325197729105179
 20
2.338582677165356
 30
0.0
 11
-9.463403338268474
 21
2.338582677165356
 31
0.0
  0
LINE
  5
43D
330
A
100
AcDbEntity
  8
PLB-050-30Tw~
 62
   148
370
    25
390
1D
100
AcDbLine
 10
-6.943725936309256
 20
2.338582677165352
 30
0.0
 11
-6.943725936309256
 21
1.807319560582555
 31
0.0
  0
LINE
  5
43E
330
A
100
AcDbEntity
  8
PLB-050-30Tw~
 62
   148
370
    25
390
1D
100
AcDbLine
 10
-9.463403338268474
 20
2.338582677165356
 30
0.0
 11
-9.463403338268474
 21
1.807317639316061
 31
0.0
  0
LINE
  5
43F
330
A
100
AcDbEntity
  8
PLB-050-30Tw~
 62
   148
370
    25
390
1D
100
AcDbLine
 10
-7.552644966090531
 20
1.807319560582555
 30
0.0
 11
-6.943725936309256
 21
1.807319560582555
 31
0.0
  0
LINE
  5
440
330
A
100
AcDbEntity
  8
PLB-050-30Tw~
 62
   148
370
    25
390
1D
100
AcDbLine
 10
-7.287830725432297
 20
0.1931463322360919
 30
0.0
 11
-6.943725936309256
 21
0.193146332236093
 31
0.0
  0
LINE
  5
441
330
A
100
AcDbEntity
  8
PLB-050-30Tw~
 62
   148
370
    25
390
1D
100
AcDbLine
 10
-8.954638884740413
 20
1.807317639316063
 30
0.0
 11
-9.463403338268474
 21
1.807317639316061
 31
0.0
  0
LINE
  5
442
330
A
100
AcDbEntity
  8
PLB-050-30Tw~
 62
   148
370
    25
390
1D
100
AcDbLine
 10
-8.911865125300535
 20
0.1931444109696015
 30
0.0
 11
-9.46304622766274
 21
0.1931444109696015
 31
0.0
  0
LINE
  5
443
330
A
100
AcDbEntity
  8
PLB-050-30Tw~
 62
   148
370
    25
390
1D
100
AcDbLine
 10
-9.46304622766274
 20
0.1931444109696004
 30
0.0
 11
-9.46304622766274
 21
-0.3385826771653589
 31
0.0
  0
LINE
  5
444
330
A
100
AcDbEntity
  8
PLB-050-30Tw~
 62
   148
370
    25
390
1D
100
AcDbLine
 10
-8.911865125300535
 20
0.1931444109696004
 30
0.0
 11
-8.911865125300535
 21
0.1369282189908748
 31
0.0
  0
LINE
  5
445
330
A
100
AcDbEntity
  8
PLB-050-30Tw~
 62
   148
370
    25
390
1D
100
AcDbLine
 10
-6.943725936309256
 20
0.193146332236093
 30
0.0
 11
-6.943725936309256
 21
-0.3385826771653578
 31
0.0
  0
CIRCLE
  5
446
330
A
100
AcDbEntity
  8
PLB-050-30Tw~
 62
   148
370
    25
390
1D
100
AcDbCircle
 10
-7.219316487490357
 20
2.072951118873952
 30
0.0
 40
0.1749542687530642
  0
LINE
  5
447
330
A
100
AcDbEntity
  8
PLB-050-30Tw~
 62
   148
370
    25
390
1D
100
AcDbLine
 10
-7.436490000833095
 20
2.191061355094427
 30
0.0
 11
-7.348386113099432
 21
2.191061355094427
 31
0.0
  0
LINE
  5
448
330
A
100
AcDbEntity
  8
PLB-050-30Tw~
 62
   148
370
    25
390
1D
100
AcDbLine
 10
-7.49490703867146
 20
1.95484088265348
 30
0.0
 11
-7.348386113099432
 21
1.95484088265348
 31
0.0
  0
LINE
  5
449
330
A
100
AcDbEntity
  8
PLB-050-30Tw~
 62
   148
370
    25
390
1D
100
AcDbLine
 10
-9.46304622766274
 20
0.0453911031225932
 30
0.0
 11
-9.316525302090707
 21
0.0453911031225932
 31
0.0
  0
LINE
  5
44A
330
A
100
AcDbEntity
  8
PLB-050-30Tw~
 62
   148
370
    25
390
1D
100
AcDbLine
 10
-9.46304622766274
 20
-0.1908293693183517
 30
0.0
 11
-9.316525302090703
 21
-0.1908293693183517
 31
0.0
  0
LINE
  5
44B
330
A
100
AcDbEntity
  8
PLB-050-30Tw~
 62
   148
370
    25
390
1D
100
AcDbLine
 10
-9.463403338268474
 20
2.191060394461181
 30
0.0
 11
-9.316882412696437
 21
2.191060394461181
 31
0.0
  0
LINE
  5
44C
330
A
100
AcDbEntity
  8
PLB-050-30Tw~
 62
   148
370
    25
390
1D
100
AcDbLine
 10
-9.463403338268474
 20
1.954839922020236
 30
0.0
 11
-9.316882412696437
 21
1.954839922020236
 31
0.0
  0
LINE
  5
44D
330
A
100
AcDbEntity
  8
PLB-050-30Tw~
 62
   148
370
    25
390
1D
100
AcDbLine
 10
-7.090246861881292
 20
0.0453920637558412
 30
0.0
 11
-6.943725936309256
 21
0.0453920637558401
 31
0.0
  0
LINE
  5
44E
330
A
100
AcDbEntity
  8
PLB-050-30Tw~
 62
   148
370
    25
390
1D
100
AcDbLine
 10
-7.090246861881292
 20
-0.1908284086851048
 30
0.0
 11
-6.943725936309256
 21
-0.1908284086851048
 31
0.0
  0
LINE
  5
44F
330
A
100
AcDbEntity
  8
PLB-050-30Tw~
 62
   148
370
    25
390
1D
100
AcDbLine
 10
-7.090246861881292
 20
1.95484088265348
 30
0.0
 11
-6.943725936309256
 21
1.95484088265348
 31
0.0
  0
LINE
  5
450
330
A
100
AcDbEntity
  8
PLB-050-30Tw~
 62
   148
370
    25
390
1D
100
AcDbLine
 10
-7.090246861881292
 20
2.191061355094427
 30
0.0
 11
-6.943725936309256
 21
2.191061355094427
 31
0.0
  0
LINE
  5
451
330
A
100
AcDbEntity
  8
PLB-050-30Tw~
 62
   148
370
    25
390
1D
100
AcDbLine
 10
-9.0587431614783
 20
1.954839922020236
 30
0.0
 11
-9.032367520587174
 21
1.954839922020236
 31
0.0
  0
LINE
  5
452
330
A
100
AcDbEntity
  8
PLB-050-30Tw~
 62
   148
370
    25
390
1D
100
AcDbLine
 10
-9.058386050872572
 20
0.0453911031225932
 30
0.0
 11
-8.987249096232178
 21
0.0453911031225932
 31
0.0
  0
LINE
  5
453
330
A
100
AcDbEntity
  8
PLB-050-30Tw~
  6
Continuous
 62
   148
370
    25
390
1D
100
AcDbLine
 10
-6.794047280011856
 20
1.6496062992126
 30
0.0
 11
-6.794047280011856
 21
0.3503937007874004
 31
0.0
  0
LINE
  5
454
330
A
100
AcDbEntity
  8
PLB-050-30Tw~
  6
Continuous
 62
   148
370
    25
390
1D
100
AcDbLine
 10
-6.908220508358316
 20
1.590551181102364
 30
0.0
 11
-6.908220508358316
 21
0.4094488188976388
 31
0.0
  0
LINE
  5
455
330
A
100
AcDbEntity
  8
PLB-050-30Tw~
  6
Continuous
 62
   148
370
    25
390
1D
100
AcDbLine
 10
-6.951527594972486
 20
1.590551181102364
 30
0.0
 11
-6.951527594972486
 21
0.3897637795275556
 31
0.0
  0
LINE
  5
456
330
A
100
AcDbEntity
  8
PLB-050-30Tw~
  6
Continuous
 62
   148
370
    25
390
1D
100
AcDbLine
 10
-9.455099854829914
 20
1.590551181102357
 30
0.0
 11
-9.455099854829914
 21
0.3897637795275556
 31
0.0
  0
LINE
  5
457
330
A
100
AcDbEntity
  8
PLB-050-30Tw~
  6
Continuous
 62
   148
370
    25
390
1D
100
AcDbLine
 10
-9.49876405204982
 20
1.59055118110236
 30
0.0
 11
-9.49876405204982
 21
0.4094488188976344
 31
0.0
  0
LINE
  5
458
330
A
100
AcDbEntity
  8
PLB-050-30Tw~
  6
Continuous
 62
   148
370
    25
390
1D
100
AcDbLine
 10
-9.612580169790544
 20
1.649249188606858
 30
0.0
 11
-9.612580169790544
 21
0.3503937007873936
 31
0.0
  0
LINE
  5
459
330
A
100
AcDbEntity
  8
PLB-050-30Tw~
  6
Continuous
 62
   148
370
    25
390
1D
100
AcDbLine
 10
-9.53419712291597
 20
1.927487457983855
 30
0.0
 11
-9.463403338268474
 21
1.927487457983855
 31
0.0
  0
LINE
  5
45A
330
A
100
AcDbEntity
  8
PLB-050-30Tw~
  6
Continuous
 62
   148
370
    25
390
1D
100
AcDbLine
 10
-9.533840012310236
 20
0.0729745923018113
 30
0.0
 11
-9.46304622766274
 21
0.0729745923018125
 31
0.0
  0
LINE
  5
45B
330
A
100
AcDbEntity
  8
PLB-050-30Tw~
  6
Continuous
 62
   148
370
    25
390
1D
100
AcDbLine
 10
-6.943725936309256
 20
0.0729765135683062
 30
0.0
 11
-6.87278743749218
 21
0.0729765135683062
 31
0.0
  0
LINE
  5
45C
330
A
100
AcDbEntity
  8
PLB-050-30Tw~
  6
Continuous
 62
   148
370
    25
390
1D
100
AcDbLine
 10
-6.943725936309256
 20
1.927489379250346
 30
0.0
 11
-6.87278743749218
 21
1.927489379250346
 31
0.0
  0
SPLINE
  5
45D
330
A
100
AcDbEntity
  8
PLB-050-30Tw~
  6
Continuous
 62
   148
370
    25
390
1D
100
AcDbSpline
210
0.0
220
0.0
230
1.0
 70
     8
 71
     2
 72
   112
 73
   109
 74
     0
 42
0.000001
 43
0.000001
 40
0.0
 40
0.0
 40
0.0
 40
1.0
 40
2.0
 40
3.0
 40
4.0
 40
5.0
 40
6.0
 40
7.0
 40
8.0
 40
9.0
 40
10.0
 40
11.0
 40
12.0
 40
13.0
 40
14.0
 40
15.0
 40
16.0
 40
17.0
 40
18.0
 40
19.0
 40
20.0
 40
21.0
 40
22.0
 40
23.0
 40
24.0
 40
25.0
 40
26.0
 40
27.0
 40
28.0
 40
29.0
 40
30.0
 40
31.0
 40
32.0
 40
33.0
 40
34.0
 40
35.0
 40
36.0
 40
37.0
 40
38.0
 40
39.0
 40
40.0
 40
41.0
 40
42.0
 40
43.0
 40
44.0
 40
45.0
 40
46.0
 40
47.0
 40
48.0
 40
49.0
 40
50.0
 40
51.0
 40
52.0
 40
53.0
 40
54.0
 40
55.0
 40
56.0
 40
57.0
 40
58.0
 40
59.0
 40
60.0
 40
61.0
 40
62.0
 40
63.0
 40
64.0
 40
65.0
 40
66.0
 40
67.0
 40
68.0
 40
69.0
 40
70.0
 40
71.0
 40
72.0
 40
73.0
 40
74.0
 40
75.0
 40
76.0
 40
77.0
 40
78.0
 40
79.0
 40
80.0
 40
81.0
 40
82.0
 40
83.0
 40
84.0
 40
85.0
 40
86.0
 40
87.0
 40
88.0
 40
89.0
 40
90.0
 40
91.0
 40
92.0
 40
93.0
 40
94.0
 40
95.0
 40
96.0
 40
97.0
 40
98.0
 40
99.0
 40
100.0
 40
101.0
 40
102.0
 40
103.0
 40
104.0
 40
105.0
 40
105.0
 40
106.0
 40
106.0
 40
106.0
 10
-7.132700824054144
 20
2.630058927224193
 30
0.0
 10
-7.134235313899578
 20
2.628800442695513
 30
0.0
 10
-7.157121804943174
 20
2.609989146534341
 30
0.0
 10
-7.189551501154528
 20
2.581263745447177
 30
0.0
 10
-7.212397041918941
 20
2.559916906726889
 30
0.0
 10
-7.234463586305827
 20
2.538011506268463
 30
0.0
 10
-7.255655401073136
 20
2.515478741755354
 30
0.0
 10
-7.275876997815288
 20
2.492250896620602
 30
0.0
 10
-7.296223160910435
 20
2.466749723755365
 30
0.0
 10
-7.315220708641037
 20
2.440269609285042
 30
0.0
 10
-7.332041513230108
 20
2.41458732706708
 30
0.0
 10
-7.347880588866741
 20
2.388194904146205
 30
0.0
 10
-7.362815727275246
 20
2.361141044767038
 30
0.0
 10
-7.376924672484117
 20
2.333474349164504
 30
0.0
 10
-7.390285110885735
 20
2.3052433395951
 30
0.0
 10
-7.402974666435411
 20
2.276496482559002
 30
0.0
 10
-7.415070901558058
 20
2.247282207642175
 30
0.0
 10
-7.426651322170432
 20
2.217648922511939
 30
0.0
 10
-7.437793383651175
 20
2.187645023693864
 30
0.0
 10
-7.448574502799814
 20
2.157318905328736
 30
0.0
 10
-7.459072049077888
 20
2.126718959226182
 30
0.0
 10
-7.469363422493844
 20
2.095893597216065
 30
0.0
 10
-7.482843311205745
 20
2.054790330170691
 30
0.0
 10
-7.49715841031824
 20
2.010408661471853
 30
0.0
 10
-7.508939945167167
 20
1.972900964680729
 30
0.0
 10
-7.520260459588256
 20
1.935303574318801
 30
0.0
 10
-7.530935321030488
 20
1.897651143387209
 30
0.0
 10
-7.54078000759234
 20
1.859978282546521
 30
0.0
 10
-7.549609871846601
 20
1.822319478655429
 30
0.0
 10
-7.557240111347078
 20
1.78470908749811
 30
0.0
 10
-7.563485699906466
 20
1.747181335342599
 30
0.0
 10
-7.568159906794036
 20
1.70977090036484
 30
0.0
 10
-7.571079256083112
 20
1.672511160897204
 30
0.0
 10
-7.57205742335859
 20
1.635436380678733
 30
0.0
 10
-7.570906941444412
 20
1.598581062720199
 30
0.0
 10
-7.567441279134331
 20
1.561980252231696
 30
0.0
 10
-7.561649958030809
 20
1.526764257860472
 30
0.0
 10
-7.554429679633083
 20
1.496202554406817
 30
0.0
 10
-7.546563409018573
 20
1.469045043710158
 30
0.0
 10
-7.537537530317953
 20
1.442035672515156
 30
0.0
 10
-7.527588950033835
 20
1.415139335408058
 30
0.0
 10
-7.516953639147274
 20
1.38832094652445
 30
0.0
 10
-7.505867886585773
 20
1.361545421529082
 30
0.0
 10
-7.494565213281226
 20
1.334778916205051
 30
0.0
 10
-7.483283353945494
 20
1.307985889595302
 30
0.0
 10
-7.472258212326063
 20
1.281131582990999
 30
0.0
 10
-7.46172449868856
 20
1.254181674023767
 30
0.0
 10
-7.45191821601385
 20
1.227101195533582
 30
0.0
 10
-7.443075630731713
 20
1.199854980196635
 30
0.0
 10
-7.435433583715039
 20
1.172407629325214
 30
0.0
 10
-7.429229350757345
 20
1.144723662131188
 30
0.0
 10
-7.425680590845106
 20
1.122759248981489
 30
0.0
 10
-7.422481720257683
 20
1.096603005763678
 30
0.0
 10
-7.420814008392707
 20
1.060002349619776
 30
0.0
 10
-7.421463018750056
 20
1.023088059692377
 30
0.0
 10
-7.42399375993976
 20
0.9859308030404484
 30
0.0
 10
-7.427973742966088
 20
0.9486013880686693
 30
0.0
 10
-7.4329709210818
 20
0.9111709582847828
 30
0.0
 10
-7.438559222799348
 20
0.8737119919839115
 30
0.0
 10
-7.442859674626875
 20
0.8456277588204849
 30
0.0
 10
-7.447100635829427
 20
0.8176263736814531
 30
0.0
 10
-7.450979238754098
 20
0.7896567736523619
 30
0.0
 10
-7.454548823444804
 20
0.7618815263310855
 30
0.0
 10
-7.457275148875819
 20
0.7341589334828479
 30
0.0
 10
-7.459451920333
 20
0.7067191389528503
 30
0.0
 10
-7.46029235204737
 20
0.679385176692236
 30
0.0
 10
-7.460351534059767
 20
0.6523776587272135
 30
0.0
 10
-7.458572710840382
 20
0.625585517137454
 30
0.0
 10
-7.456694304037885
 20
0.6079120293423796
 30
0.0
 10
-7.45301381805451
 20
0.583380967656646
 30
0.0
 10
-7.445909057279843
 20
0.5528884189670001
 30
0.0
 10
-7.43692275886244
 20
0.5233672354969279
 30
0.0
 10
-7.42622174466406
 20
0.4941578446046058
 30
0.0
 10
-7.414105367306755
 20
0.4651782688067707
 30
0.0
 10
-7.400871677510828
 20
0.436346892675207
 30
0.0
 10
-7.386817901289884
 20
0.4075826120666559
 30
0.0
 10
-7.372240800762878
 20
0.3788047881405475
 30
0.0
 10
-7.357436927121705
 20
0.3499331034640496
 30
0.0
 10
-7.342702799740372
 20
0.320887387568489
 30
0.0
 10
-7.328335050586412
 20
0.2915874261301737
 30
0.0
 10
-7.314630589374574
 20
0.2619528602852575
 30
0.0
 10
-7.301886761703965
 20
0.2319028579847006
 30
0.0
 10
-7.290401768949758
 20
0.2013570209024935
 30
0.0
 10
-7.280322053025368
 20
0.1697546509213936
 30
0.0
 10
-7.273960038201033
 20
0.1444892958229586
 30
0.0
 10
-7.26807942542999
 20
0.1174193639320907
 30
0.0
 10
-7.262197337884168
 20
0.0807794501322782
 30
0.0
 10
-7.257858383802102
 20
0.0437162483932607
 30
0.0
 10
-7.254664185004608
 20
0.0064010907748872
 30
0.0
 10
-7.252222549158683
 20
-0.0309946258267986
 30
0.0
 10
-7.250642155926731
 20
-0.0590116716319201
 30
0.0
 10
-7.249096685441098
 20
-0.0868630794149167
 30
0.0
 10
-7.247355400125254
 20
-0.1145766713631529
 30
0.0
 10
-7.245434050059718
 20
-0.1419461434565167
 30
0.0
 10
-7.242861410003179
 20
-0.1690579257673208
 30
0.0
 10
-7.239899873903349
 20
-0.1956656717697076
 30
0.0
 10
-7.23582319678553
 20
-0.2218678995353207
 30
0.0
 10
-7.231153722896818
 20
-0.2474466857329114
 30
0.0
 10
-7.224900968080251
 20
-0.2724200634669954
 30
0.0
 10
-7.220164826406455
 20
-0.2886676507207149
 30
0.0
 10
-7.212154893014518
 20
-0.3124798449938019
 30
0.0
 10
-7.201970599456965
 20
-0.3352951491730061
 30
0.0
 10
-7.191961720148217
 20
-0.3548200132094978
 30
0.0
 10
-7.17722681206378
 20
-0.3780977548501991
 30
0.0
 10
-7.160333774432551
 20
-0.4004267011215525
 30
0.0
 10
-7.142755776085841
 20
-0.4204137920622445
 30
0.0
 10
-7.133968759241172
 20
-0.4293349399807183
 30
0.0
 10
-7.133336066176649
 20
-0.4299772909077029
 30
0.0
 10
-7.132700826989995
 20
-0.4306179657253435
 30
0.0
  0
LINE
  5
45E
330
A
100
AcDbEntity
  8
PLB-050-30Tw~
 62
   148
370
    25
390
1D
100
AcDbLine
 10
-7.25081105953943
 20
-2.149606299212603
 30
0.0
 11
-7.132700823318957
 21
-2.031496062992132
 31
0.0
  0
LINE
  5
45F
330
A
100
AcDbEntity
  8
PLB-050-30Tw~
 62
   148
370
    25
390
1D
100
AcDbLine
 10
-7.25081105953943
 20
4.149606299212595
 30
0.0
 11
-7.132700823318957
 21
4.031496062992123
 31
0.0
  0
ARC
  5
460
330
A
100
AcDbEntity
  8
PLB-050-30Tw~
 62
   148
370
    25
390
1D
100
AcDbCircle
 10
-7.219316487490357
 20
-0.0727181724646324
 30
0.0
 40
0.1749542687530682
100
AcDbArc
 50
266.2043719857003
 51
105.0283650334382
  0
ARC
  5
461
330
A
100
AcDbEntity
  8
PLB-050-30Tw~
 62
   148
370
    25
390
1D
100
AcDbCircle
 10
-9.18781278708737
 20
2.072950158240709
 30
0.0
 40
0.1749542687530689
100
AcDbArc
 50
104.4927409092422
 51
325.4750082956384
  0
ARC
  5
462
330
A
100
AcDbEntity
  8
PLB-050-30Tw~
 62
   148
370
    25
390
1D
100
AcDbCircle
 10
-9.187455676481637
 20
-0.0727191330978781
 30
0.0
 40
0.1749542687530701
100
AcDbArc
 50
23.45259618700853
 51
269.697204660393
  0
LINE
  5
463
330
A
100
AcDbEntity
  8
PLB-050-30Tw~
 62
   148
370
    25
390
1D
100
AcDbLine
 10
-7.570055232675617
 20
1.590551181102362
 30
0.0
 11
-6.951527594972486
 21
1.590551181102364
 31
0.0
  0
LINE
  5
464
330
A
100
AcDbEntity
  8
PLB-050-30Tw~
 62
   148
370
    25
390
1D
100
AcDbLine
 10
-7.387683485887228
 20
0.4094488188976321
 30
0.0
 11
-6.951527594972486
 21
0.4094488188976321
 31
0.0
  0
LINE
  5
465
330
A
100
AcDbEntity
  8
PLB-050-30Tw~
 62
   148
370
    25
390
1D
100
AcDbLine
 10
-7.447661453240218
 20
4.582677165354328
 30
0.0
 11
-7.447661453240217
 21
2.159796153704756
 31
0.0
  0
LINE
  5
466
330
A
100
AcDbEntity
  8
PLB-050-30Tw~
 62
   148
370
    25
390
1D
100
AcDbLine
 10
-9.337425232767774
 20
4.582677165354328
 30
0.0
 11
-9.337425232767774
 21
2.349131561549265
 31
0.0
  0
LINE
  5
467
330
A
100
AcDbEntity
  8
PLB-050-30Tw~
 62
   148
370
    25
390
1D
100
AcDbLine
 10
-9.612580169790544
 20
0.279527559055112
 30
0.0
 11
-8.81076475645712
 21
0.2795275590551143
 31
0.0
  0
LINE
  5
468
330
A
100
AcDbEntity
  8
PLB-050-30Tw~
 62
   148
370
    25
390
1D
100
AcDbLine
 10
-7.32276143420665
 20
0.2795275590551154
 30
0.0
 11
-6.794047280011865
 21
0.2795275590551165
 31
0.0
  0
LINE
  5
469
330
A
100
AcDbEntity
  8
PLB-050-30Tw~
  6
Continuous
 62
   148
370
    25
390
1D
100
AcDbLine
 10
-9.612937280396281
 20
2.338582677165352
 30
0.0
 11
-9.612937280396281
 21
1.807317639316063
 31
0.0
  0
LINE
  5
46A
330
A
100
AcDbEntity
  8
PLB-050-30Tw~
  6
Continuous
 62
   148
370
    25
390
1D
100
AcDbLine
 10
-9.613015783948878
 20
0.1931444109696015
 30
0.0
 11
-9.613015783948878
 21
-0.3385826771653578
 31
0.0
  0
POLYLINE
  5
46B
330
A
100
AcDbEntity
  8
PLB-050-30Tw~
  6
Continuous
 62
   148
370
    25
390
1D
100
AcDb2dPolyline
 66
     1
 10
0.0
 20
0.0
 30
0.0
 70
     1
 75
     5
  0
VERTEX
  5
46C
330
46B
100
AcDbEntity
  8
PLB-050-30Tw~
  6
Continuous
 62
   148
370
    25
390
1D
100
AcDbVertex
100
AcDb2dVertex
 10
-6.87278743749218
 20
1.807319560582555
 30
0.0
  0
VERTEX
  5
46D
330
46B
100
AcDbEntity
  8
PLB-050-30Tw~
  6
Continuous
 62
   148
370
    25
390
1D
100
AcDbVertex
100
AcDb2dVertex
 10
-6.87278743749218
 20
1.927489379250346
 30
0.0
  0
VERTEX
  5
46E
330
46B
100
AcDbEntity
  8
PLB-050-30Tw~
  6
Continuous
 62
   148
370
    25
390
1D
100
AcDbVertex
100
AcDb2dVertex
 10
-6.943725936309256
 20
1.927489379250346
 30
0.0
  0
VERTEX
  5
46F
330
46B
100
AcDbEntity
  8
PLB-050-30Tw~
  6
Continuous
 62
   148
370
    25
390
1D
100
AcDbVertex
100
AcDb2dVertex
 10
-6.943653579224462
 20
1.807319560582555
 30
0.0
  0
VERTEX
  5
470
330
46B
100
AcDbEntity
  8
PLB-050-30Tw~
  6
Continuous
 62
   148
370
    25
390
1D
100
AcDbVertex
100
AcDb2dVertex
 10
-6.943653579224462
 20
1.7679494818424
 30
0.0
  0
VERTEX
  5
471
330
46B
100
AcDbEntity
  8
PLB-050-30Tw~
  6
Continuous
 62
   148
370
    25
390
1D
100
AcDbVertex
100
AcDb2dVertex
 10
-6.87278743749218
 20
1.7679494818424
 30
0.0
  0
SEQEND
  5
472
330
46B
100
AcDbEntity
  8
PLB-050-30Tw~
  6
Continuous
 62
   148
370
    25
390
1D
  0
POLYLINE
  5
474
330
A
100
AcDbEntity
  8
PLB-050-30Tw~
  6
Continuous
 62
   148
370
    25
390
1D
100
AcDb2dPolyline
 66
     1
 10
0.0
 20
0.0
 30
0.0
 70
     1
 75
     5
  0
VERTEX
  5
475
330
474
100
AcDbEntity
  8
PLB-050-30Tw~
  6
Continuous
 62
   148
370
    25
390
1D
100
AcDbVertex
100
AcDb2dVertex
 10
-6.87278743749218
 20
0.1931463322360941
 30
0.0
  0
VERTEX
  5
476
330
474
100
AcDbEntity
  8
PLB-050-30Tw~
  6
Continuous
 62
   148
370
    25
390
1D
100
AcDbVertex
100
AcDb2dVertex
 10
-6.87278743749218
 20
0.2325164109762516
 30
0.0
  0
VERTEX
  5
477
330
474
100
AcDbEntity
  8
PLB-050-30Tw~
  6
Continuous
 62
   148
370
    25
390
1D
100
AcDbVertex
100
AcDb2dVertex
 10
-6.943653579224462
 20
0.2325164109762516
 30
0.0
  0
VERTEX
  5
478
330
474
100
AcDbEntity
  8
PLB-050-30Tw~
  6
Continuous
 62
   148
370
    25
390
1D
100
AcDbVertex
100
AcDb2dVertex
 10
-6.943725936309256
 20
0.193146332236093
 30
0.0
  0
VERTEX
  5
479
330
474
100
AcDbEntity
  8
PLB-050-30Tw~
  6
Continuous
 62
   148
370
    25
390
1D
100
AcDbVertex
100
AcDb2dVertex
 10
-6.943725936309256
 20
0.0729765135683062
 30
0.0
  0
VERTEX
  5
47A
330
474
100
AcDbEntity
  8
PLB-050-30Tw~
  6
Continuous
 62
   148
370
    25
390
1D
100
AcDbVertex
100
AcDb2dVertex
 10
-6.87278743749218
 20
0.0729765135683062
 30
0.0
  0
SEQEND
  5
47B
330
474
100
AcDbEntity
  8
PLB-050-30Tw~
  6
Continuous
 62
   148
370
    25
390
1D
  0
POLYLINE
  5
47D
330
A
100
AcDbEntity
  8
PLB-050-30Tw~
  6
Continuous
 62
   148
370
    25
390
1D
100
AcDb2dPolyline
 66
     1
 10
0.0
 20
0.0
 30
0.0
 70
     1
 75
     5
  0
VERTEX
  5
47E
330
47D
100
AcDbEntity
  8
PLB-050-30Tw~
  6
Continuous
 62
   148
370
    25
390
1D
100
AcDbVertex
100
AcDb2dVertex
 10
-9.53419712291597
 20
1.767947560575906
 30
0.0
  0
VERTEX
  5
47F
330
47D
100
AcDbEntity
  8
PLB-050-30Tw~
  6
Continuous
 62
   148
370
    25
390
1D
100
AcDbVertex
100
AcDb2dVertex
 10
-9.463330981183685
 20
1.767947560575906
 30
0.0
  0
VERTEX
  5
480
330
47D
100
AcDbEntity
  8
PLB-050-30Tw~
  6
Continuous
 62
   148
370
    25
390
1D
100
AcDbVertex
100
AcDb2dVertex
 10
-9.463403338268474
 20
1.807317639316061
 30
0.0
  0
VERTEX
  5
481
330
47D
100
AcDbEntity
  8
PLB-050-30Tw~
  6
Continuous
 62
   148
370
    25
390
1D
100
AcDbVertex
100
AcDb2dVertex
 10
-9.463403338268474
 20
1.927487457983855
 30
0.0
  0
VERTEX
  5
482
330
47D
100
AcDbEntity
  8
PLB-050-30Tw~
  6
Continuous
 62
   148
370
    25
390
1D
100
AcDbVertex
100
AcDb2dVertex
 10
-9.53419712291597
 20
1.927487457983855
 30
0.0
  0
VERTEX
  5
483
330
47D
100
AcDbEntity
  8
PLB-050-30Tw~
  6
Continuous
 62
   148
370
    25
390
1D
100
AcDbVertex
100
AcDb2dVertex
 10
-9.53419712291597
 20
1.807317639316063
 30
0.0
  0
SEQEND
  5
484
330
47D
100
AcDbEntity
  8
PLB-050-30Tw~
  6
Continuous
 62
   148
370
    25
390
1D
  0
POLYLINE
  5
486
330
A
100
AcDbEntity
  8
PLB-050-30Tw~
  6
Continuous
 62
   148
370
    25
390
1D
100
AcDb2dPolyline
 66
     1
 10
0.0
 20
0.0
 30
0.0
 70
     1
 75
     5
  0
VERTEX
  5
487
330
486
100
AcDbEntity
  8
PLB-050-30Tw~
  6
Continuous
 62
   148
370
    25
390
1D
100
AcDbVertex
100
AcDb2dVertex
 10
-9.533840012310236
 20
0.0729745923018113
 30
0.0
  0
VERTEX
  5
488
330
486
100
AcDbEntity
  8
PLB-050-30Tw~
  6
Continuous
 62
   148
370
    25
390
1D
100
AcDbVertex
100
AcDb2dVertex
 10
-9.46304622766274
 20
0.0729745923018113
 30
0.0
  0
VERTEX
  5
489
330
486
100
AcDbEntity
  8
PLB-050-30Tw~
  6
Continuous
 62
   148
370
    25
390
1D
100
AcDbVertex
100
AcDb2dVertex
 10
-9.462973870577951
 20
0.1931444109696015
 30
0.0
  0
VERTEX
  5
48A
330
486
100
AcDbEntity
  8
PLB-050-30Tw~
  6
Continuous
 62
   148
370
    25
390
1D
100
AcDbVertex
100
AcDb2dVertex
 10
-9.462973870577951
 20
0.232514489709759
 30
0.0
  0
VERTEX
  5
48B
330
486
100
AcDbEntity
  8
PLB-050-30Tw~
  6
Continuous
 62
   148
370
    25
390
1D
100
AcDbVertex
100
AcDb2dVertex
 10
-9.533840012310236
 20
0.232514489709759
 30
0.0
  0
VERTEX
  5
48C
330
486
100
AcDbEntity
  8
PLB-050-30Tw~
  6
Continuous
 62
   148
370
    25
390
1D
100
AcDbVertex
100
AcDb2dVertex
 10
-9.533840012310236
 20
0.1931444109696015
 30
0.0
  0
SEQEND
  5
48D
330
486
100
AcDbEntity
  8
PLB-050-30Tw~
  6
Continuous
 62
   148
370
    25
390
1D
  0
LINE
  5
48F
330
A
100
AcDbEntity
  8
PLB-050-30Tw~
 62
   148
370
    25
390
1D
100
AcDbLine
 10
-9.613015783948878
 20
3.992125984251972
 30
0.0
 11
-9.613015783948887
 21
2.338582677165352
 31
0.0
  0
LINE
  5
490
330
A
100
AcDbEntity
  8
PLB-050-30Tw~
 62
   148
370
    25
390
1D
100
AcDbLine
 10
-9.613015783948878
 20
-0.3385826771653578
 30
0.0
 11
-9.613015783948887
 21
-1.992125984251974
 31
0.0
  0
SPLINE
  5
491
330
A
100
AcDbEntity
  8
PLB-050-30Tw~
  6
Continuous
 62
   148
370
    25
390
1D
100
AcDbSpline
210
0.0
220
0.0
230
1.0
 70
     8
 71
     2
 72
   107
 73
   104
 74
     0
 42
0.000001
 43
0.000001
 40
0.0
 40
0.0
 40
0.0
 40
1.0
 40
2.0
 40
3.0
 40
4.0
 40
5.0
 40
6.0
 40
7.0
 40
8.0
 40
9.0
 40
10.0
 40
11.0
 40
12.0
 40
13.0
 40
14.0
 40
15.0
 40
16.0
 40
17.0
 40
18.0
 40
19.0
 40
20.0
 40
21.0
 40
22.0
 40
23.0
 40
24.0
 40
25.0
 40
26.0
 40
27.0
 40
28.0
 40
29.0
 40
30.0
 40
31.0
 40
32.0
 40
33.0
 40
34.0
 40
35.0
 40
36.0
 40
37.0
 40
38.0
 40
39.0
 40
40.0
 40
41.0
 40
42.0
 40
43.0
 40
44.0
 40
45.0
 40
46.0
 40
47.0
 40
48.0
 40
49.0
 40
50.0
 40
51.0
 40
52.0
 40
53.0
 40
54.0
 40
55.0
 40
56.0
 40
57.0
 40
58.0
 40
59.0
 40
60.0
 40
61.0
 40
62.0
 40
63.0
 40
64.0
 40
65.0
 40
66.0
 40
67.0
 40
68.0
 40
69.0
 40
70.0
 40
71.0
 40
72.0
 40
73.0
 40
74.0
 40
75.0
 40
76.0
 40
77.0
 40
78.0
 40
79.0
 40
80.0
 40
81.0
 40
82.0
 40
83.0
 40
84.0
 40
85.0
 40
86.0
 40
87.0
 40
88.0
 40
89.0
 40
90.0
 40
91.0
 40
92.0
 40
93.0
 40
94.0
 40
95.0
 40
96.0
 40
97.0
 40
98.0
 40
99.0
 40
100.0
 40
100.0
 40
101.0
 40
101.0
 40
101.0
 10
-9.61301578420738
 20
2.491992974100087
 30
0.0
 10
-9.59062305054023
 20
2.482490854097038
 30
0.0
 10
-9.554859759738564
 20
2.46721350113956
 30
0.0
 10
-9.522014906459777
 20
2.452965712000197
 30
0.0
 10
-9.484747557296565
 20
2.436026153309586
 30
0.0
 10
-9.452632334044356
 20
2.420296236189564
 30
0.0
 10
-9.430096241279276
 20
2.408428335244801
 30
0.0
 10
-9.403489757085811
 20
2.393649981883488
 30
0.0
 10
-9.377804463152367
 20
2.37747267648668
 30
0.0
 10
-9.35273621804287
 20
2.360561851733497
 30
0.0
 10
-9.322551412266776
 20
2.336774951265362
 30
0.0
 10
-9.30198740382009
 20
2.318003047696376
 30
0.0
 10
-9.288266239871497
 20
2.304652392816762
 30
0.0
 10
-9.27488476369462
 20
2.290893966402513
 30
0.0
 10
-9.261793821979975
 20
2.276795965643127
 30
0.0
 10
-9.244136032545276
 20
2.257012168882096
 30
0.0
 10
-9.211276201632487
 20
2.218586005898297
 30
0.0
 10
-9.166970400340375
 20
2.163411473927731
 30
0.0
 10
-9.122715396241636
 20
2.103929390933046
 30
0.0
 10
-9.08092054926978
 20
2.042811580120618
 30
0.0
 10
-9.041848417531071
 20
1.980055317863241
 30
0.0
 10
-9.005761877766991
 20
1.915657793874349
 30
0.0
 10
-8.981140514479238
 20
1.866125255021188
 30
0.0
 10
-8.954172071214678
 20
1.808157644003339
 30
0.0
 10
-8.926000826426801
 20
1.735252678235327
 30
0.0
 10
-8.905373903959113
 20
1.673276488588287
 30
0.0
 10
-8.88794582544106
 20
1.61138571272601
 30
0.0
 10
-8.876093612412316
 20
1.560607894626022
 30
0.0
 10
-8.867843501648927
 20
1.520441171593444
 30
0.0
 10
-8.860527873165754
 20
1.480086448587033
 30
0.0
 10
-8.854009639636399
 20
1.439573484709339
 30
0.0
 10
-8.848151860540298
 20
1.398931953244473
 30
0.0
 10
-8.842817659478914
 20
1.358191514701426
 30
0.0
 10
-8.83787021171151
 20
1.317381824502573
 30
0.0
 10
-8.833172730536363
 20
1.276532536949655
 30
0.0
 10
-8.828588453197636
 20
1.235673307192036
 30
0.0
 10
-8.823980628697544
 20
1.194833788456219
 30
0.0
 10
-8.819212498301367
 20
1.154043640901709
 30
0.0
 10
-8.8141473062433
 20
1.113332489617365
 30
0.0
 10
-8.808648184624829
 20
1.072730094327834
 30
0.0
 10
-8.802539582025974
 20
1.03200580886127
 30
0.0
 10
-8.796718854575573
 20
0.9974693705028036
 30
0.0
 10
-8.79166505202543
 20
0.969280815708698
 30
0.0
 10
-8.786405734616983
 20
0.9411090119449786
 30
0.0
 10
-8.78102563333607
 20
0.9129158692425691
 30
0.0
 10
-8.775609463718377
 20
0.8846632965217694
 30
0.0
 10
-8.770241697930349
 20
0.8563132457496928
 30
0.0
 10
-8.762580243747609
 20
0.8147436741237688
 30
0.0
 10
-8.755603776664653
 20
0.7724441794916711
 30
0.0
 10
-8.751128552880635
 20
0.7426521159261961
 30
0.0
 10
-8.747158314795005
 20
0.7127674037961452
 30
0.0
 10
-8.74378862315096
 20
0.6828252185172256
 30
0.0
 10
-8.741115072212134
 20
0.6528607098974464
 30
0.0
 10
-8.73923331336535
 20
0.6229090015284301
 30
0.0
 10
-8.738239068001334
 20
0.5930051957887138
 30
0.0
 10
-8.73822814314773
 20
0.5631843839762163
 30
0.0
 10
-8.73929644694802
 20
0.53348166331725
 30
0.0
 10
-8.741540001686142
 20
0.5039321621826509
 30
0.0
 10
-8.745054950979089
 20
0.4745710741738665
 30
0.0
 10
-8.749937564984632
 20
0.4454337022479883
 30
0.0
 10
-8.756831778341192
 20
0.414062262584497
 30
0.0
 10
-8.767146743425368
 20
0.3780967972025499
 30
0.0
 10
-8.780992987085936
 20
0.3403911303491186
 30
0.0
 10
-8.79753956453305
 20
0.3037628599492646
 30
0.0
 10
-8.812027911536397
 20
0.2770990498068145
 30
0.0
 10
-8.824831446419836
 20
0.2555120972609517
 30
0.0
 10
-8.841126996068677
 20
0.2307072502060351
 30
0.0
 10
-8.858302110735307
 20
0.2065053158641857
 30
0.0
 10
-8.87720839142627
 20
0.1812608814478796
 30
0.0
 10
-8.898590290956278
 20
0.153903804615119
 30
0.0
 10
-8.921245807594953
 20
0.1258730759127012
 30
0.0
 10
-8.944185600621623
 20
0.0980712502416336
 30
0.0
 10
-8.96723786696979
 20
0.070355429185031
 30
0.0
 10
-8.990230772764791
 20
0.042582698955701
 30
0.0
 10
-9.012992577627752
 20
0.0146112682519025
 30
0.0
 10
-9.04666482449462
 20
-0.0280524145261657
 30
0.0
 10
-9.092757139329674
 20
-0.0912911449240052
 30
0.0
 10
-9.133114306604607
 20
-0.1525758616545697
 30
0.0
 10
-9.171175450193452
 20
-0.2154198711678438
 30
0.0
 10
-9.19953353571825
 20
-0.2685794972722695
 30
0.0
 10
-9.214424574471929
 20
-0.2978101335869313
 30
0.0
 10
-9.227426135585784
 20
-0.3238934517349759
 30
0.0
 10
-9.240311394689467
 20
-0.3499543143172247
 30
0.0
 10
-9.253656797846102
 20
-0.3768593407832574
 30
0.0
 10
-9.267600099984252
 20
-0.4046079930830993
 30
0.0
 10
-9.281802341765053
 20
-0.432236649623795
 30
0.0
 10
-9.296383874676044
 20
-0.4597074506373414
 30
0.0
 10
-9.311465103342961
 20
-0.4869823741353692
 30
0.0
 10
-9.327165265653212
 20
-0.5140244117338288
 30
0.0
 10
-9.347810865842781
 20
-0.5476488373175226
 30
0.0
 10
-9.37511310794564
 20
-0.5881367740430907
 30
0.0
 10
-9.397662452621937
 20
-0.6181795047065546
 30
0.0
 10
-9.421004435359123
 20
-0.6475715862949949
 30
0.0
 10
-9.446037894934722
 20
-0.6754459955112353
 30
0.0
 10
-9.471845303835117
 20
-0.7023549030508168
 30
0.0
 10
-9.499444867482012
 20
-0.7272484090466894
 30
0.0
 10
-9.51839804771901
 20
-0.7430297023223448
 30
0.0
 10
-9.542811134802962
 20
-0.7617044612675141
 30
0.0
 10
-9.568162933206398
 20
-0.7785432347169906
 30
0.0
 10
-9.589533867146862
 20
-0.7913422039422955
 30
0.0
 10
-9.60656111151939
 20
-0.8005379212910823
 30
0.0
 10
-9.612297958302836
 20
-0.8034968605109997
 30
0.0
 10
-9.61265687118292
 20
-0.8036817464359671
 30
0.0
 10
-9.613015784063007
 20
-0.8038666323609345
 30
0.0
  0
LINE
  5
492
330
A
100
AcDbEntity
  8
PLB-050-30Tw~
  6
STYLE_01
 62
     5
370
    15
390
1D
100
AcDbLine
 10
-9.384663180788158
 20
2.072950158240709
 30
0.0
 11
-9.101535202930608
 21
2.072950158240709
 31
0.0
  0
LINE
  5
493
330
A
100
AcDbEntity
  8
PLB-050-30Tw~
  6
STYLE_01
 62
     5
370
    15
390
1D
100
AcDbLine
 10
-9.18781278708737
 20
2.189354770031855
 30
0.0
 11
-9.18781278708737
 21
1.876099764539921
 31
0.0
  0
LINE
  5
494
330
A
100
AcDbEntity
  8
PLB-050-30Tw~
  6
STYLE_01
 62
     5
370
    15
390
1D
100
AcDbLine
 10
-7.416166881191145
 20
2.072951118873952
 30
0.0
 11
-7.02246609378957
 21
2.072951118873952
 31
0.0
  0
LINE
  5
495
330
A
100
AcDbEntity
  8
PLB-050-30Tw~
  6
STYLE_01
 62
     5
370
    15
390
1D
100
AcDbLine
 10
-7.219316487490357
 20
2.269801512574742
 30
0.0
 11
-7.219316487490357
 21
1.876100725173165
 31
0.0
  0
LINE
  5
496
330
A
100
AcDbEntity
  8
PLB-050-30Tw~
  6
STYLE_01
 62
   148
370
    25
390
1D
100
AcDbLine
 10
-7.24987160419438
 20
-0.0727181724646324
 30
0.0
 11
-7.02246609378957
 21
-0.0727181724646324
 31
0.0
  0
LINE
  5
497
330
A
100
AcDbEntity
  8
PLB-050-30Tw~
  6
STYLE_01
 62
   148
370
    25
390
1D
100
AcDbLine
 10
-7.219316487490357
 20
0.1241322212361551
 30
0.0
 11
-7.219316487490357
 21
-0.2695685661654198
 31
0.0
  0
LINE
  5
498
330
A
100
AcDbEntity
  8
PLB-050-30Tw~
  6
STYLE_01
 62
   148
370
    25
390
1D
100
AcDbLine
 10
-9.384306070182426
 20
-0.0727191330978781
 30
0.0
 11
-9.079088226380055
 21
-0.0727191330978781
 31
0.0
  0
LINE
  5
499
330
A
100
AcDbEntity
  8
PLB-050-30Tw~
  6
STYLE_01
 62
   148
370
    25
390
1D
100
AcDbLine
 10
-9.187455676481637
 20
0.1241312606029093
 30
0.0
 11
-9.187455676481637
 21
-0.2459561174047888
 31
0.0
  0
LINE
  5
49A
330
A
100
AcDbEntity
  8
PLB-050-30Tw~
  6
Continuous
 62
   148
370
    25
390
1D
100
AcDbLine
 10
-9.494675160553623
 20
4.110466607647223
 30
0.0
 11
-9.494675160553625
 21
4.643874955293682
 31
0.0
  0
LINE
  5
49B
330
A
100
AcDbEntity
  8
PLB-050-30Tw~
  6
Continuous
 62
   148
370
    25
390
1D
100
AcDbLine
 10
-9.553730278663865
 20
4.051411489536982
 30
0.0
 11
-9.553730278663856
 21
4.643874955293682
 31
0.0
  0
LINE
  5
49C
330
A
100
AcDbEntity
  8
PLB-050-30Tw~
  6
Continuous
 62
   148
370
    25
390
1D
100
AcDbLine
 10
-9.494675160553603
 20
4.643874955293679
 30
0.0
 11
-9.55373027866386
 21
4.643874955293682
 31
0.0
  0
LINE
  5
49D
330
A
100
AcDbEntity
  8
PLB-050-30Tw~
  6
Continuous
 62
   148
370
    25
390
1D
100
AcDbLine
 10
-9.494675160553623
 20
4.760396871088336
 30
0.0
 11
-9.553730278663865
 21
4.760396871088334
 31
0.0
  0
LINE
  5
49E
330
A
100
AcDbEntity
  8
PLB-050-30Tw~
  6
Continuous
 62
   148
370
    25
390
1D
100
AcDbLine
 10
-9.494675160553623
 20
5.030237097139112
 30
0.0
 11
-9.553730278663862
 21
5.030237097139112
 31
0.0
  0
LINE
  5
49F
330
A
100
AcDbEntity
  8
PLB-050-30Tw~
  6
Continuous
 62
   148
370
    25
390
1D
100
AcDbLine
 10
-9.553730278663865
 20
4.760396871088334
 30
0.0
 11
-9.553730278663862
 21
5.030237097139112
 31
0.0
  0
LINE
  5
4A0
330
A
100
AcDbEntity
  8
PLB-050-30Tw~
  6
Continuous
 62
   148
370
    25
390
1D
100
AcDbLine
 10
-9.494675160553623
 20
4.760396871088334
 30
0.0
 11
-9.494675160553626
 21
5.030237097139117
 31
0.0
  0
LINE
  5
4A1
330
A
100
AcDbEntity
  8
PLB-050-30Tw~
  6
Continuous
 62
   148
370
    25
390
1D
100
AcDbLine
 10
-9.504517680238664
 20
5.030237097139112
 30
0.0
 11
-9.504517680238658
 21
5.201953604625969
 31
0.0
  0
LINE
  5
4A2
330
A
100
AcDbEntity
  8
PLB-050-30Tw~
  6
Continuous
 62
   148
370
    25
390
1D
100
AcDbLine
 10
-9.543887758978824
 20
5.030237097139117
 30
0.0
 11
-9.54388775897882
 21
5.201953604625971
 31
0.0
  0
LINE
  5
4A3
330
A
100
AcDbEntity
  8
PLB-050-30Tw~
  6
Continuous
 62
   148
370
    25
390
1D
100
AcDbLine
 10
-9.504517680238658
 20
5.201953604625969
 30
0.0
 11
-9.54388775897882
 21
5.201953604625971
 31
0.0
  0
LINE
  5
4A4
330
A
100
AcDbEntity
  8
PLB-050-30Tw~
 62
   148
370
    25
390
1D
100
AcDbLine
 10
-6.778291611104942
 20
1.807317639316144
 30
0.0
 11
-6.778291611104938
 21
1.649606299212672
 31
0.0
  0
LINE
  5
4A5
330
A
100
AcDbEntity
  8
PLB-050-30Tw~
 62
   148
370
    25
390
1D
100
AcDbLine
 10
-6.777934500499205
 20
0.3503937007873142
 30
0.0
 11
-6.777934500499209
 21
0.1931444109695232
 31
0.0
  0
MTEXT
  5
4A6
330
A
100
AcDbEntity
  8
None
 62
     7
390
1D
100
AcDbMText
 10
-13.01847031445465
 20
9.042719953406747
 30
0.0
 40
0.4483305865836538
 41
0.0
 46
0.0
 71
     1
 72
     1
  1
MAGNETIC PARTICLE BRAKE  PLB-50
  7
Helvetica
 73
     1
 44
0.8397955333929318
  0
DIMENSION
  5
4A7
330
A
100
AcDbEntity
  8
Dimension
  6
Continuous
 62
     5
370
    15
390
1D
100
AcDbDimension
  2
*D1
 10
-7.447661453240217
 20
-3.0
 30
0.0
 11
-6.600000000000001
 21
-2.9212598425196
 31
0.0
 70
   128
 71
     5
 42
-1.0
 73
     0
 74
     0
 75
     0
  3
PLACID-1
100
AcDbAlignedDimension
 13
-7.132700823318957
 23
-2.031496062992132
 33
0.0
 14
-7.447661453240217
 24
-2.582677165354335
 34
0.0
100
AcDbRotatedDimension
1001
ACAD
1000
DSTYLE
1002
{
1070
   279
1070
     2
1070
   340
1005
69
1070
   174
1070
     0
1070
   147
1040
0.0787401574804
1002
}
  0
DIMENSION
  5
4A8
330
A
100
AcDbEntity
  8
Dimension
  6
Continuous
 62
     5
370
    15
390
1D
100
AcDbDimension
  2
*D2
 10
-9.613015783948887
 20
-3.000000000000001
 30
0.0
 11
-10.2
 21
-2.921259842519601
 31
0.0
 70
   128
 71
     5
 42
-1.0
 73
     0
 74
     0
 75
     0
  3
PLACID-1
100
AcDbAlignedDimension
 13
-9.337425232767774
 23
-2.582677165354334
 33
0.0
 14
-9.613015783948887
 24
-1.992125984251974
 34
0.0
100
AcDbRotatedDimension
1001
ACAD
1000
DSTYLE
1002
{
1070
   279
1070
     2
1070
   340
1005
69
1070
   174
1070
     0
1070
   147
1040
0.0787401574804
1002
}
  0
DIMENSION
  5
4A9
330
A
100
AcDbEntity
  8
Dimension
  6
Continuous
 62
     5
370
    15
390
1D
100
AcDbDimension
  2
*D3
 10
-9.337425232767785
 20
-3.566929133858268
 30
0.0
 11
-8.392543343004
 21
-3.488188976377868
 31
0.0
 70
   128
 71
     5
 42
-1.0
 73
     0
 74
     0
 75
     0
  3
PLACID-1
100
AcDbAlignedDimension
 13
-7.447661453240217
 23
-2.582677165354335
 33
0.0
 14
-9.337425232767785
 24
-2.582677165354334
 34
0.0
100
AcDbRotatedDimension
1001
ACAD
1000
DSTYLE
1002
{
1070
   271
1070
     2
1070
   279
1070
     2
1070
   340
1005
69
1070
   147
1040
0.0787401574804
1002
}
  0
CIRCLE
  5
4AA
330
A
100
AcDbEntity
  8
PLB-050-30Tw~
  6
Continuous
 62
   148
370
    25
390
1D
100
AcDbCircle
 10
0.0
 20
0.9999999999999999
 30
0.0
 40
3.149606299212596
  0
CIRCLE
  5
4AB
330
A
100
AcDbEntity
  8
PLB-050-30Tw~
  6
Continuous
 62
   148
370
    25
390
1D
100
AcDbCircle
 10
0.0
 20
-2.444881889763783
 30
0.0
 40
0.1574803149606299
  0
POLYLINE
  5
4AC
330
A
100
AcDbEntity
  8
PLB-050-30Tw~
  6
Continuous
 62
   148
370
    25
390
1D
100
AcDb2dPolyline
 66
     1
 10
0.0
 20
0.0
 30
0.0
 70
     1
 75
     5
  0
VERTEX
  5
4AD
330
4AC
100
AcDbEntity
  8
PLB-050-30Tw~
  6
Continuous
 62
   148
370
    25
390
1D
100
AcDbVertex
100
AcDb2dVertex
 10
0.0
 20
-2.360996731900373
 30
0.0
  0
VERTEX
  5
4AE
330
4AC
100
AcDbEntity
  8
PLB-050-30Tw~
  6
Continuous
 62
   148
370
    25
390
1D
100
AcDbVertex
100
AcDb2dVertex
 10
-0.0726466777101766
 20
-2.402939310832078
 30
0.0
  0
VERTEX
  5
4AF
330
4AC
100
AcDbEntity
  8
PLB-050-30Tw~
  6
Continuous
 62
   148
370
    25
390
1D
100
AcDbVertex
100
AcDb2dVertex
 10
-0.0726466777101766
 20
-2.486824468695488
 30
0.0
  0
VERTEX
  5
4B0
330
4AC
100
AcDbEntity
  8
PLB-050-30Tw~
  6
Continuous
 62
   148
370
    25
390
1D
100
AcDbVertex
100
AcDb2dVertex
 10
0.0
 20
-2.528767047627193
 30
0.0
  0
VERTEX
  5
4B1
330
4AC
100
AcDbEntity
  8
PLB-050-30Tw~
  6
Continuous
 62
   148
370
    25
390
1D
100
AcDbVertex
100
AcDb2dVertex
 10
0.0726466777101757
 20
-2.486824468695488
 30
0.0
  0
VERTEX
  5
4B2
330
4AC
100
AcDbEntity
  8
PLB-050-30Tw~
  6
Continuous
 62
   148
370
    25
390
1D
100
AcDbVertex
100
AcDb2dVertex
 10
0.0726466777101757
 20
-2.402939310832078
 30
0.0
  0
SEQEND
  5
4B3
330
4AC
100
AcDbEntity
  8
PLB-050-30Tw~
  6
Continuous
 62
   148
370
    25
390
1D
  0
CIRCLE
  5
4B5
330
A
100
AcDbEntity
  8
PLB-050-30Tw~
  6
Continuous
 62
   148
370
    25
390
1D
100
AcDbCircle
 10
2.983355229572379
 20
2.722440944881893
 30
0.0
 40
0.1574803149606299
  0
POLYLINE
  5
4B6
330
A
100
AcDbEntity
  8
PLB-050-30Tw~
  6
Continuous
 62
   148
370
    25
390
1D
100
AcDb2dPolyline
 66
     1
 10
0.0
 20
0.0
 30
0.0
 70
     1
 75
     5
  0
VERTEX
  5
4B7
330
4B6
100
AcDbEntity
  8
PLB-050-30Tw~
  6
Continuous
 62
   148
370
    25
390
1D
100
AcDbVertex
100
AcDb2dVertex
 10
2.910708551862194
 20
2.680498365950188
 30
0.0
  0
VERTEX
  5
4B8
330
4B6
100
AcDbEntity
  8
PLB-050-30Tw~
  6
Continuous
 62
   148
370
    25
390
1D
100
AcDbVertex
100
AcDb2dVertex
 10
2.983355229572379
 20
2.638555787018484
 30
0.0
  0
VERTEX
  5
4B9
330
4B6
100
AcDbEntity
  8
PLB-050-30Tw~
  6
Continuous
 62
   148
370
    25
390
1D
100
AcDbVertex
100
AcDb2dVertex
 10
3.056001907282554
 20
2.680498365950188
 30
0.0
  0
VERTEX
  5
4BA
330
4B6
100
AcDbEntity
  8
PLB-050-30Tw~
  6
Continuous
 62
   148
370
    25
390
1D
100
AcDbVertex
100
AcDb2dVertex
 10
3.056001907282554
 20
2.764383523813597
 30
0.0
  0
VERTEX
  5
4BB
330
4B6
100
AcDbEntity
  8
PLB-050-30Tw~
  6
Continuous
 62
   148
370
    25
390
1D
100
AcDbVertex
100
AcDb2dVertex
 10
2.983355229572379
 20
2.806326102745301
 30
0.0
  0
VERTEX
  5
4BC
330
4B6
100
AcDbEntity
  8
PLB-050-30Tw~
  6
Continuous
 62
   148
370
    25
390
1D
100
AcDbVertex
100
AcDb2dVertex
 10
2.910708551862194
 20
2.764383523813597
 30
0.0
  0
SEQEND
  5
4BD
330
4B6
100
AcDbEntity
  8
PLB-050-30Tw~
  6
Continuous
 62
   148
370
    25
390
1D
  0
CIRCLE
  5
4BF
330
A
100
AcDbEntity
  8
PLB-050-30Tw~
  6
Continuous
 62
   148
370
    25
390
1D
100
AcDbCircle
 10
-2.983355229572383
 20
2.722440944881889
 30
0.0
 40
0.1574803149606299
  0
POLYLINE
  5
4C0
330
A
100
AcDbEntity
  8
PLB-050-30Tw~
  6
Continuous
 62
   148
370
    25
390
1D
100
AcDb2dPolyline
 66
     1
 10
0.0
 20
0.0
 30
0.0
 70
     1
 75
     5
  0
VERTEX
  5
4C1
330
4C0
100
AcDbEntity
  8
PLB-050-30Tw~
  6
Continuous
 62
   148
370
    25
390
1D
100
AcDbVertex
100
AcDb2dVertex
 10
-2.910708551862198
 20
2.680498365950185
 30
0.0
  0
VERTEX
  5
4C2
330
4C0
100
AcDbEntity
  8
PLB-050-30Tw~
  6
Continuous
 62
   148
370
    25
390
1D
100
AcDbVertex
100
AcDb2dVertex
 10
-2.910708551862198
 20
2.764383523813595
 30
0.0
  0
VERTEX
  5
4C3
330
4C0
100
AcDbEntity
  8
PLB-050-30Tw~
  6
Continuous
 62
   148
370
    25
390
1D
100
AcDbVertex
100
AcDb2dVertex
 10
-2.983355229572383
 20
2.806326102745299
 30
0.0
  0
VERTEX
  5
4C4
330
4C0
100
AcDbEntity
  8
PLB-050-30Tw~
  6
Continuous
 62
   148
370
    25
390
1D
100
AcDbVertex
100
AcDb2dVertex
 10
-3.056001907282567
 20
2.764383523813595
 30
0.0
  0
VERTEX
  5
4C5
330
4C0
100
AcDbEntity
  8
PLB-050-30Tw~
  6
Continuous
 62
   148
370
    25
390
1D
100
AcDbVertex
100
AcDb2dVertex
 10
-3.056001907282559
 20
2.680498365950185
 30
0.0
  0
VERTEX
  5
4C6
330
4C0
100
AcDbEntity
  8
PLB-050-30Tw~
  6
Continuous
 62
   148
370
    25
390
1D
100
AcDbVertex
100
AcDb2dVertex
 10
-2.983355229572383
 20
2.638555787018482
 30
0.0
  0
SEQEND
  5
4C7
330
4C0
100
AcDbEntity
  8
PLB-050-30Tw~
  6
Continuous
 62
   148
370
    25
390
1D
  0
CIRCLE
  5
4C9
330
A
100
AcDbEntity
  8
PLB-050-30Tw~
  6
STYLE_09
 62
     5
370
    15
390
1D
100
AcDbCircle
 10
0.0
 20
0.9999999999999999
 30
0.0
 40
1.811023622047243
  0
DIMENSION
  5
4CA
330
A
100
AcDbEntity
  8
Dimension
  6
Continuous
 62
     5
370
    15
390
1D
100
AcDbDimension
  2
*D4
 10
2.327419980829382
 20
3.122059394285613
 30
0.0
 11
-3.99055118110225
 21
-2.100000000000001
 31
0.0
 70
     3
 71
     5
 42
-1.0
 73
     0
 74
     0
 75
     0
  3
PLACID-1
100
AcDbDiametricDimension
 15
-2.327419980829384
 25
-1.122059394285615
 35
0.0
 40
1.451480528918339
1001
ACAD
1000
DSTYLE
1002
{
1070
   271
1070
     2
1070
   172
1070
     0
1070
   289
1070
     0
1070
   342
1005
82
1070
   340
1005
69
1070
    73
1070
     1
1070
    74
1070
     1
1070
    75
1070
     1
1070
    76
1070
     1
1070
     3
1000

1070
   174
1070
     0
1070
   147
1040
0.0787401574804
1002
}
  0
LINE
  5
4CB
330
A
100
AcDbEntity
  8
PLB-050-30Tw~
  6
Continuous
 62
   148
370
    25
390
1D
100
AcDbLine
 10
1.811023622047249
 20
4.136784927093237
 30
0.0
 11
2.064568636147462
 21
4.575937773520586
 31
0.0
  0
LINE
  5
4CC
330
A
100
AcDbEntity
  8
PLB-050-30Tw~
  6
Continuous
 62
   148
370
    25
390
1D
100
AcDbLine
 10
1.861926124758088
 20
4.106840411800356
 30
0.0
 11
2.11571186865442
 21
4.546410214465462
 31
0.0
  0
LINE
  5
4CD
330
A
100
AcDbEntity
  8
PLB-050-30Tw~
  6
Continuous
 62
   148
370
    25
390
1D
100
AcDbLine
 10
1.759639659744175
 20
4.165895529910594
 30
0.0
 11
2.01342540364051
 21
4.605465332575702
 31
0.0
  0
LINE
  5
4CE
330
A
100
AcDbEntity
  8
PLB-050-30Tw~
  6
Continuous
 62
   148
370
    25
390
1D
100
AcDbLine
 10
2.11571186865442
 20
4.546410214465462
 30
0.0
 11
2.013425403640508
 21
4.6054653325757
 31
0.0
  0
LINE
  5
4CF
330
A
100
AcDbEntity
  8
PLB-050-30Tw~
  6
Continuous
 62
   148
370
    25
390
1D
100
AcDbLine
 10
2.173972826551746
 20
4.647321153641268
 30
0.0
 11
2.071686361537833
 21
4.706376271751506
 31
0.0
  0
LINE
  5
4D0
330
A
100
AcDbEntity
  8
PLB-050-30Tw~
  6
Continuous
 62
   148
370
    25
390
1D
100
AcDbLine
 10
2.308892939577135
 20
4.881009644364176
 30
0.0
 11
2.206606474563226
 21
4.940064762474413
 31
0.0
  0
LINE
  5
4D1
330
A
100
AcDbEntity
  8
PLB-050-30Tw~
  6
Continuous
 62
   148
370
    35
390
1D
100
AcDbLine
 10
2.386227321236073
 20
5.034641761939456
 30
0.0
 11
2.352131832898102
 21
5.054326801309537
 31
0.0
  0
LINE
  5
4D2
330
A
100
AcDbEntity
  8
PLB-050-30Tw~
  6
Continuous
 62
   148
370
    25
390
1D
100
AcDbLine
 10
2.071686361537833
 20
4.706376271751506
 30
0.0
 11
2.206606474563226
 21
4.940064762474413
 31
0.0
  0
LINE
  5
4D3
330
A
100
AcDbEntity
  8
PLB-050-30Tw~
  6
Continuous
 62
   148
370
    25
390
1D
100
AcDbLine
 10
2.122829594044792
 20
4.676848712696383
 30
0.0
 11
2.257749707070178
 21
4.910537203419298
 31
0.0
  0
LINE
  5
4D4
330
A
100
AcDbEntity
  8
PLB-050-30Tw~
  6
Continuous
 62
   148
370
    25
390
1D
100
AcDbLine
 10
2.173972826551746
 20
4.647321153641268
 30
0.0
 11
2.308892939577135
 21
4.881009644364176
 31
0.0
  0
LINE
  5
4D5
330
A
100
AcDbEntity
  8
PLB-050-30Tw~
  6
Continuous
 62
   148
370
    35
390
1D
100
AcDbLine
 10
2.249225834985688
 20
4.915458463261815
 30
0.0
 11
2.335084088729119
 21
5.064169320994571
 31
0.0
  0
LINE
  5
4D6
330
A
100
AcDbEntity
  8
PLB-050-30Tw~
  6
Continuous
 62
   148
370
    35
390
1D
100
AcDbLine
 10
2.266273579154674
 20
4.905615943576774
 30
0.0
 11
2.352131832898102
 21
5.054326801309537
 31
0.0
  0
LINE
  5
4D7
330
A
100
AcDbEntity
  8
PLB-050-30Tw~
  6
Continuous
 62
   148
370
    35
390
1D
100
AcDbLine
 10
2.215130346647714
 20
4.935143502631896
 30
0.0
 11
2.300988600391148
 21
5.083854360364653
 31
0.0
  0
LINE
  5
4D8
330
A
100
AcDbEntity
  8
PLB-050-30Tw~
  6
Continuous
 62
   148
370
    25
390
1D
100
AcDbLine
 10
2.30036906749264
 20
4.8859309042067
 30
0.0
 11
2.386227321236073
 21
5.034641761939456
 31
0.0
  0
LINE
  5
4D9
330
A
100
AcDbEntity
  8
PLB-050-30Tw~
  6
Continuous
 62
   148
370
    35
390
1D
100
AcDbLine
 10
2.335084088729119
 20
5.064169320994571
 30
0.0
 11
2.300988600391148
 21
5.083854360364653
 31
0.0
  0
LINE
  5
4DA
330
A
100
AcDbEntity
  8
Dimension
  6
Continuous
 62
     5
370
    15
390
1D
100
AcDbLine
 10
-0.0590551181102787
 20
2.913310087061131
 30
0.0
 11
-1.085884965944504
 21
6.107774215370699
 31
0.0
  0
POLYLINE
  5
4DB
102
{ACAD_REACTORS
330
4E0
102
}
330
A
100
AcDbEntity
  8
None
  6
Continuous
 62
     5
370
     5
390
1D
100
AcDb2dPolyline
 66
     1
 10
0.0
 20
0.0
 30
0.0
 70
     1
 75
     5
  0
VERTEX
  5
4DC
330
4DB
100
AcDbEntity
  8
None
  6
Continuous
 62
     5
370
     5
390
1D
100
AcDbVertex
100
AcDb2dVertex
 10
-0.0703459361241539
 20
3.236636811477757
 30
0.0
  0
VERTEX
  5
4DD
330
4DB
100
AcDbEntity
  8
None
  6
Continuous
 62
     5
370
     5
390
1D
100
AcDbVertex
100
AcDb2dVertex
 10
-0.0590551181102787
 20
2.913310087061131
 30
0.0
  0
VERTEX
  5
4DE
330
4DB
100
AcDbEntity
  8
None
  6
Continuous
 62
     5
370
     5
390
1D
100
AcDbVertex
100
AcDb2dVertex
 10
-0.2304966155481143
 20
3.187673835121402
 30
0.0
  0
SEQEND
  5
4DF
330
4DB
100
AcDbEntity
  8
None
  6
Continuous
 62
     5
370
     5
390
1D
  0
HATCH
  5
4E0
330
A
100
AcDbEntity
  8
Dimension
  6
Continuous
 62
     5
370
     0
390
1D
100
AcDbHatch
 10
0.0
 20
0.0
 30
0.0
210
0.0
220
0.0
230
1.0
  2
SOLID
 70
     1
 71
     1
 91
        1
 92
        1
 93
        3
 72
     1
 10
-0.0703459361241539
 20
3.236636811477757
 11
-0.0590551181102787
 21
2.913310087061131
 72
     1
 10
-0.0590551181102787
 20
2.913310087061131
 11
-0.2304966155481143
 21
3.187673835121402
 72
     1
 10
-0.2304966155481143
 20
3.187673835121402
 11
-0.0703459361241539
 21
3.236636811477757
 97
        1
330
4DB
 75
     0
 76
     1
 98
        1
 10
0.0
 20
0.0
  0
LINE
  5
4E1
330
A
100
AcDbEntity
  8
Dimension
  6
Continuous
 62
     5
370
    15
390
1D
100
AcDbLine
 10
-1.085884965944504
 20
6.107774215370699
 30
0.0
 11
-2.095598046242971
 21
6.107774215370699
 31
0.0
  0
DIMENSION
  5
4E2
330
A
100
AcDbEntity
  8
Dimension
  6
Continuous
 62
     5
370
    15
390
1D
100
AcDbDimension
  2
*D5
 10
0.9732579241872203
 20
-0.5272771760947319
 30
0.0
 11
-3.149588043806179
 21
5.015748031496062
 31
0.0
 70
     3
 71
     5
 42
-1.0
 73
     0
 74
     0
 75
     0
  3
PLACID-1
100
AcDbDiametricDimension
 15
-0.9732579241872203
 25
2.52727717609473
 35
0.0
 40
2.950793459397831
1001
ACAD
1000
DSTYLE
1002
{
1070
   172
1070
     0
1070
   289
1070
     0
1070
   342
1005
82
1070
   340
1005
69
1070
    73
1070
     1
1070
    74
1070
     1
1070
    75
1070
     1
1070
    76
1070
     1
1070
     3
1000

1070
   174
1070
     0
1070
   147
1040
0.0787401574804
1002
}
  0
CIRCLE
  5
4E3
330
A
100
AcDbEntity
  8
PLB-050-30Tw~
  6
Continuous
 62
   148
370
    25
390
1D
100
AcDbCircle
 10
-15.70864316191653
 20
0.9999999999999999
 30
0.0
 40
0.7874015748031485
  0
CIRCLE
  5
4E4
330
A
100
AcDbEntity
  8
PLB-050-30Tw~
  6
Continuous
 62
   148
370
    25
390
1D
100
AcDbCircle
 10
-15.70864316191653
 20
0.9999999999999999
 30
0.0
 40
3.622047244094485
  0
LINE
  5
4E5
330
A
100
AcDbEntity
  8
PLB-050-30Tw~
  6
Continuous
 62
   148
370
    25
390
1D
100
AcDbLine
 10
-15.64958804380629
 20
1.916880742590546
 30
0.0
 11
-15.64958804380629
 21
1.785183884849572
 31
0.0
  0
LINE
  5
4E6
330
A
100
AcDbEntity
  8
PLB-050-30Tw~
  6
Continuous
 62
   148
370
    25
390
1D
100
AcDbLine
 10
-15.76769828002676
 20
1.916880742590546
 30
0.0
 11
-15.76769828002676
 21
1.785183884849572
 31
0.0
  0
ARC
  5
4E7
330
A
100
AcDbEntity
  8
PLB-050-30Tw~
  6
Continuous
 62
   148
370
    25
390
1D
100
AcDbCircle
 10
-15.70864316191653
 20
0.9449758190739556
 30
0.0
 40
0.8905566838831972
100
AcDbArc
 50
108.5703959218647
 51
71.42960407813523
  0
ARC
  5
4E8
330
A
100
AcDbEntity
  8
PLB-050-30Tw~
  6
Continuous
 62
   148
370
    25
390
1D
100
AcDbCircle
 10
-15.70864316191653
 20
0.9999999999999999
 30
0.0
 40
0.9615185567568114
100
AcDbArc
 50
96.12711650130102
 51
101.0766694687744
  0
ARC
  5
4E9
330
A
100
AcDbEntity
  8
PLB-050-30Tw~
  6
Continuous
 62
   148
370
    25
390
1D
100
AcDbCircle
 10
-15.70864316191653
 20
0.9999999999999999
 30
0.0
 40
0.961518556756812
100
AcDbArc
 50
78.9233305312256
 51
83.87288349869897
  0
LINE
  5
4EA
330
A
100
AcDbEntity
  8
PLB-050-30Tw~
  6
Continuous
 62
   148
370
    25
390
1D
100
AcDbLine
 10
-15.49210772884566
 20
1.904969752385849
 30
0.0
 11
-15.49210772884566
 21
1.882464465415314
 31
0.0
  0
LINE
  5
4EB
330
A
100
AcDbEntity
  8
PLB-050-30Tw~
  6
Continuous
 62
   148
370
    25
390
1D
100
AcDbLine
 10
-15.92517859498739
 20
1.904969752385849
 30
0.0
 11
-15.92517859498739
 21
1.882464465415314
 31
0.0
  0
ARC
  5
4EC
330
A
100
AcDbEntity
  8
PLB-050-30Tw~
  6
Continuous
 62
   148
370
    25
390
1D
100
AcDbCircle
 10
-15.53147780758582
 20
1.904969752385849
 30
0.0
 40
0.0393700787401575
100
AcDbArc
 50
0.0
 51
78.9233305312253
  0
ARC
  5
4ED
330
A
100
AcDbEntity
  8
PLB-050-30Tw~
  6
Continuous
 62
   148
370
    25
390
1D
100
AcDbCircle
 10
-15.61021796506613
 20
1.916880742590546
 30
0.0
 40
0.039370078740158
100
AcDbArc
 50
83.87288349869857
 51
180.0
  0
ARC
  5
4EE
330
A
100
AcDbEntity
  8
PLB-050-30Tw~
  6
Continuous
 62
   148
370
    25
390
1D
100
AcDbCircle
 10
-15.80706835876692
 20
1.916880742590546
 30
0.0
 40
0.0393700787401575
100
AcDbArc
 50
0.0
 51
96.12711650130142
  0
ARC
  5
4EF
330
A
100
AcDbEntity
  8
PLB-050-30Tw~
  6
Continuous
 62
   148
370
    25
390
1D
100
AcDbCircle
 10
-15.88580851624724
 20
1.904969752385849
 30
0.0
 40
0.0393700787401575
100
AcDbArc
 50
101.0766694687747
 51
180.0
  0
ARC
  5
4F0
330
A
100
AcDbEntity
  8
PLB-050-30Tw~
  6
Continuous
 62
   148
370
    25
390
1D
100
AcDbCircle
 10
-15.39368253199527
 20
1.882464465415314
 30
0.0
 40
0.0984251968503937
100
AcDbArc
 50
180.0
 51
251.4296040781353
  0
ARC
  5
4F1
330
A
100
AcDbEntity
  8
PLB-050-30Tw~
  6
Continuous
 62
   148
370
    25
390
1D
100
AcDbCircle
 10
-16.02360379183779
 20
1.882464465415314
 30
0.0
 40
0.0984251968503941
100
AcDbArc
 50
288.5703959218647
 51
0.0
  0
CIRCLE
  5
4F2
330
A
100
AcDbEntity
  8
PLB-050-30Tw~
  6
Continuous
 62
   148
370
    25
390
1D
100
AcDbCircle
 10
-15.84575780569183
 20
1.872104262751991
 30
0.0
 40
0.0412681356945319
  0
CIRCLE
  5
4F3
330
A
100
AcDbEntity
  8
PLB-050-30Tw~
  6
Continuous
 62
   148
370
    25
390
1D
100
AcDbCircle
 10
-15.57063690106161
 20
1.872104262751991
 30
0.0
 40
0.0412681356945319
  0
LINE
  5
4F4
330
A
100
AcDbEntity
  8
PLB-050-30Tw~
  6
Continuous
 62
   148
370
    25
390
1D
100
AcDbLine
 10
-17.51966678396376
 20
4.136784927093244
 30
0.0
 11
-17.77321179806399
 21
4.575937773520587
 31
0.0
  0
LINE
  5
4F5
330
A
100
AcDbEntity
  8
PLB-050-30Tw~
  6
Continuous
 62
   148
370
    25
390
1D
100
AcDbLine
 10
-17.4682828216607
 20
4.165895529910598
 30
0.0
 11
-17.72206856555703
 21
4.605465332575706
 31
0.0
  0
LINE
  5
4F6
330
A
100
AcDbEntity
  8
PLB-050-30Tw~
  6
Continuous
 62
   148
370
    25
390
1D
100
AcDbLine
 10
-17.57056928667461
 20
4.106840411800359
 30
0.0
 11
-17.82435503057094
 21
4.546410214465471
 31
0.0
  0
LINE
  5
4F7
330
A
100
AcDbEntity
  8
PLB-050-30Tw~
  6
Continuous
 62
   148
370
    25
390
1D
100
AcDbLine
 10
-17.72206856555703
 20
4.605465332575706
 30
0.0
 11
-17.82435503057094
 21
4.546410214465468
 31
0.0
  0
LINE
  5
4F8
330
A
100
AcDbEntity
  8
PLB-050-30Tw~
  6
Continuous
 62
   148
370
    25
390
1D
100
AcDbLine
 10
-17.78032952345436
 20
4.706376271751508
 30
0.0
 11
-17.88261598846827
 21
4.647321153641271
 31
0.0
  0
LINE
  5
4F9
330
A
100
AcDbEntity
  8
PLB-050-30Tw~
  6
Continuous
 62
   148
370
    25
390
1D
100
AcDbLine
 10
-17.91524963647974
 20
4.940064762474417
 30
0.0
 11
-18.01753610149365
 21
4.881009644364181
 31
0.0
  0
LINE
  5
4FA
330
A
100
AcDbEntity
  8
PLB-050-30Tw~
  6
Continuous
 62
   148
370
    25
390
1D
100
AcDbLine
 10
-18.00963176230767
 20
5.083854360364659
 30
0.0
 11
-18.04372725064564
 21
5.06416932099458
 31
0.0
  0
LINE
  5
4FB
330
A
100
AcDbEntity
  8
PLB-050-30Tw~
  6
Continuous
 62
   148
370
    25
390
1D
100
AcDbLine
 10
-17.88261598846827
 20
4.647321153641271
 30
0.0
 11
-18.01753610149365
 21
4.881009644364181
 31
0.0
  0
LINE
  5
4FC
330
A
100
AcDbEntity
  8
PLB-050-30Tw~
  6
Continuous
 62
   148
370
    25
390
1D
100
AcDbLine
 10
-17.83147275596131
 20
4.67684871269639
 30
0.0
 11
-17.96639286898671
 21
4.910537203419299
 31
0.0
  0
LINE
  5
4FD
330
A
100
AcDbEntity
  8
PLB-050-30Tw~
  6
Continuous
 62
   148
370
    25
390
1D
100
AcDbLine
 10
-17.78032952345436
 20
4.706376271751508
 30
0.0
 11
-17.91524963647974
 21
4.940064762474417
 31
0.0
  0
LINE
  5
4FE
330
A
100
AcDbEntity
  8
PLB-050-30Tw~
  6
Continuous
 62
   148
370
    25
390
1D
100
AcDbLine
 10
-17.97491674107119
 20
4.905615943576779
 30
0.0
 11
-18.06077499481462
 21
5.054326801309539
 31
0.0
  0
LINE
  5
4FF
330
A
100
AcDbEntity
  8
PLB-050-30Tw~
  6
Continuous
 62
   148
370
    25
390
1D
100
AcDbLine
 10
-17.95786899690221
 20
4.915458463261819
 30
0.0
 11
-18.04372725064564
 21
5.06416932099458
 31
0.0
  0
LINE
  5
500
330
A
100
AcDbEntity
  8
PLB-050-30Tw~
  6
Continuous
 62
   148
370
    25
390
1D
100
AcDbLine
 10
-18.00901222940917
 20
4.8859309042067
 30
0.0
 11
-18.09487048315259
 21
5.034641761939461
 31
0.0
  0
LINE
  5
501
330
A
100
AcDbEntity
  8
PLB-050-30Tw~
  6
Continuous
 62
   148
370
    25
390
1D
100
AcDbLine
 10
-17.92377350856424
 20
4.935143502631898
 30
0.0
 11
-18.00963176230767
 21
5.083854360364659
 31
0.0
  0
LINE
  5
502
330
A
100
AcDbEntity
  8
PLB-050-30Tw~
  6
Continuous
 62
   148
370
    25
390
1D
100
AcDbLine
 10
-18.06077499481462
 20
5.054326801309539
 30
0.0
 11
-18.09487048315259
 21
5.034641761939461
 31
0.0
  0
ARC
  5
503
330
A
100
AcDbEntity
  8
None
  6
Continuous
 62
     7
370
    25
390
1D
100
AcDbCircle
 10
-15.70864316191653
 20
0.9999999999999999
 30
0.0
 40
3.110236220472441
100
AcDbArc
 50
114.9414800886576
 51
125.0585199113423
  0
ARC
  5
504
330
A
100
AcDbEntity
  8
None
  6
Continuous
 62
     7
370
    25
390
1D
100
AcDbCircle
 10
-16.95502466571295
 20
3.828080577000482
 30
0.0
 40
0.0590551181102366
100
AcDbArc
 50
113.7838746180938
 51
210.2592578055779
  0
ARC
  5
505
330
A
100
AcDbEntity
  8
None
  6
Continuous
 62
     7
370
    25
390
1D
100
AcDbCircle
 10
-17.53464203365008
 20
3.493438333594996
 30
0.0
 40
0.0590551181102346
100
AcDbArc
 50
29.74074219442219
 51
126.2161253819087
  0
ARC
  5
506
330
A
100
AcDbEntity
  8
None
  6
Continuous
 62
     7
370
    25
390
1D
100
AcDbCircle
 10
-17.24407623278267
 20
3.659448090361665
 30
0.0
 40
0.2755905511811049
100
AcDbArc
 50
209.7407421944216
 51
30.25925780557867
  0
CIRCLE
  5
507
330
A
100
AcDbEntity
  8
None
  6
Continuous
 62
     7
370
    25
390
1D
100
AcDbCircle
 10
-17.26107552983319
 20
3.557034008618773
 30
0.0
 40
0.0393700787401578
  0
LINE
  5
508
330
A
100
AcDbEntity
  8
None
  6
Continuous
 62
     7
370
    25
390
1D
100
AcDbLine
 10
-17.29652169183944
 20
3.539900045299311
 30
0.0
 11
-17.57056928667461
 21
4.106840411800359
 31
0.0
  0
LINE
  5
509
330
A
100
AcDbEntity
  8
None
  6
Continuous
 62
     7
370
    25
390
1D
100
AcDbLine
 10
-17.2261838482351
 20
3.57527061069437
 30
0.0
 11
-17.51966678396376
 21
4.136784927093244
 31
0.0
  0
INSERT
  5
50A
330
A
100
AcDbEntity
  8
None
 62
     7
390
1D
100
AcDbBlockReference
  2
Group-6
 10
-7.321349202237864
 20
-0.1578981112097103
 30
0.0
  0
INSERT
  5
50B
330
A
100
AcDbEntity
  8
None
 62
     7
390
1D
100
AcDbBlockReference
  2
Group-13
 10
-7.321349202237864
 20
-0.1578981112097103
 30
0.0
  0
CIRCLE
  5
50C
330
A
100
AcDbEntity
  8
None
  6
Continuous
 62
     7
370
    25
390
1D
100
AcDbCircle
 10
-17.20470615404251
 20
3.591257113685722
 30
0.0
 40
0.131889763779527
  0
POLYLINE
  5
50D
330
A
100
AcDbEntity
  8
None
  6
Continuous
 62
     7
370
    25
390
1D
100
AcDb2dPolyline
 66
     1
 10
0.0
 20
0.0
 30
0.0
 70
     1
 75
     5
  0
VERTEX
  5
50E
330
50D
100
AcDbEntity
  8
None
  6
Continuous
 62
     7
370
    25
390
1D
100
AcDbVertex
100
AcDb2dVertex
 10
-17.57056928667461
 20
4.106840411800359
 30
0.0
  0
VERTEX
  5
50F
330
50D
100
AcDbEntity
  8
None
  6
Continuous
 62
     7
370
    25
390
1D
100
AcDbVertex
100
AcDb2dVertex
 10
-17.29652169183944
 20
3.539900045299311
 30
0.0
  0
VERTEX
  5
510
330
50D
100
AcDbEntity
  8
None
  6
Continuous
 62
     7
370
    25
390
1D
100
AcDbVertex
100
AcDb2dVertex
 10
-17.27408074695756
 20
3.519821305141831
 30
0.0
  0
VERTEX
  5
511
330
50D
100
AcDbEntity
  8
None
  6
Continuous
 62
     7
370
    25
390
1D
100
AcDbVertex
100
AcDb2dVertex
 10
-17.24219098317803
 20
3.524152013803248
 30
0.0
  0
VERTEX
  5
512
330
50D
100
AcDbEntity
  8
None
  6
Continuous
 62
     7
370
    25
390
1D
100
AcDbVertex
100
AcDb2dVertex
 10
-17.22368704617015
 20
3.545805557110335
 30
0.0
  0
VERTEX
  5
513
330
50D
100
AcDbEntity
  8
None
  6
Continuous
 62
     7
370
    25
390
1D
100
AcDbVertex
100
AcDb2dVertex
 10
-17.2261838482351
 20
3.57527061069437
 30
0.0
  0
VERTEX
  5
514
330
50D
100
AcDbEntity
  8
None
  6
Continuous
 62
     7
370
    25
390
1D
100
AcDbVertex
100
AcDb2dVertex
 10
-17.51966678396376
 20
4.136784927093244
 30
0.0
  0
VERTEX
  5
515
330
50D
100
AcDbEntity
  8
None
  6
Continuous
 62
     7
370
    25
390
1D
100
AcDbVertex
100
AcDb2dVertex
 10
-17.77321179806398
 20
4.575937773520587
 30
0.0
  0
VERTEX
  5
516
330
50D
100
AcDbEntity
  8
None
  6
Continuous
 62
     7
370
    25
390
1D
100
AcDbVertex
100
AcDb2dVertex
 10
-17.82435503057094
 20
4.546410214465468
 30
0.0
  0
SEQEND
  5
517
330
50D
100
AcDbEntity
  8
None
  6
Continuous
 62
     7
370
    25
390
1D
  0
LINE
  5
519
330
A
100
AcDbEntity
  8
None
  6
Continuous
 62
     7
370
    25
390
1D
100
AcDbLine
 10
-17.18012258923802
 20
3.601864090975547
 30
0.0
 11
-17.51966678396376
 21
4.136784927093244
 31
0.0
  0
LINE
  5
51A
330
A
100
AcDbEntity
  8
None
  6
Continuous
 62
     7
370
    25
390
1D
100
AcDbLine
 10
-17.11432185925751
 20
3.645093167686795
 30
0.0
 11
-17.4682828216607
 21
4.165895529910598
 31
0.0
  0
CIRCLE
  5
51B
330
A
100
AcDbEntity
  8
None
  6
Continuous
 62
     7
370
    25
390
1D
100
AcDbCircle
 10
-17.1468833877628
 20
3.622962872582453
 30
0.0
 40
0.0393700787401575
  0
POLYLINE
  5
51C
330
A
100
AcDbEntity
  8
None
  6
Continuous
 62
     7
370
    15
390
1D
100
AcDb2dPolyline
 66
     1
 10
0.0
 20
0.0
 30
0.0
 70
     1
 75
     5
  0
VERTEX
  5
51D
330
51C
100
AcDbEntity
  8
None
  6
Continuous
 62
     7
370
    15
390
1D
100
AcDbVertex
100
AcDb2dVertex
 10
-17.77321179806398
 20
4.575937773520587
 30
0.0
  0
VERTEX
  5
51E
330
51C
100
AcDbEntity
  8
None
  6
Continuous
 62
     7
370
    15
390
1D
100
AcDbVertex
100
AcDb2dVertex
 10
-17.51966678396376
 20
4.136784927093244
 30
0.0
  0
VERTEX
  5
51F
330
51C
100
AcDbEntity
  8
None
  6
Continuous
 62
     7
370
    15
390
1D
100
AcDbVertex
100
AcDb2dVertex
 10
-17.18012258923802
 20
3.601864090975547
 30
0.0
  0
VERTEX
  5
520
330
51C
100
AcDbEntity
  8
None
  6
Continuous
 62
     7
370
    15
390
1D
100
AcDbVertex
100
AcDb2dVertex
 10
-17.1635044790018
 20
3.586116059479484
 30
0.0
  0
VERTEX
  5
521
330
51C
100
AcDbEntity
  8
None
  6
Continuous
 62
     7
370
    15
390
1D
100
AcDbVertex
100
AcDb2dVertex
 10
-17.1468833877628
 20
3.583592793842295
 30
0.0
  0
VERTEX
  5
522
330
51C
100
AcDbEntity
  8
None
  6
Continuous
 62
     7
370
    15
390
1D
100
AcDbVertex
100
AcDb2dVertex
 10
-17.11932433264469
 20
3.587529801716311
 30
0.0
  0
VERTEX
  5
523
330
51C
100
AcDbEntity
  8
None
  6
Continuous
 62
     7
370
    15
390
1D
100
AcDbVertex
100
AcDb2dVertex
 10
-17.10413833726952
 20
3.622962516172397
 30
0.0
  0
VERTEX
  5
524
330
51C
100
AcDbEntity
  8
None
  6
Continuous
 62
     7
370
    15
390
1D
100
AcDbVertex
100
AcDb2dVertex
 10
-17.11432185925751
 20
3.645093167686795
 30
0.0
  0
VERTEX
  5
525
330
51C
100
AcDbEntity
  8
None
  6
Continuous
 62
     7
370
    15
390
1D
100
AcDbVertex
100
AcDb2dVertex
 10
-17.4682828216607
 20
4.165895529910598
 30
0.0
  0
VERTEX
  5
526
330
51C
100
AcDbEntity
  8
None
  6
Continuous
 62
     7
370
    15
390
1D
100
AcDbVertex
100
AcDb2dVertex
 10
-17.72206856555703
 20
4.605465332575706
 30
0.0
  0
SEQEND
  5
527
330
51C
100
AcDbEntity
  8
None
  6
Continuous
 62
     7
370
    15
390
1D
  0
INSERT
  5
529
330
A
100
AcDbEntity
  8
None
 62
     7
390
1D
100
AcDbBlockReference
  2
Group-15
 10
-7.321349202237864
 20
-0.1578981112097103
 30
0.0
  0
LINE
  5
52A
330
A
100
AcDbEntity
  8
PLB-050-30Tw~
 62
   148
370
    25
390
1D
100
AcDbLine
 10
-15.5511628469559
 20
-6.366141732283465
 30
0.0
 11
-15.5511628469559
 21
-6.517447547448784
 31
0.0
  0
LINE
  5
52B
330
A
100
AcDbEntity
  8
PLB-050-30Tw~
 62
   148
370
    25
390
1D
100
AcDbLine
 10
-15.86612347687716
 20
-6.366141732283465
 30
0.0
 11
-15.86612347687716
 21
-6.517447547448784
 31
0.0
  0
LINE
  5
52C
330
A
100
AcDbEntity
  8
PLB-050-30Tw~
  6
Continuous
 62
   148
370
    25
390
1D
100
AcDbLine
 10
-15.86612347687716
 20
-6.366141732283465
 30
0.0
 11
-15.5511628469559
 21
-6.366141732283465
 31
0.0
  0
ARC
  5
52D
330
A
100
AcDbEntity
  8
PLB-050-30Tw~
  6
Continuous
 62
   148
370
    25
390
1D
100
AcDbCircle
 10
-15.70864316191653
 20
-7.086614173228347
 30
0.0
 40
0.590551181102362
100
AcDbArc
 50
105.4660099534197
 51
74.53399004657854
  0
DIMENSION
  5
52E
330
A
100
AcDbEntity
  8
Dimension
  6
Continuous
 62
     5
370
    15
390
1D
100
AcDbDimension
  2
*D22
 10
-15.86612347687716
 20
-6.062992125984252
 30
0.0
 11
-16.54803324363656
 21
-5.964566929133753
 31
0.0
 70
   128
 71
     5
 42
-1.0
 73
     0
 74
     0
 75
     0
  3
PLACID-1
100
AcDbAlignedDimension
 13
-15.5511628469559
 23
-6.366141732283465
 33
0.0
 14
-15.86612347687716
 24
-6.366141732283465
 34
0.0
100
AcDbRotatedDimension
1001
ACAD
1000
DSTYLE
1002
{
1070
   279
1070
     2
1070
   340
1005
69
1070
    72
1070
     1
1070
    47
1040
0.0023622047244094
1070
    48
1040
-0.0003937007874016
1070
   174
1070
     0
1070
   147
1040
0.0984251968505
1002
}
  0
DIMENSION
  5
52F
330
A
100
AcDbEntity
  8
Dimension
  6
Continuous
 62
     5
370
    15
390
1D
100
AcDbDimension
  2
*D23
 10
-15.29106041712133
 20
-6.669031428433143
 30
0.0
 11
-17.08659591782193
 21
-7.874015748031493
 31
0.0
 70
     3
 71
     5
 42
-1.0
 73
     0
 74
     0
 75
     0
  3
PLACID-1
100
AcDbDiametricDimension
 15
-16.12622590671174
 25
-7.504196918023553
 35
0.0
 40
0.5230028050181788
1001
ACAD
1000
DSTYLE
1002
{
1070
   172
1070
     0
1070
   289
1070
     0
1070
   342
1005
82
1070
   340
1005
69
1070
    73
1070
     1
1070
    74
1070
     1
1070
    75
1070
     1
1070
    76
1070
     1
1070
    72
1070
     1
1070
    47
1040
0.0009842519685039
1070
     3
1000

1070
   174
1070
     0
1070
   147
1040
0.0984251968505
1002
}
  0
DIMENSION
  5
530
330
A
100
AcDbEntity
  8
Dimension
  6
Continuous
 62
     5
370
    15
390
1D
100
AcDbDimension
  2
*D24
 10
-14.2766326517218
 20
-6.366141732283465
 30
0.0
 11
-14.2766326517218
 21
-7.021653543307087
 31
0.0
 70
    32
 71
     5
 42
-1.0
 73
     0
 74
     0
 75
     0
  3
PLACID-1
100
AcDbAlignedDimension
 13
-15.70864316191654
 23
-7.677165354330709
 33
0.0
 14
-15.5511628469559
 24
-6.366141732283465
 34
0.0
 50
-90.0
100
AcDbRotatedDimension
1001
ACAD
1000
DSTYLE
1002
{
1070
   279
1070
     2
1070
   340
1005
69
1070
    73
1070
     1
1070
    74
1070
     1
1070
    72
1070
     1
1070
    47
1040
0.0118110236220472
1070
   147
1040
0.0984251968505
1002
}
  0
INSERT
  5
531
330
A
100
AcDbEntity
  8
Dimension
 62
     7
390
1D
100
AcDbBlockReference
  2
Group-16
 10
-7.321349202237864
 20
-0.1578981112097103
 30
0.0
  0
MTEXT
  5
532
330
A
100
AcDbEntity
  8
0
 62
     5
390
1D
100
AcDbMText
 10
-17.16812294821907
 20
5.532442448176092
 30
0.0
 40
0.1992580384816239
 41
0.0
 46
0.0
 71
     2
 72
     1
  1
12"\PLEADS
  7
Helvetica
 73
     1
 44
0.9447699750670482
  0
DIMENSION
  5
533
330
A
100
AcDbEntity
  8
Dimension
  6
Continuous
 62
     5
370
    15
390
1D
100
AcDbDimension
  2
*D26
 10
-17.91955814484123
 20
3.243184071430325
 30
0.0
 11
-12.01379401172117
 21
-2.149606299212598
 31
0.0
 70
     3
 71
     5
 42
-1.0
 73
     0
 74
     0
 75
     0
  3
PLACID-1
100
AcDbDiametricDimension
 15
-13.49772817899182
 25
-1.243184071430324
 35
0.0
 40
1.27268787021522
1001
ACAD
1000
DSTYLE
1002
{
1070
   271
1070
     2
1070
   172
1070
     0
1070
   289
1070
     0
1070
   342
1005
82
1070
   340
1005
69
1070
    73
1070
     1
1070
    74
1070
     1
1070
    75
1070
     1
1070
    76
1070
     1
1070
     3
1000

1070
   174
1070
     0
1070
   147
1040
0.0984251968505
1002
}
  0
DIMENSION
  5
534
330
A
100
AcDbEntity
  8
Dimension
  6
Continuous
 62
     5
370
    15
390
1D
100
AcDbDimension
  2
*D27
 10
-17.2062937915815
 20
-2.29791886345261
 30
0.0
 11
-13.22244925268885
 21
5.174321959755138
 31
0.0
 70
     3
 71
     5
 42
-1.0
 73
     0
 74
     0
 75
     0
  3
PLACID-1
100
AcDbDiametricDimension
 15
-14.21099253225156
 25
4.297918863452611
 35
0.0
 40
0.9625383616488273
1001
ACAD
1000
DSTYLE
1002
{
1070
   172
1070
     0
1070
   289
1070
     0
1070
   342
1005
82
1070
   340
1005
69
1070
   140
1040
0.1992580384816237
1070
    73
1070
     1
1070
    74
1070
     1
1070
    75
1070
     1
1070
    76
1070
     1
1070
     3
1000

1070
   174
1070
     0
1070
   147
1040
0.0984251968505
1002
}
  0
MTEXT
  5
535
330
A
100
AcDbEntity
  8
0
 62
     5
390
1D
100
AcDbMText
 10
-3.425178594987392
 20
6.791088747143042
 30
0.0
 40
0.1992580384816239
 41
0.0
 46
0.0
 71
     2
 72
     1
  1
{\LMOUNTING HOLES}\P6X M6-1.0 x 10 TURNS\PTHIS SIDE ONLY
  7
Helvetica
 73
     1
 44
0.9447699750670482
  0
MTEXT
  5
536
330
A
100
AcDbEntity
  8
DRAWING
 62
     5
390
1D
100
AcDbMText
 10
2.600154786191522
 20
-3.187859196863958
 30
0.0
 40
0.1992580384816239
 41
0.0
 46
0.0
 71
     2
 72
     1
  1
MOUNTING\PPILOT DIAMETER
  7
Helvetica
 73
     1
 44
0.9447699750670482
  0
DIMENSION
  5
537
330
A
100
AcDbEntity
  8
Dimension
  6
Continuous
 62
     5
370
    15
390
1D
100
AcDbDimension
  2
*D28
 10
-9.613015783948878
 20
6.826771653543307
 30
0.0
 11
-8.195275590551182
 21
6.925196850393807
 31
0.0
 70
   128
 71
     5
 42
-1.0
 73
     0
 74
     0
 75
     0
  3
PLACID-1
100
AcDbAlignedDimension
 13
-6.778291611104942
 23
1.807317639316144
 33
0.0
 14
-9.613015783948878
 24
3.992125984251972
 34
0.0
100
AcDbRotatedDimension
1001
ACAD
1000
DSTYLE
1002
{
1070
   279
1070
     2
1070
   340
1005
69
1070
   140
1040
0.1992580384816237
1070
   147
1040
0.0984251968505
1002
}
  0
DIMENSION
  5
538
330
A
100
AcDbEntity
  8
Dimension
  6
Continuous
 62
     5
370
    15
390
1D
100
AcDbDimension
  2
*D29
 10
-6.943725936309256
 20
6.162407124630031
 30
0.0
 11
-6.188880095800767
 21
6.26083232148053
 31
0.0
 70
   128
 71
     5
 42
-1.0
 73
     0
 74
     0
 75
     0
  3
PLACID-1
100
AcDbAlignedDimension
 13
-7.132700823318957
 23
4.031496062992123
 33
0.0
 14
-6.943725936309256
 24
2.338582677165352
 34
0.0
100
AcDbRotatedDimension
1001
ACAD
1000
DSTYLE
1002
{
1070
   279
1070
     2
1070
   340
1005
69
1070
   140
1040
0.1992580384816237
1070
   174
1070
     0
1070
   147
1040
0.0984251968505
1002
}
  0
DIMENSION
  5
539
330
A
100
AcDbEntity
  8
Dimension
  6
Continuous
 62
     5
370
    15
390
1D
100
AcDbDimension
  2
*D30
 10
-6.778291611104942
 20
5.526419389319923
 30
0.0
 11
-6.188880095800767
 21
5.624844586170423
 31
0.0
 70
   128
 71
     5
 42
-1.0
 73
     0
 74
     0
 75
     0
  3
PLACID-1
100
AcDbAlignedDimension
 13
-7.132700823318958
 23
3.992125984251972
 33
0.0
 14
-6.778291611104942
 24
1.807319560582555
 34
0.0
100
AcDbRotatedDimension
1001
ACAD
1000
DSTYLE
1002
{
1070
   279
1070
     2
1070
   340
1005
69
1070
   140
1040
0.1992580384816237
1070
   174
1070
     0
1070
   147
1040
0.0984251968505
1002
}
  0
INSERT
  5
53A
330
A
100
AcDbEntity
  8
None
 62
     7
390
1D
100
AcDbBlockReference
  2
Group-17
 10
-7.321349202237864
 20
-0.1578981112097103
 30
0.0
  0
DIMENSION
  5
53B
330
A
100
AcDbEntity
  8
Dimension
  6
Continuous
 62
     5
370
    15
390
1D
100
AcDbDimension
  2
*D32
 10
-7.132700823318957
 20
5.01574803149606
 30
0.0
 11
-7.526401610679667
 21
5.01574803149606
 31
0.0
 70
    32
 71
     5
 42
-1.0
 73
     0
 74
     0
 75
     0
  3
PLACID-1
100
AcDbAlignedDimension
 13
-7.920102398040376
 23
4.71653543307086
 33
0.0
 14
-7.132700823318957
 24
4.031496062992123
 34
0.0
100
AcDbRotatedDimension
1001
ACAD
1000
DSTYLE
1002
{
1070
   279
1070
     2
1070
   340
1005
69
1070
   140
1040
0.1992580384816237
1070
   147
1040
0.0984251968505
1002
}
  0
CIRCLE
  5
53C
330
A
100
AcDbEntity
  8
PLB-050-30Tw~
  6
Continuous
 62
   148
370
    25
390
1D
100
AcDbCircle
 10
0.0
 20
0.9999999999999999
 30
0.0
 40
0.7874015748031485
  0
LINE
  5
53D
330
A
100
AcDbEntity
  8
PLB-050-30Tw~
  6
Continuous
 62
   148
370
    25
390
1D
100
AcDbLine
 10
0.0590551181102361
 20
1.916880742590546
 30
0.0
 11
0.0590551181102361
 21
1.785183884849572
 31
0.0
  0
LINE
  5
53E
330
A
100
AcDbEntity
  8
PLB-050-30Tw~
  6
Continuous
 62
   148
370
    25
390
1D
100
AcDbLine
 10
-0.059055118110237
 20
1.916880742590546
 30
0.0
 11
-0.059055118110237
 21
1.785183884849572
 31
0.0
  0
ARC
  5
53F
330
A
100
AcDbEntity
  8
PLB-050-30Tw~
  6
Continuous
 62
   148
370
    25
390
1D
100
AcDbCircle
 10
0.0
 20
0.9449758190739556
 30
0.0
 40
0.8905566838831972
100
AcDbArc
 50
108.5703959218647
 51
71.42960407813523
  0
ARC
  5
540
330
A
100
AcDbEntity
  8
PLB-050-30Tw~
  6
Continuous
 62
   148
370
    25
390
1D
100
AcDbCircle
 10
0.0
 20
0.9999999999999999
 30
0.0
 40
0.9615185567568114
100
AcDbArc
 50
96.12711650130102
 51
101.0766694687744
  0
ARC
  5
541
330
A
100
AcDbEntity
  8
PLB-050-30Tw~
  6
Continuous
 62
   148
370
    25
390
1D
100
AcDbCircle
 10
0.0
 20
0.9999999999999999
 30
0.0
 40
0.961518556756812
100
AcDbArc
 50
78.9233305312256
 51
83.87288349869897
  0
LINE
  5
542
330
A
100
AcDbEntity
  8
PLB-050-30Tw~
  6
Continuous
 62
   148
370
    25
390
1D
100
AcDbLine
 10
0.2165354330708658
 20
1.904969752385849
 30
0.0
 11
0.2165354330708658
 21
1.882464465415314
 31
0.0
  0
LINE
  5
543
330
A
100
AcDbEntity
  8
PLB-050-30Tw~
  6
Continuous
 62
   148
370
    25
390
1D
100
AcDbLine
 10
-0.2165354330708666
 20
1.904969752385849
 30
0.0
 11
-0.2165354330708666
 21
1.882464465415314
 31
0.0
  0
ARC
  5
544
330
A
100
AcDbEntity
  8
PLB-050-30Tw~
  6
Continuous
 62
   148
370
    25
390
1D
100
AcDbCircle
 10
0.1771653543307083
 20
1.904969752385849
 30
0.0
 40
0.0393700787401575
100
AcDbArc
 50
0.0
 51
78.9233305312253
  0
ARC
  5
545
330
A
100
AcDbEntity
  8
PLB-050-30Tw~
  6
Continuous
 62
   148
370
    25
390
1D
100
AcDbCircle
 10
0.0984251968503935
 20
1.916880742590546
 30
0.0
 40
0.039370078740158
100
AcDbArc
 50
83.87288349869857
 51
180.0
  0
ARC
  5
546
330
A
100
AcDbEntity
  8
PLB-050-30Tw~
  6
Continuous
 62
   148
370
    25
390
1D
100
AcDbCircle
 10
-0.0984251968503944
 20
1.916880742590546
 30
0.0
 40
0.0393700787401575
100
AcDbArc
 50
0.0
 51
96.12711650130142
  0
ARC
  5
547
330
A
100
AcDbEntity
  8
PLB-050-30Tw~
  6
Continuous
 62
   148
370
    25
390
1D
100
AcDbCircle
 10
-0.1771653543307092
 20
1.904969752385849
 30
0.0
 40
0.0393700787401575
100
AcDbArc
 50
101.0766694687747
 51
180.0
  0
ARC
  5
548
330
A
100
AcDbEntity
  8
PLB-050-30Tw~
  6
Continuous
 62
   148
370
    25
390
1D
100
AcDbCircle
 10
0.3149606299212584
 20
1.882464465415314
 30
0.0
 40
0.0984251968503937
100
AcDbArc
 50
180.0
 51
251.4296040781353
  0
ARC
  5
549
330
A
100
AcDbEntity
  8
PLB-050-30Tw~
  6
Continuous
 62
   148
370
    25
390
1D
100
AcDbCircle
 10
-0.3149606299212602
 20
1.882464465415314
 30
0.0
 40
0.0984251968503941
100
AcDbArc
 50
288.5703959218647
 51
0.0
  0
CIRCLE
  5
54A
330
A
100
AcDbEntity
  8
PLB-050-30Tw~
  6
Continuous
 62
   148
370
    25
390
1D
100
AcDbCircle
 10
-0.1371146437753001
 20
1.872104262751991
 30
0.0
 40
0.0412681356945319
  0
CIRCLE
  5
54B
330
A
100
AcDbEntity
  8
PLB-050-30Tw~
  6
Continuous
 62
   148
370
    25
390
1D
100
AcDbCircle
 10
0.1380062608549188
 20
1.872104262751991
 30
0.0
 40
0.0412681356945319
  0
DIMENSION
  5
54C
330
A
100
AcDbEntity
  8
Dimension
  6
Continuous
 62
     5
370
    15
390
1D
100
AcDbDimension
  2
*D33
 10
-0.528782116266707
 20
2.229712591268247
 30
0.0
 11
2.283482822335331
 21
-2.937007874015748
 31
0.0
 70
     3
 71
     5
 42
-1.0
 73
     0
 74
     0
 75
     0
  3
PLACID-1
100
AcDbDiametricDimension
 15
0.5287821162667061
 25
-0.2297125912682448
 35
0.0
 40
2.94698012624217
1001
ACAD
1000
DSTYLE
1002
{
1070
   172
1070
     0
1070
   289
1070
     0
1070
   342
1005
82
1070
   340
1005
69
1070
    73
1070
     1
1070
    74
1070
     1
1070
    75
1070
     1
1070
    76
1070
     1
1070
    72
1070
     1
1070
    48
1040
0.0007874015748031
1070
     3
1000

1070
   174
1070
     0
1070
   147
1040
0.0787401574804
1002
}
  0
LINE
  5
54D
330
A
100
AcDbEntity
  8
PLB-050-30Tw~
 62
   148
370
    25
390
1D
100
AcDbLine
 10
0.1574803149606296
 20
1.720472440944882
 30
0.0
 11
0.1574803149606296
 21
1.569166625779563
 31
0.0
  0
LINE
  5
54E
330
A
100
AcDbEntity
  8
PLB-050-30Tw~
 62
   148
370
    25
390
1D
100
AcDbLine
 10
-0.1574803149606305
 20
1.720472440944882
 30
0.0
 11
-0.1574803149606305
 21
1.569166625779563
 31
0.0
  0
LINE
  5
54F
330
A
100
AcDbEntity
  8
PLB-050-30Tw~
  6
Continuous
 62
   148
370
    25
390
1D
100
AcDbLine
 10
-0.1574803149606305
 20
1.720472440944882
 30
0.0
 11
0.1574803149606296
 21
1.720472440944882
 31
0.0
  0
ARC
  5
550
330
A
100
AcDbEntity
  8
PLB-050-30Tw~
  6
Continuous
 62
   148
370
    25
390
1D
100
AcDbCircle
 10
0.0
 20
0.9999999999999999
 30
0.0
 40
0.590551181102362
100
AcDbArc
 50
105.4660099534197
 51
74.53399004657854
  0
CIRCLE
  5
551
330
A
100
AcDbEntity
  8
PLB-050-30Tw~
  6
Continuous
 62
   148
370
    25
390
1D
100
AcDbCircle
 10
0.0
 20
0.9999999999999999
 30
0.0
 40
1.338582677165351
  0
INSERT
  5
552
330
A
100
AcDbEntity
  8
None
 62
     7
390
1D
100
AcDbBlockReference
  2
Group-18
 10
-7.321349202237864
 20
-0.1578981112097103
 30
0.0
  0
INSERT
  5
553
330
A
100
AcDbEntity
  8
None
 62
     7
390
1D
100
AcDbBlockReference
  2
Group-19
 10
-7.321349202237864
 20
-0.1578981112097103
 30
0.0
  0
INSERT
  5
554
330
A
100
AcDbEntity
  8
None
 62
     7
390
1D
100
AcDbBlockReference
  2
Group-20
 10
-7.321349202237864
 20
-0.1578981112097103
 30
0.0
  0
MTEXT
  5
555
330
A
100
AcDbEntity
  8
None
 62
     7
390
1D
100
AcDbMText
 10
-16.14958804380628
 20
-5.333249192930341
 30
0.0
 40
0.2490725481020299
 41
0.0
 46
0.0
 71
     1
 72
     1
  1
SHAFT
  7
Helvetica
 73
     1
 44
0.8397955333929318
  0
MTEXT
  5
556
330
A
100
AcDbEntity
  8
None
 62
     7
390
1D
100
AcDbMText
 10
-19.64565103593227
 20
-9.077781432115797
 30
0.0
 40
0.2964959518445185
 41
0.0
 46
0.0
 71
     1
 72
     1
  1
Units : inches\PScale : 40%
  7
Helvetica
 73
     1
 44
0.8397955333929318
  0
MTEXT
  5
557
330
A
100
AcDbEntity
  8
None
 62
     7
390
1D
100
AcDbMText
 10
-10.1302135445733
 20
-9.209563248530642
 30
0.0
 40
0.2223719637833215
 41
2.858888796809615
 46
0.0
 71
     1
 72
     1
  1
Drawn      10/8/12\PChanged  10/17/12
  7
Helvetica
 73
     1
 44
0.8397955333929319
  0
INSERT
  5
558
330
A
100
AcDbEntity
  8
None
 62
     7
390
1D
100
AcDbBlockReference
  2
Group-31
 10
-7.321349202237864
 20
-0.1578981112097103
 30
0.0
  0
LINE
  5
559
330
A
100
AcDbEntity
  8
None
  6
STYLE_09
 62
     5
370
    15
390
1D
100
AcDbLine
 10
-9.829124730564564
 20
0.9999999999999999
 30
0.0
 11
-6.679518431351966
 21
0.9999999999999999
 31
0.0
  0
LINE
  5
55A
330
A
100
AcDbEntity
  8
PLB-050-30Tw~
 62
   148
370
    25
390
1D
100
AcDbLine
 10
-12.0082037432443
 20
-6.102362204724415
 30
0.0
 11
-12.06725886135454
 21
-6.043307086614178
 31
0.0
  0
LINE
  5
55B
330
A
100
AcDbEntity
  8
PLB-050-30Tw~
 62
   148
370
    25
390
1D
100
AcDbLine
 10
-11.90977854639391
 20
-6.102362204724415
 30
0.0
 11
-11.33744178032748
 21
-6.102362204724415
 31
0.0
  0
LINE
  5
55C
330
A
100
AcDbEntity
  8
PLB-050-30Tw~
 62
   148
370
    25
390
1D
100
AcDbLine
 10
-11.95308563300808
 20
-6.082677165354338
 30
0.0
 11
-11.95308563300808
 21
-6.102362204724412
 31
0.0
  0
LINE
  5
55D
330
A
100
AcDbEntity
  8
PLB-050-30Tw~
 62
   148
370
    25
390
1D
100
AcDbLine
 10
-11.90977854639391
 20
-6.082677165354336
 30
0.0
 11
-11.90977854639391
 21
-6.102362204724412
 31
0.0
  0
LINE
  5
55E
330
A
100
AcDbEntity
  8
PLB-050-30Tw~
 62
   148
370
    25
390
1D
100
AcDbLine
 10
-11.95308563300809
 20
-6.082677165354338
 30
0.0
 11
-11.90977854639391
 21
-6.082677165354336
 31
0.0
  0
LINE
  5
55F
330
A
100
AcDbEntity
  8
PLB-050-30Tw~
 62
   148
370
    25
390
1D
100
AcDbLine
 10
-12.06725886135454
 20
-5.885595746510708
 30
0.0
 11
-12.06725886135454
 21
-6.04330708661418
 31
0.0
  0
LINE
  5
560
330
A
100
AcDbEntity
  8
PLB-050-30Tw~
 62
   148
370
    25
390
1D
100
AcDbLine
 10
-12.06725886135454
 20
-5.885595746510708
 30
0.0
 11
-11.98851870387423
 21
-5.885595746510708
 31
0.0
  0
LINE
  5
561
330
A
100
AcDbEntity
  8
PLB-050-30Tw~
 62
   148
370
    25
390
1D
100
AcDbLine
 10
-11.91765256214195
 20
-5.885595746510708
 30
0.0
 11
-11.91765256214195
 21
-5.924965825250865
 31
0.0
  0
LINE
  5
562
330
A
100
AcDbEntity
  8
PLB-050-30Tw~
 62
   148
370
    25
390
1D
100
AcDbLine
 10
-11.98851870387423
 20
-5.924965825250865
 30
0.0
 11
-11.91765256214195
 21
-5.924965825250865
 31
0.0
  0
LINE
  5
563
330
A
100
AcDbEntity
  8
PLB-050-30Tw~
 62
   148
370
    25
390
1D
100
AcDbLine
 10
-12.0082037432443
 20
-6.102362204724415
 30
0.0
 11
-11.95308563300808
 21
-6.102362204724415
 31
0.0
  0
LINE
  5
564
330
A
100
AcDbEntity
  8
PLB-050-30Tw~
 62
   148
370
    25
390
1D
100
AcDbLine
 10
-11.40896046569868
 20
-5.885595746510708
 30
0.0
 11
-11.91772491922674
 21
-5.88559574651071
 31
0.0
  0
LINE
  5
565
330
A
100
AcDbEntity
  8
None
  6
STYLE_09
 62
     5
370
    15
390
1D
100
AcDbLine
 10
-12.28344631152283
 20
-6.692913385826772
 30
0.0
 11
-11.1023439493181
 21
-6.692913385826772
 31
0.0
  0
LINE
  5
566
330
A
100
AcDbEntity
  8
None
  6
Continuous
 62
     7
370
    25
390
1D
100
AcDbLine
 10
-11.98851870387423
 20
-5.885595746510708
 30
0.0
 11
-11.98851870387423
 21
-5.924965825250865
 31
0.0
  0
LINE
  5
567
330
A
100
AcDbEntity
  8
None
  6
Continuous
 62
     7
370
    25
390
1D
100
AcDbLine
 10
-11.95308563300808
 20
-6.102362204724415
 30
0.0
 11
-11.95308563300808
 21
-6.692913385826772
 31
0.0
  0
LINE
  5
568
330
A
100
AcDbEntity
  8
None
  6
Continuous
 62
     7
370
    25
390
1D
100
AcDbLine
 10
-11.90977854639391
 20
-6.102362204724415
 30
0.0
 11
-11.90977854639391
 21
-6.692913385826772
 31
0.0
  0
LINE
  5
569
330
A
100
AcDbEntity
  8
None
  6
Continuous
 62
     7
370
    25
390
1D
100
AcDbLine
 10
-12.0082037432443
 20
-6.102362204724415
 30
0.0
 11
-12.0082037432443
 21
-6.692913385826772
 31
0.0
  0
LINE
  5
56A
330
A
100
AcDbEntity
  8
None
  6
Continuous
 62
     7
370
    25
390
1D
100
AcDbLine
 10
-12.06725886135454
 20
-6.04330708661418
 30
0.0
 11
-12.06725886135454
 21
-6.692913385826772
 31
0.0
  0
DIMENSION
  5
56B
330
A
100
AcDbEntity
  8
Dimension
  6
Continuous
 62
     5
370
    15
390
1D
100
AcDbDimension
  2
*D48
 10
-11.90977854639391
 20
-7.576552930883534
 30
0.0
 11
-11.25982426427874
 21
-7.478127734033034
 31
0.0
 70
   128
 71
     5
 42
-1.0
 73
     0
 74
     0
 75
     0
  3
PLACID-1
100
AcDbAlignedDimension
 13
-11.95308563300808
 23
-6.692913385826772
 33
0.0
 14
-11.90977854639391
 24
-6.692913385826772
 34
0.0
100
AcDbRotatedDimension
1001
ACAD
1000
DSTYLE
1002
{
1070
   279
1070
     2
1070
   340
1005
69
1070
   140
1040
0.1992580384816237
1070
     3
1000
<> x Ø1.220
1070
   174
1070
     0
1070
   147
1040
0.0984251968505
1002
}
  0
DIMENSION
  5
56C
330
A
100
AcDbEntity
  8
Dimension
  6
Continuous
 62
     5
370
    15
390
1D
100
AcDbDimension
  2
*D49
 10
-12.06725886135454
 20
-6.987956029968626
 30
0.0
 11
-12.6771470989244
 21
-6.889530833118126
 31
0.0
 70
   128
 71
     5
 42
-1.0
 73
     0
 74
     0
 75
     0
  3
PLACID-1
100
AcDbAlignedDimension
 13
-11.95308563300808
 23
-6.692913385826772
 33
0.0
 14
-12.06725886135454
 24
-6.692913385826772
 34
0.0
100
AcDbRotatedDimension
1001
ACAD
1000
DSTYLE
1002
{
1070
   279
1070
     2
1070
   340
1005
69
1070
   140
1040
0.1992580384816237
1070
   174
1070
     0
1070
   147
1040
0.0984251968505
1002
}
  0
MTEXT
  5
56D
330
A
100
AcDbEntity
  8
None
 62
     5
390
1D
100
AcDbMText
 10
-12.73258752604876
 20
-7.963216801635719
 30
0.0
 40
0.1992580384816237
 41
0.0
 46
0.0
 71
     1
 72
     1
  1
BOTH ENDS
  7
Helvetica
 73
     1
 44
0.8397955333929318
  0
MTEXT
  5
56E
330
A
100
AcDbEntity
  8
None
 62
     7
390
1D
100
AcDbMText
 10
-13.14171402805824
 20
-5.333249192930341
 30
0.0
 40
0.2490725481020299
 41
0.0
 46
0.0
 71
     1
 72
     1
  1
SHAFT GROOVES
  7
Helvetica
 73
     1
 44
0.8397955333929318
  0
ARC
  5
56F
330
A
100
AcDbEntity
  8
None
  6
Continuous
 62
     7
370
    25
390
1D
100
AcDbCircle
 10
-15.70864316191653
 20
0.9999999999999999
 30
0.0
 40
3.149606299212597
100
AcDbArc
 50
126.216125381906
 51
113.7838746180939
  0
INSERT
  5
570
330
A
100
AcDbEntity
  8
Dimension
 62
     7
390
1D
100
AcDbBlockReference
  2
Group-32
 10
-7.321349202237864
 20
-0.1578981112097103
 30
0.0
  0
LINE
  5
571
330
A
100
AcDbEntity
  8
None
  6
STYLE_09
 62
     5
370
    15
390
1D
100
AcDbLine
 10
0.0
 20
0.9999999999999999
 30
0.0
 11
1.811023622047249
 21
4.136784927093237
 31
0.0
  0
INSERT
  5
572
330
A
100
AcDbEntity
  8
Dimension
 62
     7
390
1D
100
AcDbBlockReference
  2
Group-33
 10
-7.321349202237864
 20
-0.1578981112097103
 30
0.0
  0
DIMENSION
  5
573
330
A
100
AcDbEntity
  8
Dimension
  6
Continuous
 62
     5
370
    15
390
1D
100
AcDbDimension
  2
*D52
 10
1.133282272893108
 20
5.229467021754198
 30
0.0
 11
1.15875658835598
 21
5.324538461349681
 31
0.0
 70
   133
 71
     5
 42
-1.0
 73
     0
 74
     0
 75
     0
  3
PLACID-1
100
AcDb3PointAngularDimension
 13
0.0
 23
4.917322834645736
 33
0.0
 14
1.811023622047249
 24
4.136784927093237
 34
0.0
 15
0.0
 25
0.9999999999999999
 35
0.0
1001
ACAD
1000
DSTYLE
1002
{
1070
   179
1070
     0
1070
   279
1070
     2
1070
   342
1005
82
1070
   340
1005
69
1070
   140
1040
0.1992580384816237
1070
    73
1070
     1
1070
    74
1070
     1
1070
     3
1000
<> 
1070
   147
1040
0.0984251968505
1002
}
  0
INSERT
  5
574
330
A
100
AcDbEntity
  8
None
 62
     7
390
1D
100
AcDbBlockReference
  2
Group-34
 10
-7.321349202237864
 20
-0.1578981112097103
 30
0.0
  0
INSERT
  5
575
330
A
100
AcDbEntity
  8
None
 62
     7
390
1D
100
AcDbBlockReference
  2
Group-36
 10
-7.321349202237864
 20
-0.1578981112097103
 30
0.0
  0
INSERT
  5
576
330
A
100
AcDbEntity
  8
None
 62
     7
390
1D
100
AcDbBlockReference
  2
Group-38
 10
-7.321349202237864
 20
-0.1578981112097103
 30
0.0
  0
DIMENSION
  5
577
330
A
100
AcDbEntity
  8
Dimension
  6
Continuous
 62
     5
370
    15
390
1D
100
AcDbDimension
  2
*D58
 10
-9.613015783948887
 20
-4.354330708661418
 30
0.0
 11
-8.372858303633922
 21
-4.354330708661418
 31
0.0
 70
    32
 71
     5
 42
-1.0
 73
     0
 74
     0
 75
     0
  3
PLACID-1
100
AcDbAlignedDimension
 13
-7.132700823318957
 23
-2.031496062992132
 33
0.0
 14
-9.613015783948887
 24
-1.992125984251974
 34
0.0
100
AcDbRotatedDimension
1001
ACAD
1000
DSTYLE
1002
{
1070
   271
1070
     2
1070
   279
1070
     2
1070
   340
1005
69
1070
   140
1040
0.1992580384816237
1070
   147
1040
0.0984251968505
1002
}
  0
MTEXT
  5
578
330
A
100
AcDbEntity
  8
0
 62
     5
390
1D
100
AcDbMText
 10
4.550157825926179
 20
1.602112369190274
 30
0.0
 40
0.1992580384816239
 41
1.811023622047244
 46
0.0
 71
     2
 72
     1
  1
1/8-19 BSPT\PCOOLING\PAIR PORT
  7
Helvetica
 73
     1
 44
0.9447699750670482
  0
INSERT
  5
579
330
A
100
AcDbEntity
  8
None
 62
     7
390
1D
100
AcDbBlockReference
  2
Group-39
 10
-7.321349202237864
 20
-0.1578981112097103
 30
0.0
  0
CIRCLE
  5
57A
330
A
100
AcDbEntity
  8
PLB-050-30Tw~
  6
Continuous
 62
   148
370
    25
390
1D
100
AcDbCircle
 10
0.0
 20
0.9999999999999999
 30
0.0
 40
3.622047244094486
  0
MTEXT
  5
57B
330
A
100
AcDbEntity
  8
DRAWING
 62
     5
390
1D
100
AcDbMText
 10
-4.503937007874018
 20
1.268833716521869
 30
0.0
 40
0.1992580384816239
 41
1.496062992125984
 46
0.0
 71
     2
 72
     1
  1
COOLING AIR EXIT
  7
Helvetica
 73
     1
 44
0.9447699750670482
  0
MTEXT
  5
57C
330
A
100
AcDbEntity
  8
None
 62
     5
390
1D
100
AcDbMText
 10
-17.95275590551181
 20
-8.046126913399391
 30
0.0
 40
0.1992580384816237
 41
0.0
 46
0.0
 71
     1
 72
     1
  1
30 mm
  7
Helvetica
 73
     1
 44
0.8397955333929318
  0
MTEXT
  5
57D
330
A
100
AcDbEntity
  8
None
 62
     5
390
1D
100
AcDbMText
 10
-18.18186789151357
 20
-5.582145347209518
 30
0.0
 40
0.1992580384816237
 41
0.0
 46
0.0
 71
     1
 72
     1
  1
8 mm
  7
Helvetica
 73
     1
 44
0.8397955333929318
  0
INSERT
  5
57E
330
A
100
AcDbEntity
  8
None
 62
     7
390
1D
100
AcDbBlockReference
  2
Group-40
 10
-7.321349202237864
 20
-0.1578981112097103
 30
0.0
  0
INSERT
  5
57F
330
A
100
AcDbEntity
  8
None
 62
     7
390
1D
100
AcDbBlockReference
  2
Group-41
 10
-7.321349202237864
 20
-0.1578981112097103
 30
0.0
  0
INSERT
  5
580
330
A
100
AcDbEntity
  8
None
 62
     7
390
1D
100
AcDbBlockReference
  2
Group-42
 10
-7.321349202237864
 20
-0.1578981112097103
 30
0.0
  0
INSERT
  5
581
330
A
100
AcDbEntity
  8
None
 62
     7
390
1D
100
AcDbBlockReference
  2
Group-43
 10
-7.321349202237864
 20
-0.1578981112097103
 30
0.0
  0
INSERT
  5
582
330
A
100
AcDbEntity
  8
None
 62
     7
390
1D
100
AcDbBlockReference
  2
Group-44
 10
-7.321349202237864
 20
-0.1578981112097103
 30
0.0
  0
INSERT
  5
583
330
A
100
AcDbEntity
  8
None
 62
     7
390
1D
100
AcDbBlockReference
  2
Group-45
 10
-7.321349202237864
 20
-0.1578981112097103
 30
0.0
  0
POLYLINE
  5
584
330
A
100
AcDbEntity
  8
DRAWING
  6
Continuous
 62
     7
370
    35
390
1D
100
AcDb2dPolyline
 66
     1
 10
0.0
 20
0.0
 30
0.0
 70
     1
 75
     5
  0
VERTEX
  5
585
330
584
100
AcDbEntity
  8
DRAWING
  6
Continuous
 62
     7
370
    35
390
1D
100
AcDbVertex
100
AcDb2dVertex
 10
-3.969784862391236
 20
-5.947204500000002
 30
0.0
  0
VERTEX
  5
586
330
584
100
AcDbEntity
  8
DRAWING
  6
Continuous
 62
     7
370
    35
390
1D
100
AcDbVertex
100
AcDb2dVertex
 10
-1.719784862391236
 20
-5.947204500000002
 30
0.0
  0
VERTEX
  5
587
330
584
100
AcDbEntity
  8
DRAWING
  6
Continuous
 62
     7
370
    35
390
1D
100
AcDbVertex
100
AcDb2dVertex
 10
-1.719784862391236
 20
-6.222795500000001
 30
0.0
  0
VERTEX
  5
588
330
584
100
AcDbEntity
  8
DRAWING
  6
Continuous
 62
     7
370
    35
390
1D
100
AcDbVertex
100
AcDb2dVertex
 10
-3.969784862391236
 20
-6.222795500000001
 30
0.0
  0
SEQEND
  5
589
330
584
100
AcDbEntity
  8
DRAWING
  6
Continuous
 62
     7
370
    35
390
1D
  0
POLYLINE
  5
58B
330
A
100
AcDbEntity
  8
DRAWING
  6
Continuous
 62
     7
370
    35
390
1D
100
AcDb2dPolyline
 66
     1
 10
0.0
 20
0.0
 30
0.0
 70
     1
 75
     5
  0
VERTEX
  5
58C
330
58B
100
AcDbEntity
  8
DRAWING
  6
Continuous
 62
     7
370
    35
390
1D
100
AcDbVertex
100
AcDb2dVertex
 10
-5.400082864583335
 20
-5.947000000000001
 30
0.0
  0
VERTEX
  5
58D
330
58B
100
AcDbEntity
  8
DRAWING
  6
Continuous
 62
     7
370
    35
390
1D
100
AcDbVertex
100
AcDb2dVertex
 10
-5.085082864583335
 20
-5.947000000000001
 30
0.0
  0
VERTEX
  5
58E
330
58B
100
AcDbEntity
  8
DRAWING
  6
Continuous
 62
     7
370
    35
390
1D
100
AcDbVertex
100
AcDb2dVertex
 10
-5.085082864583335
 20
-6.223000000000002
 30
0.0
  0
VERTEX
  5
58F
330
58B
100
AcDbEntity
  8
DRAWING
  6
Continuous
 62
     7
370
    35
390
1D
100
AcDbVertex
100
AcDb2dVertex
 10
-5.400082864583335
 20
-6.223000000000002
 30
0.0
  0
SEQEND
  5
590
330
58B
100
AcDbEntity
  8
DRAWING
  6
Continuous
 62
     7
370
    35
390
1D
  0
LINE
  5
592
330
A
100
AcDbEntity
  8
DRAWING
  6
Continuous
 62
     7
370
    35
390
1D
100
AcDbLine
 10
-5.414498946083334
 20
-7.295251520656571
 30
0.0
 11
-5.414498946083334
 21
-6.696654626564265
 31
0.0
  0
LINE
  5
593
330
A
100
AcDbEntity
  8
DRAWING
  6
Continuous
 62
     7
370
    35
390
1D
100
AcDbLine
 10
-5.070666783083335
 20
-6.696654626564265
 30
0.0
 11
-5.070666783083334
 21
-7.295251520656571
 31
0.0
  0
ARC
  5
594
330
A
100
AcDbEntity
  8
DRAWING
  6
Continuous
 62
     7
370
    35
390
1D
100
AcDbCircle
 10
-5.242582864583335
 20
-6.696654626564265
 30
0.0
 40
0.1719160814999995
100
AcDbArc
 50
0.0
 51
180.0
  0
INSERT
  5
595
330
A
100
AcDbEntity
  8
DRAWING
 62
     7
390
1D
100
AcDbBlockReference
  2
Group-46
 10
-7.321349202237864
 20
-0.1578981112097103
 30
0.0
  0
INSERT
  5
596
330
A
100
AcDbEntity
  8
DRAWING
 62
     7
390
1D
100
AcDbBlockReference
  2
Group-47
 10
-7.321349202237864
 20
-0.1578981112097103
 30
0.0
  0
LINE
  5
597
330
A
100
AcDbEntity
  8
DRAWING
  6
Continuous
 62
     7
370
    35
390
1D
100
AcDbLine
 10
-5.414498946083334
 20
-7.412464483437526
 30
0.0
 11
-5.414498946083334
 21
-7.674931783437525
 31
0.0
  0
LINE
  5
598
330
A
100
AcDbEntity
  8
DRAWING
  6
Continuous
 62
     7
370
    35
390
1D
100
AcDbLine
 10
-5.070666783083334
 20
-7.412464483437526
 30
0.0
 11
-5.070666783083334
 21
-7.674931783437525
 31
0.0
  0
DIMENSION
  5
599
330
A
100
AcDbEntity
  8
Dimension
  6
Continuous
 62
     5
370
    15
390
1D
100
AcDbDimension
  2
*D68
 10
-5.400082864583335
 20
-5.379500000000001
 30
0.0
 11
-6.226852864583334
 21
-5.379500000000001
 31
0.0
 70
   128
 71
     5
 42
-1.0
 73
     0
 74
     0
 75
     0
  3
Placid
100
AcDbAlignedDimension
 13
-5.085082864583335
 23
-5.947000000000001
 33
0.0
 14
-5.400082864583335
 24
-5.947000000000001
 34
0.0
100
AcDbRotatedDimension
1001
ACAD
1000
DSTYLE
1002
{
1070
   271
1070
     4
1070
   340
1005
69
1070
    72
1070
     1
1070
    47
1040
-0.0003
1070
    48
1040
0.001
1070
   174
1070
     0
1070
   147
1040
0.0390625
1002
}
  0
DIMENSION
  5
59A
330
A
100
AcDbEntity
  8
Dimension
  6
Continuous
 62
     5
370
    15
390
1D
100
AcDbDimension
  2
*D69
 10
-3.969784862391236
 20
-5.35397709840766
 30
0.0
 11
-2.844784862391236
 21
-5.35397709840766
 31
0.0
 70
    32
 71
     5
 42
-1.0
 73
     0
 74
     0
 75
     0
  3
Placid
100
AcDbAlignedDimension
 13
-1.719784862391236
 23
-5.947204500000002
 33
0.0
 14
-3.969784862391236
 24
-5.947204500000002
 34
0.0
100
AcDbRotatedDimension
1001
ACAD
1000
DSTYLE
1002
{
1070
   271
1070
     2
1070
   340
1005
69
1070
   147
1040
0.0390625
1002
}
  0
MTEXT
  5
59B
330
A
100
AcDbEntity
  8
DRAWING
 62
     5
390
1D
100
AcDbMText
 10
-2.711142431195618
 20
-6.494630850407265
 30
0.0
 40
0.1992580384816239
 41
3.622284862391236
 46
0.0
 71
     2
 72
     1
  1
RECOMMENDED CUSTOMER SHAFT KEYWAY HEIGHT: \P1.130 / 1.120
  7
Helvetica
 73
     1
 44
0.8397955333929318
  0
MTEXT
  5
59C
330
A
100
AcDbEntity
  8
DRAWING
 62
     7
390
1D
100
AcDbMText
 10
-3.453500140169014
 20
-4.549784626001207
 30
0.0
 40
0.2490725481020299
 41
4.617569444444446
 46
0.0
 71
     2
 72
     1
  1
7 x 8 mm KEY
  7
Helvetica
 73
     1
 44
0.8397955333929318
  0
DIMENSION
  5
59D
330
A
100
AcDbEntity
  8
Dimension
  6
Continuous
 62
     5
370
    15
390
1D
100
AcDbDimension
  2
*D70
 10
-0.6000000000000005
 20
-6.222795500000001
 30
0.0
 11
-0.6000000000000005
 21
-5.199999999999999
 31
0.0
 70
   128
 71
     5
 42
-1.0
 73
     0
 74
     0
 75
     0
  3
Placid
100
AcDbAlignedDimension
 13
-1.719784862391236
 23
-5.947204500000002
 33
0.0
 14
-1.719784862391236
 24
-6.222795500000001
 34
0.0
 50
-90.0
100
AcDbRotatedDimension
1001
ACAD
1000
DSTYLE
1002
{
1070
   340
1005
69
1070
     3
1000
<> (7 mm)
1070
   174
1070
     0
1070
   147
1040
0.0390625
1002
}
  0
MTEXT
  5
59E
330
A
100
AcDbEntity
  8
None
 62
     5
390
1D
100
AcDbMText
 10
-6.921975477430557
 20
-5.82474108662773
 30
0.0
 40
0.1992580384816237
 41
0.0
 46
0.0
 71
     1
 72
     1
  1
8 mm
  7
Helvetica
 73
     1
 44
0.8397955333929318
  0
ENDSEC
  0
SECTION
  2
OBJECTS
  0
DICTIONARY
  5
19
330
0
100
AcDbDictionary
281
     1
  3
ACAD_GROUP
350
1A
  3
ACAD_LAYOUT
350
1E
  3
ACAD_MLEADERSTYLE
350
5CF
  3
ACAD_MLINESTYLE
350
1B
  3
ACAD_PLOTSETTINGS
350
22
  3
ACAD_PLOTSTYLENAME
350
1F
  3
ACAD_SCALELIST
350
59F
  3
ACAD_TABLESTYLE
350
5CE
  3
AcDbVariableDictionary
350
5D0
  0
DICTIONARY
  5
1A
102
{ACAD_REACTORS
330
19
102
}
330
19
100
AcDbDictionary
281
     1
  0
DICTIONARY
  5
1E
102
{ACAD_REACTORS
330
19
102
}
330
19
100
AcDbDictionary
281
     1
  3
Layout1
350
21
  3
Model
350
20
  0
DICTIONARY
  5
5CF
102
{ACAD_REACTORS
330
19
102
}
330
19
100
AcDbDictionary
281
     1
  0
DICTIONARY
  5
1B
102
{ACAD_REACTORS
330
19
102
}
330
19
100
AcDbDictionary
281
     1
  3
Standard
350
1C
  0
DICTIONARY
  5
22
102
{ACAD_REACTORS
330
19
102
}
330
19
100
AcDbDictionary
281
     1
  0
ACDBDICTIONARYWDFLT
  5
1F
102
{ACAD_REACTORS
330
19
102
}
330
19
100
AcDbDictionary
281
     1
  3
Normal
350
1D
100
AcDbDictionaryWithDefault
340
1D
  0
DICTIONARY
  5
59F
102
{ACAD_REACTORS
330
19
102
}
330
19
100
AcDbDictionary
281
     1
  3
A0
350
5C1
  3
A1
350
5C2
  3
A2
350
5C3
  3
A3
350
5C4
  3
A4
350
5C5
  3
A5
350
5C6
  3
A6
350
5C7
  3
A7
350
5C8
  3
A8
350
5C9
  3
A9
350
5CA
  3
B0
350
5CB
  3
B1
350
5CC
  3
B2
350
5CD
  0
DICTIONARY
  5
5CE
102
{ACAD_REACTORS
330
19
102
}
330
19
100
AcDbDictionary
281
     1
  0
DICTIONARY
  5
5D0
102
{ACAD_REACTORS
330
19
102
}
330
19
100
AcDbDictionary
281
     1
  3
CANNOSCALE
350
5D1
  0
LAYOUT
  5
21
102
{ACAD_REACTORS
330
1E
102
}
330
1E
100
AcDbPlotSettings
  1

  2

  4

  6

 40
0.0
 41
0.0
 42
0.0
 43
0.0
 44
0.0
 45
0.0
 46
0.0
 47
0.0
 48
0.0
 49
0.0
140
0.0
141
0.0
142
1.0
143
1.0
 70
     0
 72
     0
 73
     0
 74
     0
  7

 75
     0
 76
     0
 77
     2
 78
   300
147
1.0
148
0.0
149
0.0
100
AcDbLayout
  1
Layout1
 70
     0
 71
     0
 10
0.0
 20
0.0
 11
0.0
 21
0.0
 12
0.0
 22
0.0
 32
0.0
 14
0.0
 24
0.0
 34
0.0
 15
0.0
 25
0.0
 35
0.0
146
0.0
 13
0.0
 23
0.0
 33
0.0
 16
0.0
 26
0.0
 36
0.0
 17
0.0
 27
0.0
 37
0.0
 76
     0
330
B
  0
LAYOUT
  5
20
102
{ACAD_REACTORS
330
1E
102
}
330
1E
100
AcDbPlotSettings
  1

  2

  4

  6

 40
0.0
 41
0.0
 42
0.0
 43
0.0
 44
0.0
 45
0.0
 46
0.0
 47
0.0
 48
0.0
 49
0.0
140
0.0
141
0.0
142
1.0
143
1.0
 70
  1024
 72
     0
 73
     0
 74
     0
  7

 75
     0
 76
     0
 77
     2
 78
   300
147
1.0
148
0.0
149
0.0
100
AcDbLayout
  1
Model
 70
     0
 71
     0
 10
0.0
 20
0.0
 11
0.0
 21
0.0
 12
0.0
 22
0.0
 32
0.0
 14
0.0
 24
0.0
 34
0.0
 15
0.0
 25
0.0
 35
0.0
146
0.0
 13
0.0
 23
0.0
 33
0.0
 16
0.0
 26
0.0
 36
0.0
 17
0.0
 27
0.0
 37
0.0
 76
     0
330
A
331
15
  0
MLINESTYLE
  5
1C
102
{ACAD_REACTORS
330
1B
102
}
330
1B
100
AcDbMlineStyle
  2
Standard
 70
     0
  3

 62
     0
 51
90.0
 52
90.0
 71
     2
 49
0.5
 62
   256
  6
BYLAYER
 49
-0.5
 62
   256
  6
BYLAYER
  0
ACDBPLACEHOLDER
  5
1D
102
{ACAD_REACTORS
330
1F
102
}
330
1F
  0
SCALE
  5
5C1
102
{ACAD_REACTORS
330
59F
102
}
330
59F
100
AcDbScale
 70
     0
300
1'-0" = 1'-0"
140
12.0
141
12.0
290
     0
  0
SCALE
  5
5C2
102
{ACAD_REACTORS
330
59F
102
}
330
59F
100
AcDbScale
 70
     0
300
1/64" = 1'-0"
140
0.015625
141
12.0
290
     0
  0
SCALE
  5
5C3
102
{ACAD_REACTORS
330
59F
102
}
330
59F
100
AcDbScale
 70
     0
300
1/32" = 1'-0"
140
0.03125
141
12.0
290
     0
  0
SCALE
  5
5C4
102
{ACAD_REACTORS
330
59F
102
}
330
59F
100
AcDbScale
 70
     0
300
1/16" = 1'-0"
140
0.0625
141
12.0
290
     0
  0
SCALE
  5
5C5
102
{ACAD_REACTORS
330
59F
102
}
330
59F
100
AcDbScale
 70
     0
300
3/32" = 1'-0"
140
0.09375
141
12.0
290
     0
  0
SCALE
  5
5C6
102
{ACAD_REACTORS
330
59F
102
}
330
59F
100
AcDbScale
 70
     0
300
1/8" = 1'-0"
140
0.125
141
12.0
290
     0
  0
SCALE
  5
5C7
102
{ACAD_REACTORS
330
59F
102
}
330
59F
100
AcDbScale
 70
     0
300
3/16" = 1'-0"
140
0.1875
141
12.0
290
     0
  0
SCALE
  5
5C8
102
{ACAD_REACTORS
330
59F
102
}
330
59F
100
AcDbScale
 70
     0
300
1/4" = 1'-0"
140
0.25
141
12.0
290
     0
  0
SCALE
  5
5C9
102
{ACAD_REACTORS
330
59F
102
}
330
59F
100
AcDbScale
 70
     0
300
3/8" = 1'-0"
140
0.375
141
12.0
290
     0
  0
SCALE
  5
5CA
102
{ACAD_REACTORS
330
59F
102
}
330
59F
100
AcDbScale
 70
     0
300
1" = 1'-0"
140
1.0
141
12.0
290
     0
  0
SCALE
  5
5CB
102
{ACAD_REACTORS
330
59F
102
}
330
59F
100
AcDbScale
 70
     0
300
1 1/2" = 1'-0"
140
1.5
141
12.0
290
     0
  0
SCALE
  5
5CC
102
{ACAD_REACTORS
330
59F
102
}
330
59F
100
AcDbScale
 70
     0
300
3" = 1'-0"
140
3.0
141
12.0
290
     0
  0
SCALE
  5
5CD
102
{ACAD_REACTORS
330
59F
102
}
330
59F
100
AcDbScale
 70
     0
300
6" = 1'-0"
140
6.0
141
12.0
290
     0
  0
DICTIONARYVAR
  5
5D1
102
{ACAD_REACTORS
330
5D0
102
}
330
5D0
100
DictionaryVariables
280
     0
  1
1'-0" = 1'-0"
  0
ENDSEC
  0
EOF
