  0
SECTION
  2
HEADER
  9
$ACADVER
  1
AC1021
  9
$ACADMAINTVER
 70
    25
  9
$DWGCODEPAGE
  3
ANSI_1252
  9
$INSBASE
 10
0.0
 20
0.0
 30
0.0
  9
$EXTMIN
 10
-5.978016919692099
 20
-4.781865261358483
 30
-0.2133333333333333
  9
$EXTMAX
 10
34.04490941798939
 20
26.12671769924601
 30
0.2133333333333333
  9
$LIMMIN
 10
0.0
 20
0.0
  9
$LIMMAX
 10
0.0
 20
0.0
  9
$ORTHOMODE
 70
     0
  9
$REGENMODE
 70
     1
  9
$FILLMODE
 70
     1
  9
$QTEXTMODE
 70
     0
  9
$MIRRTEXT
 70
     1
  9
$LTSCALE
 40
0.2
  9
$ATTMODE
 70
     1
  9
$TEXTSIZE
 40
0.2
  9
$TRACEWID
 40
1.0
  9
$TEXTSTYLE
  7
Standard
  9
$CLAYER
  8
DRAWING
  9
$CELTYPE
  6
Continuous
  9
$CECOLOR
 62
   256
  9
$CELTSCALE
 40
1.0
  9
$DISPSILH
 70
     0
  9
$DIMSCALE
 40
1.0
  9
$DIMASZ
 40
0.125
  9
$DIMEXO
 40
0.05
  9
$DIMDLI
 40
0.27559
  9
$DIMRND
 40
0.0
  9
$DIMDLE
 40
0.0
  9
$DIMEXE
 40
0.078740157480315
  9
$DIMTP
 40
0.0
  9
$DIMTM
 40
0.0
  9
$DIMTXT
 40
0.3188128615705982
  9
$DIMCEN
 40
0.0
  9
$DIMTSZ
 40
0.0
  9
$DIMTOL
 70
     0
  9
$DIMLIM
 70
     0
  9
$DIMTIH
 70
     1
  9
$DIMTOH
 70
     1
  9
$DIMSE1
 70
     0
  9
$DIMSE2
 70
     0
  9
$DIMTAD
 70
     0
  9
$DIMZIN
 70
     7
  9
$DIMBLK
  1
VW_FILLEDARROW
  9
$DIMASO
 70
     1
  9
$DIMSHO
 70
     1
  9
$DIMPOST
  1
<>
  9
$DIMAPOST
  1
[]
  9
$DIMALT
 70
     0
  9
$DIMALTD
 70
     1
  9
$DIMALTF
 40
25.4
  9
$DIMLFAC
 40
1.0
  9
$DIMTOFL
 70
     1
  9
$DIMTVP
 40
0.0
  9
$DIMTIX
 70
     1
  9
$DIMSOXD
 70
     0
  9
$DIMSAH
 70
     0
  9
$DIMBLK1
  1

  9
$DIMBLK2
  1

  9
$DIMSTYLE
  2
Placid2
  9
$DIMCLRD
 70
     0
  9
$DIMCLRE
 70
     0
  9
$DIMCLRT
 70
     0
  9
$DIMTFAC
 40
1.0
  9
$DIMGAP
 40
0.0
  9
$DIMJUST
 70
     0
  9
$DIMSD1
 70
     0
  9
$DIMSD2
 70
     0
  9
$DIMTOLJ
 70
     1
  9
$DIMTZIN
 70
     7
  9
$DIMALTZ
 70
    11
  9
$DIMALTTZ
 70
    11
  9
$DIMUPT
 70
     0
  9
$DIMDEC
 70
     3
  9
$DIMTDEC
 70
     3
  9
$DIMALTU
 70
     2
  9
$DIMALTTD
 70
     2
  9
$DIMTXSTY
  7
Helvetica
  9
$DIMAUNIT
 70
     0
  9
$DIMADEC
 70
     2
  9
$DIMALTRND
 40
0.0
  9
$DIMAZIN
 70
     0
  9
$DIMDSEP
 70
    46
  9
$DIMATFIT
 70
     0
  9
$DIMFRAC
 70
     2
  9
$DIMLDRBLK
  1

  9
$DIMLUNIT
 70
     2
  9
$DIMLWD
 70
    -2
  9
$DIMLWE
 70
    -2
  9
$DIMTMOVE
 70
     0
  9
$DIMFXL
 40
1.0
  9
$DIMFXLON
 70
     0
  9
$DIMJOGANG
 40
0.7853981633974483
  9
$DIMTFILL
 70
     0
  9
$DIMTFILLCLR
 70
     0
  9
$DIMARCSYM
 70
     0
  9
$DIMLTYPE
  6

  9
$DIMLTEX1
  6

  9
$DIMLTEX2
  6

  9
$LUNITS
 70
     2
  9
$LUPREC
 70
     4
  9
$SKETCHINC
 40
0.1
  9
$FILLETRAD
 40
0.0
  9
$AUNITS
 70
     0
  9
$AUPREC
 70
     0
  9
$MENU
  1
acad
  9
$ELEVATION
 40
0.0
  9
$PELEVATION
 40
0.0
  9
$THICKNESS
 40
0.0
  9
$LIMCHECK
 70
     0
  9
$CHAMFERA
 40
0.0
  9
$CHAMFERB
 40
0.0
  9
$CHAMFERC
 40
0.0
  9
$CHAMFERD
 40
0.0
  9
$SKPOLY
 70
     0
  9
$TDCREATE
 40
0.0
  9
$TDUCREATE
 40
0.0
  9
$TDUPDATE
 40
0.0
  9
$TDUUPDATE
 40
0.0
  9
$TDINDWG
 40
0.0
  9
$TDUSRTIMER
 40
0.0
  9
$USRTIMER
 70
     1
  9
$ANGBASE
 50
0.0
  9
$ANGDIR
 70
     0
  9
$PDMODE
 70
     1
  9
$PDSIZE
 40
-2.0
  9
$PLINEWID
 40
0.0
  9
$SPLFRAME
 70
     0
  9
$SPLINETYPE
 70
     6
  9
$SPLINESEGS
 70
     8
  9
$HANDSEED
  5
657
  9
$SURFTAB1
 70
     6
  9
$SURFTAB2
 70
     6
  9
$SURFTYPE
 70
     6
  9
$SURFU
 70
     6
  9
$SURFV
 70
     6
  9
$UCSBASE
  2

  9
$UCSNAME
  2

  9
$UCSORG
 10
0.0
 20
0.0
 30
0.0
  9
$UCSXDIR
 10
1.0
 20
0.0
 30
0.0
  9
$UCSYDIR
 10
0.0
 20
1.0
 30
0.0
  9
$UCSORTHOREF
  2

  9
$UCSORTHOVIEW
 70
     0
  9
$UCSORGTOP
 10
0.0
 20
0.0
 30
0.0
  9
$UCSORGBOTTOM
 10
0.0
 20
0.0
 30
0.0
  9
$UCSORGLEFT
 10
0.0
 20
0.0
 30
0.0
  9
$UCSORGRIGHT
 10
0.0
 20
0.0
 30
0.0
  9
$UCSORGFRONT
 10
0.0
 20
0.0
 30
0.0
  9
$UCSORGBACK
 10
0.0
 20
0.0
 30
0.0
  9
$PUCSBASE
  2

  9
$PUCSNAME
  2

  9
$PUCSORG
 10
0.0
 20
0.0
 30
0.0
  9
$PUCSXDIR
 10
1.0
 20
0.0
 30
0.0
  9
$PUCSYDIR
 10
0.0
 20
1.0
 30
0.0
  9
$PUCSORTHOREF
  2

  9
$PUCSORTHOVIEW
 70
     0
  9
$PUCSORGTOP
 10
0.0
 20
0.0
 30
0.0
  9
$PUCSORGBOTTOM
 10
0.0
 20
0.0
 30
0.0
  9
$PUCSORGLEFT
 10
0.0
 20
0.0
 30
0.0
  9
$PUCSORGRIGHT
 10
0.0
 20
0.0
 30
0.0
  9
$PUCSORGFRONT
 10
0.0
 20
0.0
 30
0.0
  9
$PUCSORGBACK
 10
0.0
 20
0.0
 30
0.0
  9
$USERI1
 70
     0
  9
$USERI2
 70
     0
  9
$USERI3
 70
     0
  9
$USERI4
 70
     0
  9
$USERI5
 70
     0
  9
$USERR1
 40
0.0
  9
$USERR2
 40
0.0
  9
$USERR3
 40
0.0
  9
$USERR4
 40
0.0
  9
$USERR5
 40
0.0
  9
$WORLDVIEW
 70
     1
  9
$SHADEDGE
 70
     3
  9
$SHADEDIF
 70
    70
  9
$TILEMODE
 70
     1
  9
$MAXACTVP
 70
    64
  9
$PINSBASE
 10
0.0
 20
0.0
 30
0.0
  9
$PLIMCHECK
 70
     0
  9
$PEXTMIN
 10
1.000000000000000E+20
 20
1.000000000000000E+20
 30
1.000000000000000E+20
  9
$PEXTMAX
 10
-1.000000000000000E+20
 20
-1.000000000000000E+20
 30
-1.000000000000000E+20
  9
$PLIMMIN
 10
0.0
 20
0.0
  9
$PLIMMAX
 10
12.0
 20
9.0
  9
$UNITMODE
 70
     0
  9
$VISRETAIN
 70
     0
  9
$PLINEGEN
 70
     1
  9
$PSLTSCALE
 70
     0
  9
$TREEDEPTH
 70
  3020
  9
$CMLSTYLE
  2
Standard
  9
$CMLJUST
 70
     0
  9
$CMLSCALE
 40
1.0
  9
$PROXYGRAPHICS
 70
     0
  9
$MEASUREMENT
 70
     0
  9
$CELWEIGHT
370
     0
  9
$ENDCAPS
280
     0
  9
$JOINSTYLE
280
     0
  9
$LWDISPLAY
290
     1
  9
$INSUNITS
 70
     1
  9
$HYPERLINKBASE
  1

  9
$STYLESHEET
  1

  9
$XEDIT
290
     1
  9
$CEPSNTYPE
380
     0
  9
$PSTYLEMODE
290
     1
  9
$FINGERPRINTGUID
  2

  9
$VERSIONGUID
  2

  9
$EXTNAMES
290
     1
  9
$PSVPSCALE
 40
0.0
  9
$OLESTARTUP
290
     0
  9
$SORTENTS
280
   127
  9
$INDEXCTL
280
     0
  9
$HIDETEXT
280
     1
  9
$XCLIPFRAME
290
     0
  9
$HALOGAP
280
     0
  9
$OBSCOLOR
 70
   257
  9
$OBSLTYPE
280
     0
  9
$INTERSECTIONDISPLAY
280
     0
  9
$INTERSECTIONCOLOR
 70
   257
  9
$DIMASSOC
280
     2
  9
$PROJECTNAME
  1

  9
$CAMERADISPLAY
290
     0
  9
$LENSLENGTH
 40
50.0
  9
$CAMERAHEIGHT
 40
0.0
  9
$STEPSPERSEC
 40
2.0
  9
$STEPSIZE
 40
6.0
  9
$3DDWFPREC
 40
2.0
  9
$PSOLWIDTH
 40
0.25
  9
$PSOLHEIGHT
 40
4.0
  9
$LOFTANG1
 40
1.570796326794897
  9
$LOFTANG2
 40
1.570796326794897
  9
$LOFTMAG1
 40
0.0
  9
$LOFTMAG2
 40
0.0
  9
$LOFTPARAM
 70
     7
  9
$LOFTNORMALS
280
     1
  9
$LATITUDE
 40
37.795
  9
$LONGITUDE
 40
-122.394
  9
$NORTHDIRECTION
 40
0.0
  9
$TIMEZONE
 70
 -8000
  9
$LIGHTGLYPHDISPLAY
280
     1
  9
$TILEMODELIGHTSYNCH
280
     1
  9
$SOLIDHIST
280
     1
  9
$SHOWHIST
280
     1
  9
$DWFFRAME
280
     2
  9
$DGNFRAME
280
     2
  9
$REALWORLDSCALE
290
     1
  9
$INTERFERECOLOR
 62
   256
  9
$CSHADOW
280
     0
  9
$SHADOWPLANELOCATION
 40
0.0
  0
ENDSEC
  0
SECTION
  2
CLASSES
  0
CLASS
  1
LWPOLYLINE
  2
AcDbPolyline
  3
AutoCAD 2000
 90
        0
 91
        1
280
     0
281
     1
  0
CLASS
  1
IMAGE
  2
AcDbRasterImage
  3
ISM
 90
      127
 91
        5
280
     0
281
     1
  0
CLASS
  1
OLE2FRAME
  2
AcDbOle2Frame
  3
AutoCAD 2000
 90
        0
 91
        1
280
     0
281
     1
  0
CLASS
  1
HATCH
  2
AcDbHatch
  3
AutoCAD 2000
 90
        0
 91
        1
280
     0
281
     1
  0
CLASS
  1
DICTIONARYVAR
  2
AcDbDictionaryVar
  3
ObjectDBX Classes
 90
        0
 91
        4
280
     0
281
     0
  0
CLASS
  1
RASTERVARIABLES
  2
AcDbRasterVariables
  3
ISM
 90
        0
 91
        4
280
     0
281
     0
  0
CLASS
  1
IMAGEDEF
  2
AcDbRasterImageDef
  3
ISM
 90
        0
 91
        4
280
     0
281
     0
  0
CLASS
  1
IMAGEDEF_REACTOR
  2
AcDbRasterImageDefReactor
  3
ISM
 90
        1
 91
        4
280
     0
281
     0
  0
CLASS
  1
IDBUFFER
  2
AcDbIdBuffer
  3
ObjectDBX Classes
 90
        0
 91
        4
280
     0
281
     0
  0
CLASS
  1
SPATIAL_FILTER
  2
AcDbSpatialFilter
  3
ObjectDBX Classes
 90
        0
 91
        4
280
     0
281
     0
  0
CLASS
  1
XRECORD
  2
AcDbXrecord
  3
AutoCAD 2000
 90
        0
 91
        1
280
     0
281
     0
  0
CLASS
  1
SORTENTSTABLE
  2
AcDbSortentsTable
  3
ObjectDBX Classes
 90
        0
 91
        4
280
     0
281
     0
  0
CLASS
  1
LAYER_INDEX
  2
AcDbLayerIndex
  3
ObjectDBX Classes
 90
        0
 91
        4
280
     0
281
     0
  0
CLASS
  1
SPATIAL_INDEX
  2
AcDbSpatialIndex
  3
AutoCAD 2000
 90
        0
 91
        4
280
     0
281
     0
  0
CLASS
  1
OBJECT_PTR
  2
CAseDLPNTableRecord
  3
ASE-LPNTableRecord
 90
        1
 91
        4
280
     0
281
     0
  0
CLASS
  1
LAYOUT
  2
AcDbLayout
  3
ObjectDBX Classes
 90
        0
 91
        1
280
     0
281
     0
  0
CLASS
  1
PLOTSETTINGS
  2
AcDbPlotSettings
  3
ObjectDBX Classes
 90
        0
 91
        4
280
     0
281
     0
  0
CLASS
  1
ACDBDICTIONARYWDFLT
  2
AcDbDictionaryWithDefault
  3
ObjectDBX Classes
 90
        0
 91
        4
280
     0
281
     0
  0
CLASS
  1
ACDBPLACEHOLDER
  2
AcDbPlaceHolder
  3
ObjectDBX Classes
 90
        0
 91
        1
280
     0
281
     0
  0
CLASS
  1
SCALE
  2
AcDbScale
  3
ObjectDBX Classes
 90
     1153
 91
        4
280
     0
281
     0
  0
ENDSEC
  0
SECTION
  2
TABLES
  0
TABLE
  2
VPORT
  5
7
330
0
100
AcDbSymbolTable
 70
     1
  0
VPORT
  5
15
330
7
100
AcDbSymbolTableRecord
100
AcDbViewportTableRecord
  2
*ACTIVE
 70
     0
 10
0.0
 20
0.0
 11
1.0
 21
1.0
 12
14.03344624914864
 22
10.67242621894376
 13
0.0
 23
0.0
 14
1.0
 24
1.0
 15
0.0
 25
0.0
 16
0.0
 26
0.0
 36
1.0
 17
0.0
 27
0.0
 37
0.0
 40
30.90858296060449
 41
0.688564
 42
50.0
 43
0.0
 44
0.0
 50
0.0
 51
0.0
 71
     0
 72
  2000
 73
     1
 74
     1
 75
     0
 76
     0
 77
     0
 78
     0
281
     0
 65
     0
110
0.0
120
0.0
130
0.0
111
1.0
121
0.0
131
0.0
112
0.0
122
1.0
132
0.0
 79
     0
146
0.0
 60
     3
 61
     5
292
     1
282
     1
141
0.0
142
0.0
 63
   256
  0
ENDTAB
  0
TABLE
  2
LTYPE
  5
4
330
0
100
AcDbSymbolTable
 70
    18
  0
LTYPE
  5
11
330
4
100
AcDbSymbolTableRecord
100
AcDbLinetypeTableRecord
  2
ByBlock
 70
     0
  3

 72
    65
 73
     0
 40
0.0
  0
LTYPE
  5
12
330
4
100
AcDbSymbolTableRecord
100
AcDbLinetypeTableRecord
  2
ByLayer
 70
     0
  3

 72
    65
 73
     0
 40
0.0
  0
LTYPE
  5
13
330
4
100
AcDbSymbolTableRecord
100
AcDbLinetypeTableRecord
  2
Continuous
 70
     0
  3
Solid line
 72
    65
 73
     0
 40
0.0
  0
LTYPE
  5
75
330
4
100
AcDbSymbolTableRecord
100
AcDbLinetypeTableRecord
  2
STYLE_01
 70
     0
  3

 72
    65
 73
     4
 40
1.875
 49
1.25
 74
     0
 49
-0.2083333333333334
 74
     0
 49
0.2083333333333334
 74
     0
 49
-0.2083333333333334
 74
     0
  0
LTYPE
  5
76
330
4
100
AcDbSymbolTableRecord
100
AcDbLinetypeTableRecord
  2
STYLE_02
 70
     0
  3

 72
    65
 73
     4
 40
6.666666666666668
 49
4.166666666666667
 74
     0
 49
-0.8333333333333331
 74
     0
 49
0.8333333333333337
 74
     0
 49
-0.8333333333333337
 74
     0
  0
LTYPE
  5
77
330
4
100
AcDbSymbolTableRecord
100
AcDbLinetypeTableRecord
  2
STYLE_03
 70
     0
  3

 72
    65
 73
     2
 40
0.625
 49
0.4166666666666666
 74
     0
 49
-0.2083333333333334
 74
     0
  0
LTYPE
  5
78
330
4
100
AcDbSymbolTableRecord
100
AcDbLinetypeTableRecord
  2
STYLE_04
 70
     0
  3

 72
    65
 73
     4
 40
3.333333333333334
 49
2.083333333333333
 74
     0
 49
-0.4166666666666666
 74
     0
 49
0.4166666666666669
 74
     0
 49
-0.4166666666666669
 74
     0
  0
LTYPE
  5
79
330
4
100
AcDbSymbolTableRecord
100
AcDbLinetypeTableRecord
  2
STYLE_05
 70
     0
  3

 72
    65
 73
     2
 40
1.25
 49
0.8333333333333333
 74
     0
 49
-0.4166666666666667
 74
     0
  0
LTYPE
  5
7A
330
4
100
AcDbSymbolTableRecord
100
AcDbLinetypeTableRecord
  2
STYLE_06
 70
     0
  3

 72
    65
 73
     2
 40
3.19445
 49
2.08335
 74
     0
 49
-1.1111
 74
     0
  0
LTYPE
  5
7B
330
4
100
AcDbSymbolTableRecord
100
AcDbLinetypeTableRecord
  2
STYLE_07
 70
     0
  3

 72
    65
 73
     2
 40
2.7778
 49
1.3889
 74
     0
 49
-1.3889
 74
     0
  0
LTYPE
  5
7C
330
4
100
AcDbSymbolTableRecord
100
AcDbLinetypeTableRecord
  2
STYLE_08
 70
     0
  3

 72
    65
 73
     2
 40
1.45835
 49
0.06945
 74
     0
 49
-1.3889
 74
     0
  0
LTYPE
  5
7D
330
4
100
AcDbSymbolTableRecord
100
AcDbLinetypeTableRecord
  2
STYLE_09
 70
     0
  3

 72
    65
 73
     2
 40
0.625
 49
0.2778
 74
     0
 49
-0.3472
 74
     0
  0
LTYPE
  5
7E
330
4
100
AcDbSymbolTableRecord
100
AcDbLinetypeTableRecord
  2
STYLE_10
 70
     0
  3

 72
    65
 73
     2
 40
0.34725
 49
0.1389
 74
     0
 49
-0.20835
 74
     0
  0
LTYPE
  5
7F
330
4
100
AcDbSymbolTableRecord
100
AcDbLinetypeTableRecord
  2
STYLE_11
 70
     0
  3

 72
    65
 73
     2
 40
0.20835
 49
0.06945
 74
     0
 49
-0.1389
 74
     0
  0
LTYPE
  5
80
330
4
100
AcDbSymbolTableRecord
100
AcDbLinetypeTableRecord
  2
STYLE_12
 70
     0
  3

 72
    65
 73
     4
 40
4.027777777777778
 49
2.708333333333333
 74
     0
 49
-0.3472222222222227
 74
     0
 49
0.625
 74
     0
 49
-0.3472222222222221
 74
     0
  0
LTYPE
  5
81
330
4
100
AcDbSymbolTableRecord
100
AcDbLinetypeTableRecord
  2
STYLE_13
 70
     0
  3

 72
    65
 73
     2
 40
1.25
 49
0.625
 74
     0
 49
-0.625
 74
     0
  0
LTYPE
  5
82
330
4
100
AcDbSymbolTableRecord
100
AcDbLinetypeTableRecord
  2
STYLE_14
 70
     0
  3

 72
    65
 73
     2
 40
0.4167
 49
0.2778
 74
     0
 49
-0.1389
 74
     0
  0
LTYPE
  5
83
330
4
100
AcDbSymbolTableRecord
100
AcDbLinetypeTableRecord
  2
STYLE_15
 70
     0
  3

 72
    65
 73
     2
 40
0.4861111111111111
 49
0.2778
 74
     0
 49
-0.2083111111111111
 74
     0
  0
LTYPE
  5
84
330
4
100
AcDbSymbolTableRecord
100
AcDbLinetypeTableRecord
  2
STYLE_16
 70
     0
  3

 72
    65
 73
     2
 40
0.2777777777777778
 49
0.1388888888888889
 74
     0
 49
-0.1388888888888889
 74
     0
  0
LTYPE
  5
85
330
4
100
AcDbSymbolTableRecord
100
AcDbLinetypeTableRecord
  2
STYLE_17
 70
     0
  3

 72
    65
 73
     2
 40
0.694427490234375
 49
0.4860687255859375
 74
     0
 49
-0.2083587646484375
 74
     0
  0
ENDTAB
  0
TABLE
  2
LAYER
  5
2
330
0
100
AcDbSymbolTable
 70
    11
  0
LAYER
  5
14
330
2
100
AcDbSymbolTableRecord
100
AcDbLayerTableRecord
  2
0
 70
     0
 62
     7
  6
Continuous
370
    15
390
1D
347
0
  0
LAYER
  5
86
330
2
100
AcDbSymbolTableRecord
100
AcDbLayerTableRecord
  2
None
 70
     0
 62
     7
  6
Continuous
370
     9
390
1D
347
0
  0
LAYER
  5
87
330
2
100
AcDbSymbolTableRecord
100
AcDbLayerTableRecord
  2
Dimension
 70
     0
 62
     7
  6
Continuous
370
     9
390
1D
347
0
  0
LAYER
  5
88
330
2
100
AcDbSymbolTableRecord
100
AcDbLayerTableRecord
  2
ENG__DIM
 70
     0
 62
     7
  6
Continuous
370
    15
390
1D
347
0
  0
LAYER
  5
89
330
2
100
AcDbSymbolTableRecord
100
AcDbLayerTableRecord
  2
DIM__INSIDE
 70
     0
 62
     7
  6
Continuous
370
    15
390
1D
347
0
  0
LAYER
  5
8A
330
2
100
AcDbSymbolTableRecord
100
AcDbLayerTableRecord
  2
DIM__OUTER
 70
     0
 62
     7
  6
Continuous
370
    15
390
1D
347
0
  0
LAYER
  5
8B
330
2
100
AcDbSymbolTableRecord
100
AcDbLayerTableRecord
  2
DRAWING
 70
     0
 62
     7
  6
Continuous
370
    15
390
1D
347
0
  0
LAYER
  5
8C
330
2
100
AcDbSymbolTableRecord
100
AcDbLayerTableRecord
  2
LAYER_1
 70
     0
 62
     7
  6
Continuous
370
    15
390
1D
347
0
  0
LAYER
  5
8D
330
2
100
AcDbSymbolTableRecord
100
AcDbLayerTableRecord
  2
CASE
 70
     0
 62
     7
  6
Continuous
370
    15
390
1D
347
0
  0
LAYER
  5
8E
330
2
100
AcDbSymbolTableRecord
100
AcDbLayerTableRecord
  2
PLB-Tw~
 70
     0
 62
     7
  6
Continuous
370
    15
390
1D
347
0
  0
LAYER
  5
8F
330
2
100
AcDbSymbolTableRecord
100
AcDbLayerTableRecord
  2
Defpoints
 70
     0
 62
     7
  6
Continuous
290
     0
370
    -3
390
1D
347
0
  0
ENDTAB
  0
TABLE
  2
STYLE
  5
3
330
0
100
AcDbSymbolTable
 70
     3
  0
STYLE
  5
17
330
3
100
AcDbSymbolTableRecord
100
AcDbTextStyleTableRecord
  2
Standard
 70
     0
 40
0.0
 41
1.0
 50
0.0
 71
     0
 42
0.0
  3
txt
  4

  0
STYLE
  5
73
330
3
100
AcDbSymbolTableRecord
100
AcDbTextStyleTableRecord
  2
Helvetica
 70
     0
 40
0.0
 41
1.0
 50
0.0
 71
     0
 42
0.0
  3
Helvetica
  4

1001
ACAD
1000
Helvetica
1071
        0
  0
STYLE
  5
74
330
3
100
AcDbSymbolTableRecord
100
AcDbTextStyleTableRecord
  2
Optima
 70
     0
 40
0.0
 41
1.0
 50
0.0
 71
     0
 42
0.0
  3
Optima
  4

1001
ACAD
1000
Optima
1071
        0
  0
ENDTAB
  0
TABLE
  2
VIEW
  5
5
330
0
100
AcDbSymbolTable
 70
     0
  0
ENDTAB
  0
TABLE
  2
UCS
  5
6
330
0
100
AcDbSymbolTable
 70
     0
  0
ENDTAB
  0
TABLE
  2
APPID
  5
8
330
0
100
AcDbSymbolTable
 70
     1
  0
APPID
  5
16
330
8
100
AcDbSymbolTableRecord
100
AcDbRegAppTableRecord
  2
ACAD
 70
     0
  0
ENDTAB
  0
TABLE
  2
DIMSTYLE
  5
9
330
0
100
AcDbSymbolTable
 70
     2
100
AcDbDimStyleTable
  0
DIMSTYLE
105
18
330
9
100
AcDbSymbolTableRecord
100
AcDbDimStyleTableRecord
  2
Standard
 70
     0
340
17
  0
DIMSTYLE
105
99
330
9
100
AcDbSymbolTableRecord
100
AcDbDimStyleTableRecord
  2
Placid2
 70
     0
  3
<>
  4
[]
 41
0.125
 42
0.05
 43
0.27559
 44
0.078740157480315
 78
     7
140
0.3188128615705982
141
0.0
147
0.0
171
     1
172
     1
174
     1
179
     2
271
     3
272
     3
276
     2
284
     7
285
    11
286
    11
289
     0
340
73
341
90
342
90
  0
ENDTAB
  0
TABLE
  2
BLOCK_RECORD
  5
1
330
0
100
AcDbSymbolTable
 70
    81
  0
BLOCK_RECORD
  5
A
330
1
100
AcDbSymbolTableRecord
100
AcDbBlockTableRecord
  2
*MODEL_SPACE
340
20
 70
     0
280
     1
281
     0
  0
BLOCK_RECORD
  5
B
330
1
100
AcDbSymbolTableRecord
100
AcDbBlockTableRecord
  2
*PAPER_SPACE
340
21
 70
     0
280
     1
281
     0
  0
BLOCK_RECORD
  5
90
330
1
100
AcDbSymbolTableRecord
100
AcDbBlockTableRecord
  2
VW_FILLEDARROW
340
0
 70
     0
280
     1
281
     0
  0
BLOCK_RECORD
  5
23
330
1
100
AcDbSymbolTableRecord
100
AcDbBlockTableRecord
  2
Group
340
0
102
{BLKREFS
331
523
102
}
 70
     0
280
     1
281
     0
  0
BLOCK_RECORD
  5
24
330
1
100
AcDbSymbolTableRecord
100
AcDbBlockTableRecord
  2
Group-1
340
0
102
{BLKREFS
331
11F
102
}
 70
     0
280
     1
281
     0
  0
BLOCK_RECORD
  5
25
330
1
100
AcDbSymbolTableRecord
100
AcDbBlockTableRecord
  2
Group-2
340
0
102
{BLKREFS
331
110
102
}
 70
     0
280
     1
281
     0
  0
BLOCK_RECORD
  5
26
330
1
100
AcDbSymbolTableRecord
100
AcDbBlockTableRecord
  2
Group-3
340
0
102
{BLKREFS
331
111
102
}
 70
     0
280
     1
281
     0
  0
BLOCK_RECORD
  5
27
330
1
100
AcDbSymbolTableRecord
100
AcDbBlockTableRecord
  2
Group-4
340
0
102
{BLKREFS
331
112
102
}
 70
     0
280
     1
281
     0
  0
BLOCK_RECORD
  5
28
330
1
100
AcDbSymbolTableRecord
100
AcDbBlockTableRecord
  2
Group-5
340
0
102
{BLKREFS
331
113
102
}
 70
     0
280
     1
281
     0
  0
BLOCK_RECORD
  5
29
330
1
100
AcDbSymbolTableRecord
100
AcDbBlockTableRecord
  2
Group-6
340
0
102
{BLKREFS
331
114
102
}
 70
     0
280
     1
281
     0
  0
BLOCK_RECORD
  5
2A
330
1
100
AcDbSymbolTableRecord
100
AcDbBlockTableRecord
  2
Group-7
340
0
102
{BLKREFS
331
115
102
}
 70
     0
280
     1
281
     0
  0
BLOCK_RECORD
  5
2B
330
1
100
AcDbSymbolTableRecord
100
AcDbBlockTableRecord
  2
Group-8
340
0
102
{BLKREFS
331
120
102
}
 70
     0
280
     1
281
     0
  0
BLOCK_RECORD
  5
2C
330
1
100
AcDbSymbolTableRecord
100
AcDbBlockTableRecord
  2
Group-9
340
0
102
{BLKREFS
331
125
102
}
 70
     0
280
     1
281
     0
  0
BLOCK_RECORD
  5
2D
330
1
100
AcDbSymbolTableRecord
100
AcDbBlockTableRecord
  2
Group-10
340
0
102
{BLKREFS
331
128
102
}
 70
     0
280
     1
281
     0
  0
BLOCK_RECORD
  5
2E
330
1
100
AcDbSymbolTableRecord
100
AcDbBlockTableRecord
  2
Group-11
340
0
102
{BLKREFS
331
55A
102
}
 70
     0
280
     1
281
     0
  0
BLOCK_RECORD
  5
2F
330
1
100
AcDbSymbolTableRecord
100
AcDbBlockTableRecord
  2
*D13
340
0
 70
     0
280
     1
281
     0
  0
BLOCK_RECORD
  5
30
330
1
100
AcDbSymbolTableRecord
100
AcDbBlockTableRecord
  2
*D14
340
0
 70
     0
280
     1
281
     0
  0
BLOCK_RECORD
  5
31
330
1
100
AcDbSymbolTableRecord
100
AcDbBlockTableRecord
  2
*D15
340
0
 70
     0
280
     1
281
     0
  0
BLOCK_RECORD
  5
32
330
1
100
AcDbSymbolTableRecord
100
AcDbBlockTableRecord
  2
*D16
340
0
 70
     0
280
     1
281
     0
  0
BLOCK_RECORD
  5
33
330
1
100
AcDbSymbolTableRecord
100
AcDbBlockTableRecord
  2
*D17
340
0
 70
     0
280
     1
281
     0
  0
BLOCK_RECORD
  5
34
330
1
100
AcDbSymbolTableRecord
100
AcDbBlockTableRecord
  2
*D18
340
0
 70
     0
280
     1
281
     0
  0
BLOCK_RECORD
  5
35
330
1
100
AcDbSymbolTableRecord
100
AcDbBlockTableRecord
  2
*D19
340
0
 70
     0
280
     1
281
     0
  0
BLOCK_RECORD
  5
36
330
1
100
AcDbSymbolTableRecord
100
AcDbBlockTableRecord
  2
*D20
340
0
 70
     0
280
     1
281
     0
  0
BLOCK_RECORD
  5
37
330
1
100
AcDbSymbolTableRecord
100
AcDbBlockTableRecord
  2
*D21
340
0
 70
     0
280
     1
281
     0
  0
BLOCK_RECORD
  5
38
330
1
100
AcDbSymbolTableRecord
100
AcDbBlockTableRecord
  2
*D22
340
0
 70
     0
280
     1
281
     0
  0
BLOCK_RECORD
  5
39
330
1
100
AcDbSymbolTableRecord
100
AcDbBlockTableRecord
  2
*D23
340
0
 70
     0
280
     1
281
     0
  0
BLOCK_RECORD
  5
3A
330
1
100
AcDbSymbolTableRecord
100
AcDbBlockTableRecord
  2
*D24
340
0
 70
     0
280
     1
281
     0
  0
BLOCK_RECORD
  5
3B
330
1
100
AcDbSymbolTableRecord
100
AcDbBlockTableRecord
  2
*D25
340
0
 70
     0
280
     1
281
     0
  0
BLOCK_RECORD
  5
3C
330
1
100
AcDbSymbolTableRecord
100
AcDbBlockTableRecord
  2
*D26
340
0
 70
     0
280
     1
281
     0
  0
BLOCK_RECORD
  5
3D
330
1
100
AcDbSymbolTableRecord
100
AcDbBlockTableRecord
  2
*D27
340
0
 70
     0
280
     1
281
     0
  0
BLOCK_RECORD
  5
3E
330
1
100
AcDbSymbolTableRecord
100
AcDbBlockTableRecord
  2
*D28
340
0
 70
     0
280
     1
281
     0
  0
BLOCK_RECORD
  5
3F
330
1
100
AcDbSymbolTableRecord
100
AcDbBlockTableRecord
  2
Group-12
340
0
102
{BLKREFS
331
5AB
102
}
 70
     0
280
     1
281
     0
  0
BLOCK_RECORD
  5
40
330
1
100
AcDbSymbolTableRecord
100
AcDbBlockTableRecord
  2
Group-13
340
0
102
{BLKREFS
331
5AC
102
}
 70
     0
280
     1
281
     0
  0
BLOCK_RECORD
  5
41
330
1
100
AcDbSymbolTableRecord
100
AcDbBlockTableRecord
  2
Group-14
340
0
102
{BLKREFS
331
26C
102
}
 70
     0
280
     1
281
     0
  0
BLOCK_RECORD
  5
42
330
1
100
AcDbSymbolTableRecord
100
AcDbBlockTableRecord
  2
Group-15
340
0
102
{BLKREFS
331
5AD
102
}
 70
     0
280
     1
281
     0
  0
BLOCK_RECORD
  5
43
330
1
100
AcDbSymbolTableRecord
100
AcDbBlockTableRecord
  2
Group-16
340
0
102
{BLKREFS
331
274
102
}
 70
     0
280
     1
281
     0
  0
BLOCK_RECORD
  5
44
330
1
100
AcDbSymbolTableRecord
100
AcDbBlockTableRecord
  2
Group-17
340
0
102
{BLKREFS
331
5AE
102
}
 70
     0
280
     1
281
     0
  0
BLOCK_RECORD
  5
45
330
1
100
AcDbSymbolTableRecord
100
AcDbBlockTableRecord
  2
Group-18
340
0
102
{BLKREFS
331
27C
102
}
 70
     0
280
     1
281
     0
  0
BLOCK_RECORD
  5
46
330
1
100
AcDbSymbolTableRecord
100
AcDbBlockTableRecord
  2
Group-19
340
0
102
{BLKREFS
331
5AF
102
}
 70
     0
280
     1
281
     0
  0
BLOCK_RECORD
  5
47
330
1
100
AcDbSymbolTableRecord
100
AcDbBlockTableRecord
  2
Group-20
340
0
102
{BLKREFS
331
284
102
}
 70
     0
280
     1
281
     0
  0
BLOCK_RECORD
  5
48
330
1
100
AcDbSymbolTableRecord
100
AcDbBlockTableRecord
  2
Group-21
340
0
102
{BLKREFS
331
5B0
102
}
 70
     0
280
     1
281
     0
  0
BLOCK_RECORD
  5
49
330
1
100
AcDbSymbolTableRecord
100
AcDbBlockTableRecord
  2
Group-22
340
0
102
{BLKREFS
331
28C
102
}
 70
     0
280
     1
281
     0
  0
BLOCK_RECORD
  5
4A
330
1
100
AcDbSymbolTableRecord
100
AcDbBlockTableRecord
  2
Group-23
340
0
102
{BLKREFS
331
5B1
102
}
 70
     0
280
     1
281
     0
  0
BLOCK_RECORD
  5
4B
330
1
100
AcDbSymbolTableRecord
100
AcDbBlockTableRecord
  2
Group-24
340
0
102
{BLKREFS
331
294
102
}
 70
     0
280
     1
281
     0
  0
BLOCK_RECORD
  5
4C
330
1
100
AcDbSymbolTableRecord
100
AcDbBlockTableRecord
  2
Group-25
340
0
102
{BLKREFS
331
5B2
102
}
 70
     0
280
     1
281
     0
  0
BLOCK_RECORD
  5
4D
330
1
100
AcDbSymbolTableRecord
100
AcDbBlockTableRecord
  2
Group-26
340
0
102
{BLKREFS
331
5B3
102
}
 70
     0
280
     1
281
     0
  0
BLOCK_RECORD
  5
4E
330
1
100
AcDbSymbolTableRecord
100
AcDbBlockTableRecord
  2
*D44
340
0
 70
     0
280
     1
281
     0
  0
BLOCK_RECORD
  5
4F
330
1
100
AcDbSymbolTableRecord
100
AcDbBlockTableRecord
  2
Group-27
340
0
102
{BLKREFS
331
5DF
102
}
 70
     0
280
     1
281
     0
  0
BLOCK_RECORD
  5
50
330
1
100
AcDbSymbolTableRecord
100
AcDbBlockTableRecord
  2
*D46
340
0
 70
     0
280
     1
281
     0
  0
BLOCK_RECORD
  5
51
330
1
100
AcDbSymbolTableRecord
100
AcDbBlockTableRecord
  2
Group-28
340
0
102
{BLKREFS
331
5E6
102
}
 70
     0
280
     1
281
     0
  0
BLOCK_RECORD
  5
52
330
1
100
AcDbSymbolTableRecord
100
AcDbBlockTableRecord
  2
Group-29
340
0
102
{BLKREFS
331
5E7
102
}
 70
     0
280
     1
281
     0
  0
BLOCK_RECORD
  5
53
330
1
100
AcDbSymbolTableRecord
100
AcDbBlockTableRecord
  2
*D49
340
0
 70
     0
280
     1
281
     0
  0
BLOCK_RECORD
  5
54
330
1
100
AcDbSymbolTableRecord
100
AcDbBlockTableRecord
  2
*D50
340
0
 70
     0
280
     1
281
     0
  0
BLOCK_RECORD
  5
55
330
1
100
AcDbSymbolTableRecord
100
AcDbBlockTableRecord
  2
*D51
340
0
 70
     0
280
     1
281
     0
  0
BLOCK_RECORD
  5
56
330
1
100
AcDbSymbolTableRecord
100
AcDbBlockTableRecord
  2
Group-30
340
0
102
{BLKREFS
331
5ED
102
}
 70
     0
280
     1
281
     0
  0
BLOCK_RECORD
  5
57
330
1
100
AcDbSymbolTableRecord
100
AcDbBlockTableRecord
  2
Group-31
340
0
102
{BLKREFS
331
5EE
102
}
 70
     0
280
     1
281
     0
  0
BLOCK_RECORD
  5
58
330
1
100
AcDbSymbolTableRecord
100
AcDbBlockTableRecord
  2
Group-32
340
0
102
{BLKREFS
331
5EF
102
}
 70
     0
280
     1
281
     0
  0
BLOCK_RECORD
  5
59
330
1
100
AcDbSymbolTableRecord
100
AcDbBlockTableRecord
  2
Group-33
340
0
102
{BLKREFS
331
5F0
102
}
 70
     0
280
     1
281
     0
  0
BLOCK_RECORD
  5
5A
330
1
100
AcDbSymbolTableRecord
100
AcDbBlockTableRecord
  2
Group-34
340
0
102
{BLKREFS
331
5F1
102
}
 70
     0
280
     1
281
     0
  0
BLOCK_RECORD
  5
5B
330
1
100
AcDbSymbolTableRecord
100
AcDbBlockTableRecord
  2
Group-35
340
0
102
{BLKREFS
331
5F2
102
}
 70
     0
280
     1
281
     0
  0
BLOCK_RECORD
  5
5C
330
1
100
AcDbSymbolTableRecord
100
AcDbBlockTableRecord
  2
Group-36
340
0
102
{BLKREFS
331
5F3
102
}
 70
     0
280
     1
281
     0
  0
BLOCK_RECORD
  5
5D
330
1
100
AcDbSymbolTableRecord
100
AcDbBlockTableRecord
  2
Group-37
340
0
102
{BLKREFS
331
5F4
102
}
 70
     0
280
     1
281
     0
  0
BLOCK_RECORD
  5
5E
330
1
100
AcDbSymbolTableRecord
100
AcDbBlockTableRecord
  2
Group-38
340
0
102
{BLKREFS
331
5F5
102
}
 70
     0
280
     1
281
     0
  0
BLOCK_RECORD
  5
5F
330
1
100
AcDbSymbolTableRecord
100
AcDbBlockTableRecord
  2
Group-39
340
0
102
{BLKREFS
331
5F6
102
}
 70
     0
280
     1
281
     0
  0
BLOCK_RECORD
  5
60
330
1
100
AcDbSymbolTableRecord
100
AcDbBlockTableRecord
  2
Group-40
340
0
102
{BLKREFS
331
5F7
102
}
 70
     0
280
     1
281
     0
  0
BLOCK_RECORD
  5
61
330
1
100
AcDbSymbolTableRecord
100
AcDbBlockTableRecord
  2
Group-41
340
0
102
{BLKREFS
331
5F8
102
}
 70
     0
280
     1
281
     0
  0
BLOCK_RECORD
  5
62
330
1
100
AcDbSymbolTableRecord
100
AcDbBlockTableRecord
  2
Group-42
340
0
102
{BLKREFS
331
5F9
102
}
 70
     0
280
     1
281
     0
  0
BLOCK_RECORD
  5
63
330
1
100
AcDbSymbolTableRecord
100
AcDbBlockTableRecord
  2
Group-43
340
0
102
{BLKREFS
331
5FA
102
}
 70
     0
280
     1
281
     0
  0
BLOCK_RECORD
  5
64
330
1
100
AcDbSymbolTableRecord
100
AcDbBlockTableRecord
  2
*D66
340
0
 70
     0
280
     1
281
     0
  0
BLOCK_RECORD
  5
65
330
1
100
AcDbSymbolTableRecord
100
AcDbBlockTableRecord
  2
*D67
340
0
 70
     0
280
     1
281
     0
  0
BLOCK_RECORD
  5
66
330
1
100
AcDbSymbolTableRecord
100
AcDbBlockTableRecord
  2
Group-44
340
0
102
{BLKREFS
331
60A
102
}
 70
     0
280
     1
281
     0
  0
BLOCK_RECORD
  5
67
330
1
100
AcDbSymbolTableRecord
100
AcDbBlockTableRecord
  2
Group-45
340
0
102
{BLKREFS
331
60B
102
}
 70
     0
280
     1
281
     0
  0
BLOCK_RECORD
  5
68
330
1
100
AcDbSymbolTableRecord
100
AcDbBlockTableRecord
  2
Group-46
340
0
102
{BLKREFS
331
60C
102
}
 70
     0
280
     1
281
     0
  0
BLOCK_RECORD
  5
69
330
1
100
AcDbSymbolTableRecord
100
AcDbBlockTableRecord
  2
Group-47
340
0
102
{BLKREFS
331
60D
102
}
 70
     0
280
     1
281
     0
  0
BLOCK_RECORD
  5
6A
330
1
100
AcDbSymbolTableRecord
100
AcDbBlockTableRecord
  2
Group-48
340
0
102
{BLKREFS
331
60E
102
}
 70
     0
280
     1
281
     0
  0
BLOCK_RECORD
  5
6B
330
1
100
AcDbSymbolTableRecord
100
AcDbBlockTableRecord
  2
Group-49
340
0
102
{BLKREFS
331
60F
102
}
 70
     0
280
     1
281
     0
  0
BLOCK_RECORD
  5
6C
330
1
100
AcDbSymbolTableRecord
100
AcDbBlockTableRecord
  2
Group-50
340
0
102
{BLKREFS
331
610
102
}
 70
     0
280
     1
281
     0
  0
BLOCK_RECORD
  5
6D
330
1
100
AcDbSymbolTableRecord
100
AcDbBlockTableRecord
  2
Group-51
340
0
102
{BLKREFS
331
611
102
}
 70
     0
280
     1
281
     0
  0
BLOCK_RECORD
  5
6E
330
1
100
AcDbSymbolTableRecord
100
AcDbBlockTableRecord
  2
Group-52
340
0
102
{BLKREFS
331
619
102
}
 70
     0
280
     1
281
     0
  0
BLOCK_RECORD
  5
6F
330
1
100
AcDbSymbolTableRecord
100
AcDbBlockTableRecord
  2
Group-53
340
0
102
{BLKREFS
331
61D
102
}
 70
     0
280
     1
281
     0
  0
BLOCK_RECORD
  5
70
330
1
100
AcDbSymbolTableRecord
100
AcDbBlockTableRecord
  2
*D78
340
0
 70
     0
280
     1
281
     0
  0
BLOCK_RECORD
  5
71
330
1
100
AcDbSymbolTableRecord
100
AcDbBlockTableRecord
  2
*D79
340
0
 70
     0
280
     1
281
     0
  0
BLOCK_RECORD
  5
72
330
1
100
AcDbSymbolTableRecord
100
AcDbBlockTableRecord
  2
Group-54
340
0
102
{BLKREFS
331
623
102
}
 70
     0
280
     1
281
     0
  0
ENDTAB
  0
ENDSEC
  0
SECTION
  2
BLOCKS
  0
BLOCK
  5
D
330
A
100
AcDbEntity
  8
0
390
1D
100
AcDbBlockBegin
  2
*MODEL_SPACE
 70
     0
 10
0.0
 20
0.0
 30
0.0
  3
*MODEL_SPACE
  1

  0
ENDBLK
  5
E
330
A
100
AcDbEntity
  8
0
390
1D
100
AcDbBlockEnd
  0
BLOCK
  5
F
330
B
100
AcDbEntity
 67
     1
  8
0
390
1D
100
AcDbBlockBegin
  2
*PAPER_SPACE
 70
     0
 10
0.0
 20
0.0
 30
0.0
  3
*PAPER_SPACE
  1

  0
ENDBLK
  5
10
330
B
100
AcDbEntity
 67
     1
  8
0
390
1D
100
AcDbBlockEnd
  0
BLOCK
  5
91
330
90
100
AcDbEntity
  8
0
  6
ByBlock
 62
     0
370
    -2
390
1D
100
AcDbBlockBegin
  2
VW_FILLEDARROW
 70
     0
 10
0.0
 20
0.0
 30
0.0
  3
VW_FILLEDARROW
  1

  0
POLYLINE
  5
92
102
{ACAD_REACTORS
330
97
102
}
330
90
100
AcDbEntity
  8
DRAWING
  6
Continuous
 62
     0
370
     5
390
1D
100
AcDb2dPolyline
 66
     1
 10
0.0
 20
0.0
 30
0.0
 70
     1
 75
     5
  0
VERTEX
  5
93
330
92
100
AcDbEntity
  8
DRAWING
  6
Continuous
 62
     0
370
     5
390
1D
100
AcDbVertex
100
AcDb2dVertex
 10
-4.0
 20
1.071796769724491
 30
0.0
  0
VERTEX
  5
94
330
92
100
AcDbEntity
  8
DRAWING
  6
Continuous
 62
     0
370
     5
390
1D
100
AcDbVertex
100
AcDb2dVertex
 10
0.0
 20
0.0
 30
0.0
  0
VERTEX
  5
95
330
92
100
AcDbEntity
  8
DRAWING
  6
Continuous
 62
     0
370
     5
390
1D
100
AcDbVertex
100
AcDb2dVertex
 10
-4.0
 20
-1.071796769724492
 30
0.0
  0
SEQEND
  5
96
330
92
100
AcDbEntity
  8
DRAWING
  6
Continuous
 62
     0
370
     5
390
1D
  0
HATCH
  5
97
330
90
100
AcDbEntity
  8
0
  6
ByBlock
 62
     0
370
     0
390
1D
100
AcDbHatch
 10
0.0
 20
0.0
 30
0.0
210
0.0
220
0.0
230
1.0
  2
SOLID
 70
     1
 71
     1
 91
        1
 92
        1
 93
        3
 72
     1
 10
-4.0
 20
1.071796769724491
 11
0.0
 21
0.0
 72
     1
 10
0.0
 20
0.0
 11
-4.0
 21
-1.071796769724492
 72
     1
 10
-4.0
 20
-1.071796769724492
 11
-4.0
 21
1.071796769724491
 97
        1
330
92
 75
     0
 76
     1
 98
        1
 10
0.0
 20
0.0
  0
ENDBLK
  5
98
330
90
100
AcDbEntity
  8
0
390
1D
100
AcDbBlockEnd
  0
BLOCK
  5
9A
330
23
100
AcDbEntity
  8
PLB-Tw~
390
1D
100
AcDbBlockBegin
  2
Group
 70
     0
 10
0.0
 20
0.0
 30
0.0
  3
Group
  1

  0
LINE
  5
9B
330
23
100
AcDbEntity
  8
PLB-Tw~
  6
Continuous
 62
    18
370
    13
390
1D
100
AcDbLine
 10
-2.254660753486228
 20
6.564599128339025
 30
0.0
 11
-2.354820959924436
 21
6.664759334777235
 31
0.0
  0
LINE
  5
9C
330
23
100
AcDbEntity
  8
PLB-Tw~
  6
Continuous
 62
    18
370
    13
390
1D
100
AcDbLine
 10
-3.076171554004046
 20
4.204129413517386
 30
0.0
 11
-3.120802485769692
 21
4.24876034528303
 31
0.0
  0
LINE
  5
9D
330
23
100
AcDbEntity
  8
PLB-Tw~
  6
Continuous
 62
    18
370
    13
390
1D
100
AcDbLine
 10
-2.757973502470103
 20
4.204129413517387
 30
0.0
 11
-3.120802485769692
 21
4.566958396816977
 31
0.0
  0
LINE
  5
9E
330
23
100
AcDbEntity
  8
PLB-Tw~
  6
Continuous
 62
    18
370
    13
390
1D
100
AcDbLine
 10
-2.439775450936156
 20
4.204129413517387
 30
0.0
 11
-3.120802485769692
 21
4.885156448350924
 31
0.0
  0
LINE
  5
9F
330
23
100
AcDbEntity
  8
PLB-Tw~
  6
Continuous
 62
    18
370
    13
390
1D
100
AcDbLine
 10
-2.121577399402211
 20
4.204129413517387
 30
0.0
 11
-3.105829367906146
 21
5.188381382021323
 31
0.0
  0
LINE
  5
A0
330
23
100
AcDbEntity
  8
PLB-Tw~
  6
Continuous
 62
    18
370
    13
390
1D
100
AcDbLine
 10
-1.62945141515024
 20
3.712003429265417
 30
0.0
 11
-1.971196186557096
 21
4.053748200672273
 31
0.0
  0
LINE
  5
A1
330
23
100
AcDbEntity
  8
PLB-Tw~
  6
Continuous
 62
    18
370
    13
390
1D
100
AcDbLine
 10
-1.311253363616295
 20
3.712003429265417
 30
0.0
 11
-2.787631316372203
 21
5.188381382021325
 31
0.0
  0
LINE
  5
A2
330
23
100
AcDbEntity
  8
PLB-Tw~
  6
Continuous
 62
    18
370
    13
390
1D
100
AcDbLine
 10
-2.175920596005913
 20
4.894868713188981
 30
0.0
 11
-2.76647177710827
 21
5.485419894291339
 31
0.0
  0
LINE
  5
A3
330
23
100
AcDbEntity
  8
PLB-Tw~
  6
Continuous
 62
    18
370
    13
390
1D
100
AcDbLine
 10
-1.479728070599789
 20
4.198676187782858
 30
0.0
 11
-1.643532180289823
 21
4.362480297472891
 31
0.0
  0
LINE
  5
A4
330
23
100
AcDbEntity
  8
PLB-Tw~
  6
Continuous
 62
    18
370
    13
390
1D
100
AcDbLine
 10
-1.112926975774244
 20
3.831875092957313
 30
0.0
 11
-1.347386020743766
 21
4.066334137926835
 31
0.0
  0
LINE
  5
A5
330
23
100
AcDbEntity
  8
PLB-Tw~
  6
Continuous
 62
    18
370
    13
390
1D
100
AcDbLine
 10
-2.175920596005913
 20
5.213066764722928
 30
0.0
 11
-2.76647177710827
 21
5.803617945825286
 31
0.0
  0
LINE
  5
A6
330
23
100
AcDbEntity
  8
PLB-Tw~
  6
Continuous
 62
    18
370
    13
390
1D
100
AcDbLine
 10
-1.320666373833265
 20
4.357812542550279
 30
0.0
 11
-1.419091570683657
 21
4.45623773940067
 31
0.0
  0
LINE
  5
A7
330
23
100
AcDbEntity
  8
PLB-Tw~
  6
Continuous
 62
    18
370
    13
390
1D
100
AcDbLine
 10
-2.161959193848769
 20
5.51730341409973
 30
0.0
 11
-2.76647177710827
 21
6.121815997359231
 31
0.0
  0
LINE
  5
A8
330
23
100
AcDbEntity
  8
PLB-Tw~
  6
Continuous
 62
    18
370
    13
390
1D
100
AcDbLine
 10
-1.161567348066292
 20
4.516911568317253
 30
0.0
 11
-1.259992544916683
 21
4.615336765167642
 31
0.0
  0
LINE
  5
A9
330
23
100
AcDbEntity
  8
PLB-Tw~
  6
Continuous
 62
    18
370
    13
390
1D
100
AcDbLine
 10
-2.254660753486228
 20
5.928203025271133
 30
0.0
 11
-2.76647177710827
 21
6.440014048893178
 31
0.0
  0
LINE
  5
AA
330
23
100
AcDbEntity
  8
PLB-Tw~
  6
Continuous
 62
    18
370
    13
390
1D
100
AcDbLine
 10
-2.002860168081795
 20
5.6764024398667
 30
0.0
 11
-2.066020212598624
 21
5.739562484383532
 31
0.0
  0
LINE
  5
AB
330
23
100
AcDbEntity
  8
PLB-Tw~
  6
Continuous
 62
    18
370
    13
390
1D
100
AcDbLine
 10
-2.254660753486228
 20
6.24640107680508
 30
0.0
 11
-2.673019011458381
 21
6.664759334777233
 31
0.0
  0
ENDBLK
  5
AC
330
23
100
AcDbEntity
  8
PLB-Tw~
390
1D
100
AcDbBlockEnd
  0
BLOCK
  5
AD
330
24
100
AcDbEntity
  8
None
390
1D
100
AcDbBlockBegin
  2
Group-1
 70
     0
 10
0.0
 20
0.0
 30
0.0
  3
Group-1
  1

  0
POLYLINE
  5
AE
330
24
100
AcDbEntity
  8
None
  6
Continuous
 62
     7
370
    15
390
1D
100
AcDb2dPolyline
 66
     1
 10
0.0
 20
0.0
 30
0.0
 70
     1
 75
     5
  0
VERTEX
  5
AF
330
AE
100
AcDbEntity
  8
None
  6
Continuous
 62
     7
370
    15
390
1D
100
AcDbVertex
100
AcDb2dVertex
 10
17.73993241089472
 20
-11.65009404054001
 30
0.0
  0
VERTEX
  5
B0
330
AE
100
AcDbEntity
  8
None
  6
Continuous
 62
     7
370
    15
390
1D
100
AcDbVertex
100
AcDb2dVertex
 10
18.13172576106529
 20
-13.02430464041522
 30
0.0
  0
VERTEX
  5
B1
330
AE
100
AcDbEntity
  8
None
  6
Continuous
 62
     7
370
    15
390
1D
100
AcDbVertex
100
AcDb2dVertex
 10
18.43460730223761
 20
-12.8988641411165
 30
0.0
  0
SEQEND
  5
B2
330
AE
100
AcDbEntity
  8
None
  6
Continuous
 62
     7
370
    15
390
1D
  0
POLYLINE
  5
B4
330
24
100
AcDbEntity
  8
None
  6
Continuous
 62
     7
370
    15
390
1D
100
AcDb2dPolyline
 66
     1
 10
0.0
 20
0.0
 30
0.0
 70
     1
 75
     5
  0
VERTEX
  5
B5
330
B4
100
AcDbEntity
  8
None
  6
Continuous
 62
     7
370
    15
390
1D
100
AcDbVertex
100
AcDb2dVertex
 10
17.19242281338423
 20
-12.01593340683453
 30
0.0
  0
VERTEX
  5
B6
330
B4
100
AcDbEntity
  8
None
  6
Continuous
 62
     7
370
    15
390
1D
100
AcDbVertex
100
AcDb2dVertex
 10
18.08028029973358
 20
-13.13560562939821
 30
0.0
  0
VERTEX
  5
B7
330
B4
100
AcDbEntity
  8
None
  6
Continuous
 62
     7
370
    15
390
1D
100
AcDbVertex
100
AcDb2dVertex
 10
18.31210235556894
 20
-12.90380597177227
 30
0.0
  0
SEQEND
  5
B8
330
B4
100
AcDbEntity
  8
None
  6
Continuous
 62
     7
370
    15
390
1D
  0
POLYLINE
  5
BA
330
24
100
AcDbEntity
  8
None
  6
Continuous
 62
     7
370
    15
390
1D
100
AcDb2dPolyline
 66
     1
 10
0.0
 20
0.0
 30
0.0
 70
     1
 75
     5
  0
VERTEX
  5
BB
330
BA
100
AcDbEntity
  8
None
  6
Continuous
 62
     7
370
    15
390
1D
100
AcDbVertex
100
AcDb2dVertex
 10
16.82659056677864
 20
-12.56344776156908
 30
0.0
  0
VERTEX
  5
BC
330
BA
100
AcDbEntity
  8
None
  6
Continuous
 62
     7
370
    15
390
1D
100
AcDbVertex
100
AcDb2dVertex
 10
18.07534393545827
 20
-13.25812166078987
 30
0.0
  0
VERTEX
  5
BD
330
BA
100
AcDbEntity
  8
None
  6
Continuous
 62
     7
370
    15
390
1D
100
AcDbVertex
100
AcDb2dVertex
 10
18.20081369942788
 20
-12.95525224144114
 30
0.0
  0
SEQEND
  5
BE
330
BA
100
AcDbEntity
  8
None
  6
Continuous
 62
     7
370
    15
390
1D
  0
POLYLINE
  5
C0
330
24
100
AcDbEntity
  8
None
  6
Continuous
 62
     7
370
    15
390
1D
100
AcDb2dPolyline
 66
     1
 10
0.0
 20
0.0
 30
0.0
 70
     1
 75
     5
  0
VERTEX
  5
C1
330
C0
100
AcDbEntity
  8
None
  6
Continuous
 62
     7
370
    15
390
1D
100
AcDbVertex
100
AcDb2dVertex
 10
16.6981303143461
 20
-13.20928300746531
 30
0.0
  0
VERTEX
  5
C2
330
C0
100
AcDbEntity
  8
None
  6
Continuous
 62
     7
370
    15
390
1D
100
AcDbVertex
100
AcDb2dVertex
 10
18.11766818495197
 20
-13.37320077942142
 30
0.0
  0
VERTEX
  5
C3
330
C0
100
AcDbEntity
  8
None
  6
Continuous
 62
     7
370
    15
390
1D
100
AcDbVertex
100
AcDb2dVertex
 10
18.11768402287775
 20
-13.04537072192763
 30
0.0
  0
SEQEND
  5
C4
330
C0
100
AcDbEntity
  8
None
  6
Continuous
 62
     7
370
    15
390
1D
  0
POLYLINE
  5
C6
330
24
100
AcDbEntity
  8
None
  6
Continuous
 62
     7
370
    15
390
1D
100
AcDb2dPolyline
 66
     1
 10
0.0
 20
0.0
 30
0.0
 70
     1
 75
     5
  0
VERTEX
  5
C7
330
C6
100
AcDbEntity
  8
None
  6
Continuous
 62
     7
370
    15
390
1D
100
AcDbVertex
100
AcDb2dVertex
 10
16.82659896502438
 20
-13.8551165828466
 30
0.0
  0
VERTEX
  5
C8
330
C6
100
AcDbEntity
  8
None
  6
Continuous
 62
     7
370
    15
390
1D
100
AcDbVertex
100
AcDb2dVertex
 10
18.20080956489959
 20
-13.46332323267602
 30
0.0
  0
VERTEX
  5
C9
330
C6
100
AcDbEntity
  8
None
  6
Continuous
 62
     7
370
    15
390
1D
100
AcDbVertex
100
AcDb2dVertex
 10
18.07536906560088
 20
-13.1604416915037
 30
0.0
  0
SEQEND
  5
CA
330
C6
100
AcDbEntity
  8
None
  6
Continuous
 62
     7
370
    15
390
1D
  0
POLYLINE
  5
CC
330
24
100
AcDbEntity
  8
None
  6
Continuous
 62
     7
370
    15
390
1D
100
AcDb2dPolyline
 66
     1
 10
0.0
 20
0.0
 30
0.0
 70
     1
 75
     5
  0
VERTEX
  5
CD
330
CC
100
AcDbEntity
  8
None
  6
Continuous
 62
     7
370
    15
390
1D
100
AcDbVertex
100
AcDb2dVertex
 10
19.94496335144705
 20
-13.85509630768785
 30
0.0
  0
VERTEX
  5
CE
330
CC
100
AcDbEntity
  8
None
  6
Continuous
 62
     7
370
    15
390
1D
100
AcDbVertex
100
AcDb2dVertex
 10
18.69620998276742
 20
-13.16042240846707
 30
0.0
  0
VERTEX
  5
CF
330
CC
100
AcDbEntity
  8
None
  6
Continuous
 62
     7
370
    15
390
1D
100
AcDbVertex
100
AcDb2dVertex
 10
18.57074021879781
 20
-13.46329182781581
 30
0.0
  0
SEQEND
  5
D0
330
CC
100
AcDbEntity
  8
None
  6
Continuous
 62
     7
370
    15
390
1D
  0
POLYLINE
  5
D2
330
24
100
AcDbEntity
  8
None
  6
Continuous
 62
     7
370
    15
390
1D
100
AcDb2dPolyline
 66
     1
 10
0.0
 20
0.0
 30
0.0
 70
     1
 75
     5
  0
VERTEX
  5
D3
330
D2
100
AcDbEntity
  8
None
  6
Continuous
 62
     7
370
    15
390
1D
100
AcDbVertex
100
AcDb2dVertex
 10
20.07342360387958
 20
-13.20926106179163
 30
0.0
  0
VERTEX
  5
D4
330
D2
100
AcDbEntity
  8
None
  6
Continuous
 62
     7
370
    15
390
1D
100
AcDbVertex
100
AcDb2dVertex
 10
18.65388573327371
 20
-13.04534328983551
 30
0.0
  0
VERTEX
  5
D5
330
D2
100
AcDbEntity
  8
None
  6
Continuous
 62
     7
370
    15
390
1D
100
AcDbVertex
100
AcDb2dVertex
 10
18.65386989534794
 20
-13.37317334732933
 30
0.0
  0
SEQEND
  5
D6
330
D2
100
AcDbEntity
  8
None
  6
Continuous
 62
     7
370
    15
390
1D
  0
POLYLINE
  5
D8
330
24
100
AcDbEntity
  8
None
  6
Continuous
 62
     7
370
    15
390
1D
100
AcDb2dPolyline
 66
     1
 10
0.0
 20
0.0
 30
0.0
 70
     1
 75
     5
  0
VERTEX
  5
D9
330
D8
100
AcDbEntity
  8
None
  6
Continuous
 62
     7
370
    15
390
1D
100
AcDbVertex
100
AcDb2dVertex
 10
19.9449549532013
 20
-12.56342748641034
 30
0.0
  0
VERTEX
  5
DA
330
D8
100
AcDbEntity
  8
None
  6
Continuous
 62
     7
370
    15
390
1D
100
AcDbVertex
100
AcDb2dVertex
 10
18.57074435332608
 20
-12.95522083658092
 30
0.0
  0
VERTEX
  5
DB
330
D8
100
AcDbEntity
  8
None
  6
Continuous
 62
     7
370
    15
390
1D
100
AcDbVertex
100
AcDb2dVertex
 10
18.69618485262481
 20
-13.25810237775324
 30
0.0
  0
SEQEND
  5
DC
330
D8
100
AcDbEntity
  8
None
  6
Continuous
 62
     7
370
    15
390
1D
  0
POLYLINE
  5
DE
330
24
100
AcDbEntity
  8
None
  6
Continuous
 62
     7
370
    15
390
1D
100
AcDb2dPolyline
 66
     1
 10
0.0
 20
0.0
 30
0.0
 70
     1
 75
     5
  0
VERTEX
  5
DF
330
DE
100
AcDbEntity
  8
None
  6
Continuous
 62
     7
370
    15
390
1D
100
AcDbVertex
100
AcDb2dVertex
 10
19.57911558690679
 20
-12.01591788889985
 30
0.0
  0
VERTEX
  5
E0
330
DE
100
AcDbEntity
  8
None
  6
Continuous
 62
     7
370
    15
390
1D
100
AcDbVertex
100
AcDb2dVertex
 10
18.45944336434311
 20
-12.90377537524921
 30
0.0
  0
VERTEX
  5
E1
330
DE
100
AcDbEntity
  8
None
  6
Continuous
 62
     7
370
    15
390
1D
100
AcDbVertex
100
AcDb2dVertex
 10
18.69124302196904
 20
-13.13559743108457
 30
0.0
  0
SEQEND
  5
E2
330
DE
100
AcDbEntity
  8
None
  6
Continuous
 62
     7
370
    15
390
1D
  0
POLYLINE
  5
E4
330
24
100
AcDbEntity
  8
None
  6
Continuous
 62
     7
370
    15
390
1D
100
AcDb2dPolyline
 66
     1
 10
0.0
 20
0.0
 30
0.0
 70
     1
 75
     5
  0
VERTEX
  5
E5
330
E4
100
AcDbEntity
  8
None
  6
Continuous
 62
     7
370
    15
390
1D
100
AcDbVertex
100
AcDb2dVertex
 10
19.03160123217224
 20
-11.65008564229428
 30
0.0
  0
VERTEX
  5
E6
330
E4
100
AcDbEntity
  8
None
  6
Continuous
 62
     7
370
    15
390
1D
100
AcDbVertex
100
AcDb2dVertex
 10
18.33692733295145
 20
-12.89883901097389
 30
0.0
  0
VERTEX
  5
E7
330
E4
100
AcDbEntity
  8
None
  6
Continuous
 62
     7
370
    15
390
1D
100
AcDbVertex
100
AcDb2dVertex
 10
18.63979675230018
 20
-13.02430877494351
 30
0.0
  0
SEQEND
  5
E8
330
E4
100
AcDbEntity
  8
None
  6
Continuous
 62
     7
370
    15
390
1D
  0
POLYLINE
  5
EA
330
24
100
AcDbEntity
  8
None
  6
Continuous
 62
     7
370
    15
390
1D
100
AcDb2dPolyline
 66
     1
 10
0.0
 20
0.0
 30
0.0
 70
     1
 75
     5
  0
VERTEX
  5
EB
330
EA
100
AcDbEntity
  8
None
  6
Continuous
 62
     7
370
    15
390
1D
100
AcDbVertex
100
AcDb2dVertex
 10
18.385765986276
 20
-11.52162538986174
 30
0.0
  0
VERTEX
  5
EC
330
EA
100
AcDbEntity
  8
None
  6
Continuous
 62
     7
370
    15
390
1D
100
AcDbVertex
100
AcDb2dVertex
 10
18.2218482143199
 20
-12.94116326046761
 30
0.0
  0
VERTEX
  5
ED
330
EA
100
AcDbEntity
  8
None
  6
Continuous
 62
     7
370
    15
390
1D
100
AcDbVertex
100
AcDb2dVertex
 10
18.5496782718137
 20
-12.94117909839337
 30
0.0
  0
SEQEND
  5
EE
330
EA
100
AcDbEntity
  8
None
  6
Continuous
 62
     7
370
    15
390
1D
  0
ENDBLK
  5
F0
330
24
100
AcDbEntity
  8
None
390
1D
100
AcDbBlockEnd
  0
BLOCK
  5
F1
330
25
100
AcDbEntity
  8
None
390
1D
100
AcDbBlockBegin
  2
Group-2
 70
     0
 10
0.0
 20
0.0
 30
0.0
  3
Group-2
  1

  0
LINE
  5
F2
330
25
100
AcDbEntity
  8
None
  6
Continuous
 62
   255
370
    25
390
1D
100
AcDbLine
 10
18.38577695911284
 20
-13.60162633827851
 30
0.0
 11
18.00068299230174
 21
-13.37929223287682
 31
0.0
  0
LINE
  5
F3
330
25
100
AcDbEntity
  8
None
  6
Continuous
 62
   255
370
    25
390
1D
100
AcDbLine
 10
18.16434792819645
 20
-13.47378422767254
 30
0.0
 11
18.13189434332719
 21
-13.2897308018221
 31
0.0
  0
LINE
  5
F4
330
25
100
AcDbEntity
  8
None
  6
Continuous
 62
   255
370
    25
390
1D
100
AcDbLine
 10
18.16434792819645
 20
-13.47378422767254
 30
0.0
 11
17.9887261933218
 21
-13.53770531165711
 31
0.0
  0
ENDBLK
  5
F5
330
25
100
AcDbEntity
  8
None
390
1D
100
AcDbBlockEnd
  0
BLOCK
  5
F6
330
26
100
AcDbEntity
  8
None
390
1D
100
AcDbBlockBegin
  2
Group-3
 70
     0
 10
0.0
 20
0.0
 30
0.0
  3
Group-3
  1

  0
LINE
  5
F7
330
26
100
AcDbEntity
  8
None
  6
Continuous
 62
   255
370
    25
390
1D
100
AcDbLine
 10
18.38577695911284
 20
-13.60162633827851
 30
0.0
 11
18.00068299230174
 21
-13.82396044368021
 31
0.0
  0
LINE
  5
F8
330
26
100
AcDbEntity
  8
None
  6
Continuous
 62
   255
370
    25
390
1D
100
AcDbLine
 10
18.16434792819645
 20
-13.72946844888449
 30
0.0
 11
17.9887261933218
 21
-13.66554736489992
 31
0.0
  0
LINE
  5
F9
330
26
100
AcDbEntity
  8
None
  6
Continuous
 62
   255
370
    25
390
1D
100
AcDbLine
 10
18.16434792819645
 20
-13.72946844888449
 30
0.0
 11
18.13189434332719
 21
-13.91352187473492
 31
0.0
  0
ENDBLK
  5
FA
330
26
100
AcDbEntity
  8
None
390
1D
100
AcDbBlockEnd
  0
BLOCK
  5
FB
330
27
100
AcDbEntity
  8
None
390
1D
100
AcDbBlockBegin
  2
Group-4
 70
     0
 10
0.0
 20
0.0
 30
0.0
  3
Group-4
  1

  0
LINE
  5
FC
330
27
100
AcDbEntity
  8
None
  6
Continuous
 62
   255
370
    25
390
1D
100
AcDbLine
 10
18.38577695911284
 20
-13.60162633827851
 30
0.0
 11
18.38577695911284
 21
-14.0462945490819
 31
0.0
  0
LINE
  5
FD
330
27
100
AcDbEntity
  8
None
  6
Continuous
 62
   255
370
    25
390
1D
100
AcDbLine
 10
18.38577695911284
 20
-13.85731055949046
 30
0.0
 11
18.24260880910744
 21
-13.97744290135633
 31
0.0
  0
LINE
  5
FE
330
27
100
AcDbEntity
  8
None
  6
Continuous
 62
   255
370
    25
390
1D
100
AcDbLine
 10
18.38577695911284
 20
-13.85731055949046
 30
0.0
 11
18.52894510911824
 21
-13.97744290135633
 31
0.0
  0
ENDBLK
  5
FF
330
27
100
AcDbEntity
  8
None
390
1D
100
AcDbBlockEnd
  0
BLOCK
  5
100
330
28
100
AcDbEntity
  8
None
390
1D
100
AcDbBlockBegin
  2
Group-5
 70
     0
 10
0.0
 20
0.0
 30
0.0
  3
Group-5
  1

  0
LINE
  5
101
330
28
100
AcDbEntity
  8
None
  6
Continuous
 62
   255
370
    25
390
1D
100
AcDbLine
 10
18.38577695911284
 20
-13.60162633827851
 30
0.0
 11
18.77087092592395
 21
-13.82396044368021
 31
0.0
  0
LINE
  5
102
330
28
100
AcDbEntity
  8
None
  6
Continuous
 62
   255
370
    25
390
1D
100
AcDbLine
 10
18.60720599002923
 20
-13.72946844888449
 30
0.0
 11
18.63965957489848
 21
-13.91352187473492
 31
0.0
  0
LINE
  5
103
330
28
100
AcDbEntity
  8
None
  6
Continuous
 62
   255
370
    25
390
1D
100
AcDbLine
 10
18.60720599002923
 20
-13.72946844888449
 30
0.0
 11
18.7828277249039
 21
-13.66554736489992
 31
0.0
  0
ENDBLK
  5
104
330
28
100
AcDbEntity
  8
None
390
1D
100
AcDbBlockEnd
  0
BLOCK
  5
105
330
29
100
AcDbEntity
  8
None
390
1D
100
AcDbBlockBegin
  2
Group-6
 70
     0
 10
0.0
 20
0.0
 30
0.0
  3
Group-6
  1

  0
LINE
  5
106
330
29
100
AcDbEntity
  8
None
  6
Continuous
 62
   255
370
    25
390
1D
100
AcDbLine
 10
18.38577695911284
 20
-13.60162633827851
 30
0.0
 11
18.77087092592395
 21
-13.37929223287682
 31
0.0
  0
LINE
  5
107
330
29
100
AcDbEntity
  8
None
  6
Continuous
 62
   255
370
    25
390
1D
100
AcDbLine
 10
18.60720599002923
 20
-13.47378422767254
 30
0.0
 11
18.7828277249039
 21
-13.53770531165711
 31
0.0
  0
LINE
  5
108
330
29
100
AcDbEntity
  8
None
  6
Continuous
 62
   255
370
    25
390
1D
100
AcDbLine
 10
18.60720599002923
 20
-13.47378422767254
 30
0.0
 11
18.63965957489848
 21
-13.2897308018221
 31
0.0
  0
ENDBLK
  5
109
330
29
100
AcDbEntity
  8
None
390
1D
100
AcDbBlockEnd
  0
BLOCK
  5
10A
330
2A
100
AcDbEntity
  8
None
390
1D
100
AcDbBlockBegin
  2
Group-7
 70
     0
 10
0.0
 20
0.0
 30
0.0
  3
Group-7
  1

  0
LINE
  5
10B
330
2A
100
AcDbEntity
  8
None
  6
Continuous
 62
   255
370
    25
390
1D
100
AcDbLine
 10
18.38577695911284
 20
-13.60162633827851
 30
0.0
 11
18.38577695911284
 21
-13.15695812747512
 31
0.0
  0
LINE
  5
10C
330
2A
100
AcDbEntity
  8
None
  6
Continuous
 62
   255
370
    25
390
1D
100
AcDbLine
 10
18.38577695911284
 20
-13.34594211706657
 30
0.0
 11
18.52894510911824
 21
-13.2258097752007
 31
0.0
  0
LINE
  5
10D
330
2A
100
AcDbEntity
  8
None
  6
Continuous
 62
   255
370
    25
390
1D
100
AcDbLine
 10
18.38577695911284
 20
-13.34594211706657
 30
0.0
 11
18.24260880910744
 21
-13.2258097752007
 31
0.0
  0
ENDBLK
  5
10E
330
2A
100
AcDbEntity
  8
None
390
1D
100
AcDbBlockEnd
  0
BLOCK
  5
10F
330
2B
100
AcDbEntity
  8
None
390
1D
100
AcDbBlockBegin
  2
Group-8
 70
     0
 10
0.0
 20
0.0
 30
0.0
  3
Group-8
  1

  0
INSERT
  5
110
330
2B
100
AcDbEntity
  8
None
 62
   255
390
1D
100
AcDbBlockReference
  2
Group-2
 10
0.0
 20
0.0
 30
0.0
  0
INSERT
  5
111
330
2B
100
AcDbEntity
  8
None
 62
   255
390
1D
100
AcDbBlockReference
  2
Group-3
 10
0.0
 20
0.0
 30
0.0
  0
INSERT
  5
112
330
2B
100
AcDbEntity
  8
None
 62
   255
390
1D
100
AcDbBlockReference
  2
Group-4
 10
0.0
 20
0.0
 30
0.0
  0
INSERT
  5
113
330
2B
100
AcDbEntity
  8
None
 62
   255
390
1D
100
AcDbBlockReference
  2
Group-5
 10
0.0
 20
0.0
 30
0.0
  0
INSERT
  5
114
330
2B
100
AcDbEntity
  8
None
 62
   255
390
1D
100
AcDbBlockReference
  2
Group-6
 10
0.0
 20
0.0
 30
0.0
  0
INSERT
  5
115
330
2B
100
AcDbEntity
  8
None
 62
   255
390
1D
100
AcDbBlockReference
  2
Group-7
 10
0.0
 20
0.0
 30
0.0
  0
ENDBLK
  5
116
330
2B
100
AcDbEntity
  8
None
390
1D
100
AcDbBlockEnd
  0
BLOCK
  5
117
330
2C
100
AcDbEntity
  8
None
390
1D
100
AcDbBlockBegin
  2
Group-9
 70
     0
 10
0.0
 20
0.0
 30
0.0
  3
Group-9
  1

  0
POLYLINE
  5
118
330
2C
100
AcDbEntity
  8
None
  6
Continuous
 62
     7
370
     5
390
1D
100
AcDb2dPolyline
 66
     1
 10
0.0
 20
0.0
 30
0.0
 70
     1
 75
     5
  0
VERTEX
  5
119
330
118
100
AcDbEntity
  8
None
  6
Continuous
 62
     7
370
     5
390
1D
100
AcDbVertex
100
AcDb2dVertex
 10
17.1187995202429
 20
-14.206505889739
 30
0.0
  0
VERTEX
  5
11A
330
118
100
AcDbEntity
  8
None
  6
Continuous
 62
     7
370
     5
390
1D
100
AcDbVertex
100
AcDb2dVertex
 10
19.65275439798279
 20
-14.206505889739
 30
0.0
  0
VERTEX
  5
11B
330
118
100
AcDbEntity
  8
None
  6
Continuous
 62
     7
370
     5
390
1D
100
AcDbVertex
100
AcDb2dVertex
 10
18.38577695911284
 20
-12.01203659357277
 30
0.0
  0
SEQEND
  5
11C
330
118
100
AcDbEntity
  8
None
  6
Continuous
 62
     7
370
     5
390
1D
  0
LINE
  5
11E
330
2C
100
AcDbEntity
  8
None
  6
Continuous
 62
     1
370
     5
390
1D
100
AcDbLine
 10
20.03761582430618
 20
-13.20927203462847
 30
0.0
 11
19.13740806004439
 21
-13.31389984893515
 31
0.0
  0
INSERT
  5
11F
330
2C
100
AcDbEntity
  8
None
 62
     7
390
1D
100
AcDbBlockReference
  2
Group-1
 10
0.0
 20
0.0
 30
0.0
  0
INSERT
  5
120
330
2C
100
AcDbEntity
  8
None
 62
   255
390
1D
100
AcDbBlockReference
  2
Group-8
 10
0.0
 20
0.0
 30
0.0
  0
ENDBLK
  5
121
330
2C
100
AcDbEntity
  8
None
390
1D
100
AcDbBlockEnd
  0
BLOCK
  5
122
330
2D
100
AcDbEntity
  8
None
390
1D
100
AcDbBlockBegin
  2
Group-10
 70
     0
 10
0.0
 20
0.0
 30
0.0
  3
Group-10
  1

  0
MTEXT
  5
123
330
2D
100
AcDbEntity
  8
None
 62
     7
390
1D
100
AcDbMText
 10
18.3761752519529
 20
-14.48002683916142
 30
0.0
 40
0.5385300307387179
 41
0.0
 46
0.0
 71
     2
 72
     1
  1
PLACID
  7
Optima
 73
     1
 44
0.6164830475628543
  0
MTEXT
  5
124
330
2D
100
AcDbEntity
  8
None
 62
     7
390
1D
100
AcDbMText
 10
17.07503125741399
 20
-15.14657558262525
 30
0.0
 40
0.3269646615199357
 41
0.0
 46
0.0
 71
     1
 72
     1
  1
INDUSTRIES
  7
Optima
 73
     1
 44
1.052953045237355
  0
INSERT
  5
125
330
2D
100
AcDbEntity
  8
None
 62
     7
390
1D
100
AcDbBlockReference
  2
Group-9
 10
0.0
 20
0.0
 30
0.0
  0
ENDBLK
  5
126
330
2D
100
AcDbEntity
  8
None
390
1D
100
AcDbBlockEnd
  0
BLOCK
  5
127
330
2E
100
AcDbEntity
  8
None
390
1D
100
AcDbBlockBegin
  2
Group-11
 70
     0
 10
0.0
 20
0.0
 30
0.0
  3
Group-11
  1

  0
INSERT
  5
128
330
2E
100
AcDbEntity
  8
None
 62
     7
390
1D
100
AcDbBlockReference
  2
Group-10
 10
0.0
 20
0.0
 30
0.0
  0
MTEXT
  5
129
330
2E
100
AcDbEntity
  8
None
 62
     7
390
1D
100
AcDbMText
 10
7.491545545859776
 20
-14.30661056116903
 30
0.0
 40
0.4743935229500436
 41
7.810897532496714
 46
0.0
 71
     1
 72
     1
  1
Telephone  518 523-2422\Pwww.placidindustries.com
  7
Helvetica
 73
     1
 44
0.8397955333929318
  0
LINE
  5
12A
330
2E
100
AcDbEntity
  8
None
  6
Continuous
 62
     7
370
     5
390
1D
100
AcDbLine
 10
7.491545545859776
 20
-14.10754632195725
 30
0.0
 11
15.05058530200088
 21
-14.10754632195725
 31
0.0
  0
MTEXT
  5
12B
330
2E
100
AcDbEntity
  8
None
 62
     7
390
1D
100
AcDbMText
 10
7.486309993714372
 20
-13.42152614429969
 30
0.0
 40
0.4743935229500436
 41
0.0
 46
0.0
 71
     1
 72
     1
  1
Lake Placid,   NY      USA
  7
Helvetica
 73
     1
 44
0.8397955333929318
  0
ENDBLK
  5
12C
330
2E
100
AcDbEntity
  8
None
390
1D
100
AcDbBlockEnd
  0
BLOCK
  5
12D
330
2F
100
AcDbEntity
  8
Dimension
390
1D
100
AcDbBlockBegin
  2
*D13
 70
     1
 10
0.0
 20
0.0
 30
0.0
  3
*D13
  1

  0
LINE
  5
12E
330
2F
100
AcDbEntity
  8
Dimension
  6
Continuous
 62
     0
370
    -2
390
1D
100
AcDbLine
 10
25.05029365254651
 20
15.18588179466931
 30
0.0
 11
22.97666758030868
 21
19.0840761258129
 31
0.0
  0
POLYLINE
  5
12F
102
{ACAD_REACTORS
330
134
102
}
330
2F
100
AcDbEntity
  8
DRAWING
  6
Continuous
 62
     0
370
     5
390
1D
100
AcDb2dPolyline
 66
     1
 10
0.0
 20
0.0
 30
0.0
 70
     1
 75
     5
  0
VERTEX
  5
130
330
12F
100
AcDbEntity
  8
DRAWING
  6
Continuous
 62
     0
370
     5
390
1D
100
AcDbVertex
100
AcDb2dVertex
 10
24.93385041838634
 20
15.6902528541577
 30
0.0
  0
VERTEX
  5
131
330
12F
100
AcDbEntity
  8
DRAWING
  6
Continuous
 62
     0
370
     5
390
1D
100
AcDbVertex
100
AcDb2dVertex
 10
25.05029365254651
 20
15.18588179466931
 30
0.0
  0
VERTEX
  5
132
330
12F
100
AcDbEntity
  8
DRAWING
  6
Continuous
 62
     0
370
     5
390
1D
100
AcDbVertex
100
AcDb2dVertex
 10
24.69726532392079
 20
15.56445832803985
 30
0.0
  0
SEQEND
  5
133
330
12F
100
AcDbEntity
  8
DRAWING
  6
Continuous
 62
     0
370
     5
390
1D
  0
HATCH
  5
134
330
2F
100
AcDbEntity
  8
Dimension
  6
Continuous
 62
     0
370
     0
390
1D
100
AcDbHatch
 10
0.0
 20
0.0
 30
0.0
210
0.0
220
0.0
230
1.0
  2
SOLID
 70
     1
 71
     1
 91
        1
 92
        1
 93
        3
 72
     1
 10
24.93385041838634
 20
15.6902528541577
 11
25.05029365254651
 21
15.18588179466931
 72
     1
 10
25.05029365254651
 20
15.18588179466931
 11
24.69726532392079
 21
15.56445832803985
 72
     1
 10
24.69726532392079
 20
15.56445832803985
 11
24.93385041838634
 21
15.6902528541577
 97
        1
330
12F
 75
     0
 76
     1
 98
        1
 10
0.0
 20
0.0
  0
LINE
  5
135
330
2F
100
AcDbEntity
  8
Dimension
  6
Continuous
 62
     0
370
    -2
390
1D
100
AcDbLine
 10
22.97666758030868
 20
19.0840761258129
 30
0.0
 11
22.03178758030868
 21
19.0840761258129
 31
0.0
  0
MTEXT
  5
136
330
2F
100
AcDbEntity
  8
Dimension
 62
     0
390
1D
100
AcDbMText
 10
20.45040737197534
 20
19.28288898738349
 30
0.0
 40
0.3188128615705982
 41
0.0
 46
0.0
 71
     1
 72
     1
  1
Ø 5.906
  7
Helvetica
 73
     1
 44
0.8397955333929318
  0
POINT
  5
137
330
2F
100
AcDbEntity
  8
Defpoints
 62
     0
370
     0
390
1D
100
AcDbPoint
 10
27.82372209548499
 20
9.972134157696535
 30
0.0
  0
POINT
  5
138
330
2F
100
AcDbEntity
  8
Defpoints
 62
     0
370
     0
390
1D
100
AcDbPoint
 10
25.05029365254651
 20
15.18588179466931
 30
0.0
  0
ENDBLK
  5
139
330
2F
100
AcDbEntity
  8
Dimension
390
1D
100
AcDbBlockEnd
  0
BLOCK
  5
13A
330
30
100
AcDbEntity
  8
Dimension
390
1D
100
AcDbBlockBegin
  2
*D14
 70
     1
 10
0.0
 20
0.0
 30
0.0
  3
*D14
  1

  0
LINE
  5
13B
330
30
100
AcDbEntity
  8
Dimension
  6
Continuous
 62
     0
370
    -2
390
1D
100
AcDbLine
 10
10.85068332834011
 20
16.2238898659467
 30
0.0
 11
10.85068332834011
 21
21.26011033838765
 31
0.0
  0
LINE
  5
13C
330
30
100
AcDbEntity
  8
Dimension
  6
Continuous
 62
     0
370
    -2
390
1D
100
AcDbLine
 10
15.49635560817352
 20
16.2238898659467
 30
0.0
 11
15.49635560817352
 21
21.26011033838765
 31
0.0
  0
LINE
  5
13D
330
30
100
AcDbEntity
  8
Dimension
  6
Continuous
 62
     0
370
    -2
390
1D
100
AcDbLine
 10
10.85068332834011
 20
20.94514970846639
 30
0.0
 11
15.49635560817352
 21
20.94514970846639
 31
0.0
  0
POLYLINE
  5
13E
102
{ACAD_REACTORS
330
143
102
}
330
30
100
AcDbEntity
  8
DRAWING
  6
Continuous
 62
     0
370
     5
390
1D
100
AcDb2dPolyline
 66
     1
 10
0.0
 20
0.0
 30
0.0
 70
     1
 75
     5
  0
VERTEX
  5
13F
330
13E
100
AcDbEntity
  8
DRAWING
  6
Continuous
 62
     0
370
     5
390
1D
100
AcDbVertex
100
AcDb2dVertex
 10
11.35068332834011
 20
20.81117511225083
 30
0.0
  0
VERTEX
  5
140
330
13E
100
AcDbEntity
  8
DRAWING
  6
Continuous
 62
     0
370
     5
390
1D
100
AcDbVertex
100
AcDb2dVertex
 10
10.85068332834011
 20
20.94514970846639
 30
0.0
  0
VERTEX
  5
141
330
13E
100
AcDbEntity
  8
DRAWING
  6
Continuous
 62
     0
370
     5
390
1D
100
AcDbVertex
100
AcDb2dVertex
 10
11.35068332834011
 20
21.07912430468195
 30
0.0
  0
SEQEND
  5
142
330
13E
100
AcDbEntity
  8
DRAWING
  6
Continuous
 62
     0
370
     5
390
1D
  0
HATCH
  5
143
330
30
100
AcDbEntity
  8
Dimension
  6
Continuous
 62
     0
370
     0
390
1D
100
AcDbHatch
 10
0.0
 20
0.0
 30
0.0
210
0.0
220
0.0
230
1.0
  2
SOLID
 70
     1
 71
     1
 91
        1
 92
        1
 93
        3
 72
     1
 10
11.35068332834011
 20
20.81117511225083
 11
10.85068332834011
 21
20.94514970846639
 72
     1
 10
10.85068332834011
 20
20.94514970846639
 11
11.35068332834011
 21
21.07912430468195
 72
     1
 10
11.35068332834011
 20
21.07912430468195
 11
11.35068332834011
 21
20.81117511225083
 97
        1
330
13E
 75
     0
 76
     1
 98
        1
 10
0.0
 20
0.0
  0
POLYLINE
  5
144
102
{ACAD_REACTORS
330
149
102
}
330
30
100
AcDbEntity
  8
DRAWING
  6
Continuous
 62
     0
370
     5
390
1D
100
AcDb2dPolyline
 66
     1
 10
0.0
 20
0.0
 30
0.0
 70
     1
 75
     5
  0
VERTEX
  5
145
330
144
100
AcDbEntity
  8
DRAWING
  6
Continuous
 62
     0
370
     5
390
1D
100
AcDbVertex
100
AcDb2dVertex
 10
14.99635560817352
 20
21.07912430468195
 30
0.0
  0
VERTEX
  5
146
330
144
100
AcDbEntity
  8
DRAWING
  6
Continuous
 62
     0
370
     5
390
1D
100
AcDbVertex
100
AcDb2dVertex
 10
15.49635560817352
 20
20.94514970846639
 30
0.0
  0
VERTEX
  5
147
330
144
100
AcDbEntity
  8
DRAWING
  6
Continuous
 62
     0
370
     5
390
1D
100
AcDbVertex
100
AcDb2dVertex
 10
14.99635560817352
 20
20.81117511225083
 30
0.0
  0
SEQEND
  5
148
330
144
100
AcDbEntity
  8
DRAWING
  6
Continuous
 62
     0
370
     5
390
1D
  0
HATCH
  5
149
330
30
100
AcDbEntity
  8
Dimension
  6
Continuous
 62
     0
370
     0
390
1D
100
AcDbHatch
 10
0.0
 20
0.0
 30
0.0
210
0.0
220
0.0
230
1.0
  2
SOLID
 70
     1
 71
     1
 91
        1
 92
        1
 93
        3
 72
     1
 10
14.99635560817352
 20
21.07912430468195
 11
15.49635560817352
 21
20.94514970846639
 72
     1
 10
15.49635560817352
 20
20.94514970846639
 11
14.99635560817352
 21
20.81117511225083
 72
     1
 10
14.99635560817352
 20
20.81117511225083
 11
14.99635560817352
 21
21.07912430468195
 97
        1
330
144
 75
     0
 76
     1
 98
        1
 10
0.0
 20
0.0
  0
MTEXT
  5
14A
330
30
100
AcDbEntity
  8
Dimension
 62
     0
390
1D
100
AcDbMText
 10
12.61742137797904
 20
21.14396257003699
 30
0.0
 40
0.3188128615705982
 41
0.0
 46
0.0
 71
     1
 72
     1
  1
4.646
  7
Helvetica
 73
     1
 44
0.8397955333929318
  0
POINT
  5
14B
330
30
100
AcDbEntity
  8
Defpoints
 62
     0
370
     0
390
1D
100
AcDbPoint
 10
15.49635560817352
 20
16.0238898659467
 30
0.0
  0
POINT
  5
14C
330
30
100
AcDbEntity
  8
Defpoints
 62
     0
370
     0
390
1D
100
AcDbPoint
 10
10.85068332834011
 20
16.0238898659467
 30
0.0
  0
POINT
  5
14D
330
30
100
AcDbEntity
  8
Defpoints
 62
     0
370
     0
390
1D
100
AcDbPoint
 10
10.85068332834011
 20
20.94514970846639
 30
0.0
  0
ENDBLK
  5
14E
330
30
100
AcDbEntity
  8
Dimension
390
1D
100
AcDbBlockEnd
  0
BLOCK
  5
14F
330
31
100
AcDbEntity
  8
Dimension
390
1D
100
AcDbBlockBegin
  2
*D15
 70
     1
 10
0.0
 20
0.0
 30
0.0
  3
*D15
  1

  0
LINE
  5
150
330
31
100
AcDbEntity
  8
Dimension
  6
Continuous
 62
     0
370
    -2
390
1D
100
AcDbLine
 10
15.73257608061446
 20
15.23963789744277
 30
0.0
 11
15.73257608061446
 21
19.52782687382072
 31
0.0
  0
LINE
  5
151
330
31
100
AcDbEntity
  8
Dimension
  6
Continuous
 62
     0
370
    -2
390
1D
100
AcDbLine
 10
15.49635560817352
 20
16.2238898659467
 30
0.0
 11
15.49635560817352
 21
19.52782687382072
 31
0.0
  0
LINE
  5
152
330
31
100
AcDbEntity
  8
Dimension
  6
Continuous
 62
     0
370
    -2
390
1D
100
AcDbLine
 10
15.49635560817352
 20
19.21286624389946
 30
0.0
 11
15.73257608061446
 21
19.21286624389946
 31
0.0
  0
LINE
  5
153
330
31
100
AcDbEntity
  8
Dimension
  6
Continuous
 62
     0
370
    -2
390
1D
100
AcDbLine
 10
15.73257608061446
 20
19.21286624389946
 30
0.0
 11
16.82595463842055
 21
19.21286624389946
 31
0.0
  0
POLYLINE
  5
154
102
{ACAD_REACTORS
330
159
102
}
330
31
100
AcDbEntity
  8
DRAWING
  6
Continuous
 62
     0
370
     5
390
1D
100
AcDb2dPolyline
 66
     1
 10
0.0
 20
0.0
 30
0.0
 70
     1
 75
     5
  0
VERTEX
  5
155
330
154
100
AcDbEntity
  8
DRAWING
  6
Continuous
 62
     0
370
     5
390
1D
100
AcDbVertex
100
AcDb2dVertex
 10
16.23257608061446
 20
19.0788916476839
 30
0.0
  0
VERTEX
  5
156
330
154
100
AcDbEntity
  8
DRAWING
  6
Continuous
 62
     0
370
     5
390
1D
100
AcDbVertex
100
AcDb2dVertex
 10
15.73257608061446
 20
19.21286624389946
 30
0.0
  0
VERTEX
  5
157
330
154
100
AcDbEntity
  8
DRAWING
  6
Continuous
 62
     0
370
     5
390
1D
100
AcDbVertex
100
AcDb2dVertex
 10
16.23257608061446
 20
19.34684084011502
 30
0.0
  0
SEQEND
  5
158
330
154
100
AcDbEntity
  8
DRAWING
  6
Continuous
 62
     0
370
     5
390
1D
  0
HATCH
  5
159
330
31
100
AcDbEntity
  8
Dimension
  6
Continuous
 62
     0
370
     0
390
1D
100
AcDbHatch
 10
0.0
 20
0.0
 30
0.0
210
0.0
220
0.0
230
1.0
  2
SOLID
 70
     1
 71
     1
 91
        1
 92
        1
 93
        3
 72
     1
 10
16.23257608061446
 20
19.0788916476839
 11
15.73257608061446
 21
19.21286624389946
 72
     1
 10
15.73257608061446
 20
19.21286624389946
 11
16.23257608061446
 21
19.34684084011502
 72
     1
 10
16.23257608061446
 20
19.34684084011502
 11
16.23257608061446
 21
19.0788916476839
 97
        1
330
154
 75
     0
 76
     1
 98
        1
 10
0.0
 20
0.0
  0
LINE
  5
15A
330
31
100
AcDbEntity
  8
Dimension
  6
Continuous
 62
     0
370
    -2
390
1D
100
AcDbLine
 10
15.49635560817352
 20
19.21286624389946
 30
0.0
 11
14.39399560817352
 21
19.21286624389946
 31
0.0
  0
POLYLINE
  5
15B
102
{ACAD_REACTORS
330
160
102
}
330
31
100
AcDbEntity
  8
DRAWING
  6
Continuous
 62
     0
370
     5
390
1D
100
AcDb2dPolyline
 66
     1
 10
0.0
 20
0.0
 30
0.0
 70
     1
 75
     5
  0
VERTEX
  5
15C
330
15B
100
AcDbEntity
  8
DRAWING
  6
Continuous
 62
     0
370
     5
390
1D
100
AcDbVertex
100
AcDb2dVertex
 10
14.99635560817352
 20
19.34684084011502
 30
0.0
  0
VERTEX
  5
15D
330
15B
100
AcDbEntity
  8
DRAWING
  6
Continuous
 62
     0
370
     5
390
1D
100
AcDbVertex
100
AcDb2dVertex
 10
15.49635560817352
 20
19.21286624389946
 30
0.0
  0
VERTEX
  5
15E
330
15B
100
AcDbEntity
  8
DRAWING
  6
Continuous
 62
     0
370
     5
390
1D
100
AcDbVertex
100
AcDb2dVertex
 10
14.99635560817352
 20
19.0788916476839
 30
0.0
  0
SEQEND
  5
15F
330
15B
100
AcDbEntity
  8
DRAWING
  6
Continuous
 62
     0
370
     5
390
1D
  0
HATCH
  5
160
330
31
100
AcDbEntity
  8
Dimension
  6
Continuous
 62
     0
370
     0
390
1D
100
AcDbHatch
 10
0.0
 20
0.0
 30
0.0
210
0.0
220
0.0
230
1.0
  2
SOLID
 70
     1
 71
     1
 91
        1
 92
        1
 93
        3
 72
     1
 10
14.99635560817352
 20
19.34684084011502
 11
15.49635560817352
 21
19.21286624389946
 72
     1
 10
15.49635560817352
 20
19.21286624389946
 11
14.99635560817352
 21
19.0788916476839
 72
     1
 10
14.99635560817352
 20
19.0788916476839
 11
14.99635560817352
 21
19.34684084011502
 97
        1
330
15B
 75
     0
 76
     1
 98
        1
 10
0.0
 20
0.0
  0
MTEXT
  5
161
330
31
100
AcDbEntity
  8
Dimension
 62
     0
390
1D
100
AcDbMText
 10
16.82595463842055
 20
19.41167910547006
 30
0.0
 40
0.3188128615705982
 41
0.0
 46
0.0
 71
     1
 72
     1
  1
.236
  7
Helvetica
 73
     1
 44
0.8397955333929318
  0
POINT
  5
162
330
31
100
AcDbEntity
  8
Defpoints
 62
     0
370
     0
390
1D
100
AcDbPoint
 10
15.49635560817352
 20
16.0238898659467
 30
0.0
  0
POINT
  5
163
330
31
100
AcDbEntity
  8
Defpoints
 62
     0
370
     0
390
1D
100
AcDbPoint
 10
15.73257608061446
 20
15.03963789744277
 30
0.0
  0
POINT
  5
164
330
31
100
AcDbEntity
  8
Defpoints
 62
     0
370
     0
390
1D
100
AcDbPoint
 10
15.73257608061446
 20
19.21286624389946
 30
0.0
  0
ENDBLK
  5
165
330
31
100
AcDbEntity
  8
Dimension
390
1D
100
AcDbBlockEnd
  0
BLOCK
  5
166
330
32
100
AcDbEntity
  8
Dimension
390
1D
100
AcDbBlockBegin
  2
*D16
 70
     1
 10
0.0
 20
0.0
 30
0.0
  3
*D16
  1

  0
LINE
  5
167
330
32
100
AcDbEntity
  8
Dimension
  6
Continuous
 62
     0
370
    -2
390
1D
100
AcDbLine
 10
27.52653702590953
 20
10.37273831075832
 30
0.0
 11
29.23210363966958
 21
6.919007976182925
 31
0.0
  0
POLYLINE
  5
168
102
{ACAD_REACTORS
330
16D
102
}
330
32
100
AcDbEntity
  8
DRAWING
  6
Continuous
 62
     0
370
     5
390
1D
100
AcDb2dPolyline
 66
     1
 10
0.0
 20
0.0
 30
0.0
 70
     1
 75
     5
  0
VERTEX
  5
169
330
168
100
AcDbEntity
  8
DRAWING
  6
Continuous
 62
     0
370
     5
390
1D
100
AcDbVertex
100
AcDb2dVertex
 10
27.63416003647574
 20
9.866411854775826
 30
0.0
  0
VERTEX
  5
16A
330
168
100
AcDbEntity
  8
DRAWING
  6
Continuous
 62
     0
370
     5
390
1D
100
AcDbVertex
100
AcDb2dVertex
 10
27.52653702590953
 20
10.37273831075832
 30
0.0
  0
VERTEX
  5
16B
330
168
100
AcDbEntity
  8
DRAWING
  6
Continuous
 62
     0
370
     5
390
1D
100
AcDbVertex
100
AcDb2dVertex
 10
27.87290451508287
 20
9.988058242552441
 30
0.0
  0
SEQEND
  5
16C
330
168
100
AcDbEntity
  8
DRAWING
  6
Continuous
 62
     0
370
     5
390
1D
  0
HATCH
  5
16D
330
32
100
AcDbEntity
  8
Dimension
  6
Continuous
 62
     0
370
     0
390
1D
100
AcDbHatch
 10
0.0
 20
0.0
 30
0.0
210
0.0
220
0.0
230
1.0
  2
SOLID
 70
     1
 71
     1
 91
        1
 92
        1
 93
        3
 72
     1
 10
27.63416003647574
 20
9.866411854775826
 11
27.52653702590953
 21
10.37273831075832
 72
     1
 10
27.52653702590953
 20
10.37273831075832
 11
27.87290451508287
 21
9.988058242552441
 72
     1
 10
27.87290451508287
 20
9.988058242552441
 11
27.63416003647574
 21
9.866411854775826
 97
        1
330
168
 75
     0
 76
     1
 98
        1
 10
0.0
 20
0.0
  0
LINE
  5
16E
330
32
100
AcDbEntity
  8
Dimension
  6
Continuous
 62
     0
370
    -2
390
1D
100
AcDbLine
 10
29.23210363966958
 20
6.919007976182925
 30
0.0
 11
30.17698363966958
 21
6.919007976182925
 31
0.0
  0
MTEXT
  5
16F
330
32
100
AcDbEntity
  8
Dimension
 62
     0
390
1D
100
AcDbMText
 10
30.17698363966958
 20
7.006709726642413
 30
0.0
 40
0.3188128615705982
 41
0.0
 46
0.0
 71
     1
 72
     1
  1
Ø 
  7
Helvetica
 73
     1
 44
0.8397955333929318
  0
MTEXT
  5
170
330
32
100
AcDbEntity
  8
Dimension
 62
     0
390
1D
100
AcDbMText
 10
30.64616766744736
 20
7.3955986155313
 30
0.0
 40
0.3188128615705982
 41
0.0
 46
0.0
 71
     1
 72
     1
  1
4.921
  7
Helvetica
 73
     1
 44
0.8397955333929318
  0
MTEXT
  5
171
330
32
100
AcDbEntity
  8
Dimension
 62
     0
390
1D
100
AcDbMText
 10
30.64616766744736
 20
6.840043059975745
 30
0.0
 40
0.3188128615705982
 41
0.0
 46
0.0
 71
     1
 72
     1
  1
4.919
  7
Helvetica
 73
     1
 44
0.8397955333929318
  0
POINT
  5
172
330
32
100
AcDbEntity
  8
Defpoints
 62
     0
370
     0
390
1D
100
AcDbPoint
 10
25.34747872212196
 20
14.78527764160753
 30
0.0
  0
POINT
  5
173
330
32
100
AcDbEntity
  8
Defpoints
 62
     0
370
     0
390
1D
100
AcDbPoint
 10
27.52653702590953
 20
10.37273831075832
 30
0.0
  0
ENDBLK
  5
174
330
32
100
AcDbEntity
  8
Dimension
390
1D
100
AcDbBlockEnd
  0
BLOCK
  5
175
330
33
100
AcDbEntity
  8
Dimension
390
1D
100
AcDbBlockBegin
  2
*D17
 70
     1
 10
0.0
 20
0.0
 30
0.0
  3
*D17
  1

  0
LINE
  5
176
330
33
100
AcDbEntity
  8
Dimension
  6
Continuous
 62
     0
370
    -2
390
1D
100
AcDbLine
 10
23.80124242721032
 20
8.42310386912951
 30
0.0
 11
22.83464566929134
 21
6.899036755734153
 31
0.0
  0
POLYLINE
  5
177
102
{ACAD_REACTORS
330
17C
102
}
330
33
100
AcDbEntity
  8
DRAWING
  6
Continuous
 62
     0
370
     5
390
1D
100
AcDb2dPolyline
 66
     1
 10
0.0
 20
0.0
 30
0.0
 70
     1
 75
     5
  0
VERTEX
  5
178
330
177
100
AcDbEntity
  8
DRAWING
  6
Continuous
 62
     0
370
     5
390
1D
100
AcDbVertex
100
AcDb2dVertex
 10
23.42266589383978
 20
8.070075540503789
 30
0.0
  0
VERTEX
  5
179
330
177
100
AcDbEntity
  8
DRAWING
  6
Continuous
 62
     0
370
     5
390
1D
100
AcDbVertex
100
AcDb2dVertex
 10
23.80124242721032
 20
8.42310386912951
 30
0.0
  0
VERTEX
  5
17A
330
177
100
AcDbEntity
  8
DRAWING
  6
Continuous
 62
     0
370
     5
390
1D
100
AcDbVertex
100
AcDb2dVertex
 10
23.64989969634765
 20
7.928084101598807
 30
0.0
  0
SEQEND
  5
17B
330
177
100
AcDbEntity
  8
DRAWING
  6
Continuous
 62
     0
370
     5
390
1D
  0
HATCH
  5
17C
330
33
100
AcDbEntity
  8
Dimension
  6
Continuous
 62
     0
370
     0
390
1D
100
AcDbHatch
 10
0.0
 20
0.0
 30
0.0
210
0.0
220
0.0
230
1.0
  2
SOLID
 70
     1
 71
     1
 91
        1
 92
        1
 93
        3
 72
     1
 10
23.42266589383978
 20
8.070075540503789
 11
23.80124242721032
 21
8.42310386912951
 72
     1
 10
23.80124242721032
 20
8.42310386912951
 11
23.64989969634765
 21
7.928084101598807
 72
     1
 10
23.64989969634765
 20
7.928084101598807
 11
23.42266589383978
 21
8.070075540503789
 97
        1
330
177
 75
     0
 76
     1
 98
        1
 10
0.0
 20
0.0
  0
LINE
  5
17D
330
33
100
AcDbEntity
  8
Dimension
  6
Continuous
 62
     0
370
    -2
390
1D
100
AcDbLine
 10
22.83464566929134
 20
6.899036755734153
 30
0.0
 11
21.88976566929134
 21
6.899036755734153
 31
0.0
  0
MTEXT
  5
17E
330
33
100
AcDbEntity
  8
Dimension
 62
     0
390
1D
100
AcDbMText
 10
20.30838546095801
 20
7.097849617304751
 30
0.0
 40
0.3188128615705982
 41
0.0
 46
0.0
 71
     1
 72
     1
  1
Ø 9.843
  7
Helvetica
 73
     1
 44
0.8397955333929318
  0
POINT
  5
17F
330
33
100
AcDbEntity
  8
Defpoints
 62
     0
370
     0
390
1D
100
AcDbPoint
 10
29.07277332082118
 20
16.73491208323634
 30
0.0
  0
POINT
  5
180
330
33
100
AcDbEntity
  8
Defpoints
 62
     0
370
     0
390
1D
100
AcDbPoint
 10
23.80124242721032
 20
8.42310386912951
 30
0.0
  0
ENDBLK
  5
181
330
33
100
AcDbEntity
  8
Dimension
390
1D
100
AcDbBlockEnd
  0
BLOCK
  5
182
330
34
100
AcDbEntity
  8
Dimension
390
1D
100
AcDbBlockBegin
  2
*D18
 70
     1
 10
0.0
 20
0.0
 30
0.0
  3
*D18
  1

  0
LINE
  5
183
330
34
100
AcDbEntity
  8
Dimension
  6
Continuous
 62
     0
370
    -2
390
1D
100
AcDbLine
 10
3.069598801127711
 20
8.751785029238029
 30
0.0
 11
4.153543307086613
 21
7.4108477793562
 31
0.0
  0
POLYLINE
  5
184
102
{ACAD_REACTORS
330
189
102
}
330
34
100
AcDbEntity
  8
DRAWING
  6
Continuous
 62
     0
370
     5
390
1D
100
AcDb2dPolyline
 66
     1
 10
0.0
 20
0.0
 30
0.0
 70
     1
 75
     5
  0
VERTEX
  5
185
330
184
100
AcDbEntity
  8
DRAWING
  6
Continuous
 62
     0
370
     5
390
1D
100
AcDbVertex
100
AcDb2dVertex
 10
3.280141180265877
 20
8.278899103228422
 30
0.0
  0
VERTEX
  5
186
330
184
100
AcDbEntity
  8
DRAWING
  6
Continuous
 62
     0
370
     5
390
1D
100
AcDbVertex
100
AcDb2dVertex
 10
3.069598801127711
 20
8.751785029238029
 30
0.0
  0
VERTEX
  5
187
330
184
100
AcDbEntity
  8
DRAWING
  6
Continuous
 62
     0
370
     5
390
1D
100
AcDbVertex
100
AcDb2dVertex
 10
3.488376813039382
 20
8.447524993790665
 30
0.0
  0
SEQEND
  5
188
330
184
100
AcDbEntity
  8
DRAWING
  6
Continuous
 62
     0
370
     5
390
1D
  0
HATCH
  5
189
330
34
100
AcDbEntity
  8
Dimension
  6
Continuous
 62
     0
370
     0
390
1D
100
AcDbHatch
 10
0.0
 20
0.0
 30
0.0
210
0.0
220
0.0
230
1.0
  2
SOLID
 70
     1
 71
     1
 91
        1
 92
        1
 93
        3
 72
     1
 10
3.280141180265877
 20
8.278899103228422
 11
3.069598801127711
 21
8.751785029238029
 72
     1
 10
3.069598801127711
 20
8.751785029238029
 11
3.488376813039382
 21
8.447524993790665
 72
     1
 10
3.488376813039382
 20
8.447524993790665
 11
3.280141180265877
 21
8.278899103228422
 97
        1
330
184
 75
     0
 76
     1
 98
        1
 10
0.0
 20
0.0
  0
LINE
  5
18A
330
34
100
AcDbEntity
  8
Dimension
  6
Continuous
 62
     0
370
    -2
390
1D
100
AcDbLine
 10
4.153543307086613
 20
7.4108477793562
 30
0.0
 11
5.098423307086614
 21
7.4108477793562
 31
0.0
  0
MTEXT
  5
18B
330
34
100
AcDbEntity
  8
Dimension
 62
     0
390
1D
100
AcDbMText
 10
5.098423307086614
 20
7.609660640926799
 30
0.0
 40
0.3188128615705982
 41
0.0
 46
0.0
 71
     1
 72
     1
  1
Ø 9.843
  7
Helvetica
 73
     1
 44
0.8397955333929318
  0
POINT
  5
18C
330
34
100
AcDbEntity
  8
Defpoints
 62
     0
370
     0
390
1D
100
AcDbPoint
 10
-3.117860435740155
 20
16.40623092312782
 30
0.0
  0
POINT
  5
18D
330
34
100
AcDbEntity
  8
Defpoints
 62
     0
370
     0
390
1D
100
AcDbPoint
 10
3.069598801127711
 20
8.751785029238029
 30
0.0
  0
ENDBLK
  5
18E
330
34
100
AcDbEntity
  8
Dimension
390
1D
100
AcDbBlockEnd
  0
BLOCK
  5
18F
330
35
100
AcDbEntity
  8
Dimension
390
1D
100
AcDbBlockBegin
  2
*D19
 70
     1
 10
0.0
 20
0.0
 30
0.0
  3
*D19
  1

  0
LINE
  5
190
330
35
100
AcDbEntity
  8
Dimension
  6
Continuous
 62
     0
370
    -2
390
1D
100
AcDbLine
 10
2.339299883067337
 20
17.52475834370988
 30
0.0
 11
2.952755905511811
 21
18.80848557463179
 31
0.0
  0
POLYLINE
  5
191
102
{ACAD_REACTORS
330
196
102
}
330
35
100
AcDbEntity
  8
DRAWING
  6
Continuous
 62
     0
370
     5
390
1D
100
AcDb2dPolyline
 66
     1
 10
0.0
 20
0.0
 30
0.0
 70
     1
 75
     5
  0
VERTEX
  5
192
330
191
100
AcDbEntity
  8
DRAWING
  6
Continuous
 62
     0
370
     5
390
1D
100
AcDbVertex
100
AcDb2dVertex
 10
2.678901025895756
 20
17.91542476947584
 30
0.0
  0
VERTEX
  5
193
330
191
100
AcDbEntity
  8
DRAWING
  6
Continuous
 62
     0
370
     5
390
1D
100
AcDbVertex
100
AcDb2dVertex
 10
2.339299883067337
 20
17.52475834370988
 30
0.0
  0
VERTEX
  5
194
330
191
100
AcDbEntity
  8
DRAWING
  6
Continuous
 62
     0
370
     5
390
1D
100
AcDbVertex
100
AcDb2dVertex
 10
2.438069887027993
 20
18.03288596424308
 30
0.0
  0
SEQEND
  5
195
330
191
100
AcDbEntity
  8
DRAWING
  6
Continuous
 62
     0
370
     5
390
1D
  0
HATCH
  5
196
330
35
100
AcDbEntity
  8
Dimension
  6
Continuous
 62
     0
370
     0
390
1D
100
AcDbHatch
 10
0.0
 20
0.0
 30
0.0
210
0.0
220
0.0
230
1.0
  2
SOLID
 70
     1
 71
     1
 91
        1
 92
        1
 93
        3
 72
     1
 10
2.678901025895756
 20
17.91542476947584
 11
2.339299883067337
 21
17.52475834370988
 72
     1
 10
2.339299883067337
 20
17.52475834370988
 11
2.438069887027993
 21
18.03288596424308
 72
     1
 10
2.438069887027993
 20
18.03288596424308
 11
2.678901025895756
 21
17.91542476947584
 97
        1
330
191
 75
     0
 76
     1
 98
        1
 10
0.0
 20
0.0
  0
LINE
  5
197
330
35
100
AcDbEntity
  8
Dimension
  6
Continuous
 62
     0
370
    -2
390
1D
100
AcDbLine
 10
2.952755905511811
 20
18.80848557463179
 30
0.0
 11
3.897635905511811
 21
18.80848557463179
 31
0.0
  0
MTEXT
  5
198
330
35
100
AcDbEntity
  8
Dimension
 62
     0
390
1D
100
AcDbMText
 10
3.897635905511811
 20
19.00729843620239
 30
0.0
 40
0.3188128615705982
 41
0.0
 46
0.0
 71
     1
 72
     1
  1
Ø 10.963
  7
Helvetica
 73
     1
 44
0.8397955333929318
  0
POINT
  5
199
330
35
100
AcDbEntity
  8
Defpoints
 62
     0
370
     0
390
1D
100
AcDbPoint
 10
-2.387561517679782
 20
7.633257608655969
 30
0.0
  0
POINT
  5
19A
330
35
100
AcDbEntity
  8
Defpoints
 62
     0
370
     0
390
1D
100
AcDbPoint
 10
2.339299883067337
 20
17.52475834370988
 30
0.0
  0
ENDBLK
  5
19B
330
35
100
AcDbEntity
  8
Dimension
390
1D
100
AcDbBlockEnd
  0
BLOCK
  5
19C
330
36
100
AcDbEntity
  8
Dimension
390
1D
100
AcDbBlockBegin
  2
*D20
 70
     1
 10
0.0
 20
0.0
 30
0.0
  3
*D20
  1

  0
LINE
  5
19D
330
36
100
AcDbEntity
  8
Dimension
  6
Continuous
 62
     0
370
    -2
390
1D
100
AcDbLine
 10
11.20501403700153
 20
7.536488291143549
 30
0.0
 11
11.20501403700153
 21
4.944719220360442
 31
0.0
  0
LINE
  5
19E
330
36
100
AcDbEntity
  8
Dimension
  6
Continuous
 62
     0
370
    -2
390
1D
100
AcDbLine
 10
15.1420248995121
 20
7.536488291143554
 30
0.0
 11
15.1420248995121
 21
4.944719220360442
 31
0.0
  0
LINE
  5
19F
330
36
100
AcDbEntity
  8
Dimension
  6
Continuous
 62
     0
370
    -2
390
1D
100
AcDbLine
 10
11.20501403700153
 20
5.259679850281701
 30
0.0
 11
15.1420248995121
 21
5.259679850281701
 31
0.0
  0
POLYLINE
  5
1A0
102
{ACAD_REACTORS
330
1A5
102
}
330
36
100
AcDbEntity
  8
DRAWING
  6
Continuous
 62
     0
370
     5
390
1D
100
AcDb2dPolyline
 66
     1
 10
0.0
 20
0.0
 30
0.0
 70
     1
 75
     5
  0
VERTEX
  5
1A1
330
1A0
100
AcDbEntity
  8
DRAWING
  6
Continuous
 62
     0
370
     5
390
1D
100
AcDbVertex
100
AcDb2dVertex
 10
11.70501403700153
 20
5.125705254066141
 30
0.0
  0
VERTEX
  5
1A2
330
1A0
100
AcDbEntity
  8
DRAWING
  6
Continuous
 62
     0
370
     5
390
1D
100
AcDbVertex
100
AcDb2dVertex
 10
11.20501403700153
 20
5.259679850281701
 30
0.0
  0
VERTEX
  5
1A3
330
1A0
100
AcDbEntity
  8
DRAWING
  6
Continuous
 62
     0
370
     5
390
1D
100
AcDbVertex
100
AcDb2dVertex
 10
11.70501403700153
 20
5.393654446497263
 30
0.0
  0
SEQEND
  5
1A4
330
1A0
100
AcDbEntity
  8
DRAWING
  6
Continuous
 62
     0
370
     5
390
1D
  0
HATCH
  5
1A5
330
36
100
AcDbEntity
  8
Dimension
  6
Continuous
 62
     0
370
     0
390
1D
100
AcDbHatch
 10
0.0
 20
0.0
 30
0.0
210
0.0
220
0.0
230
1.0
  2
SOLID
 70
     1
 71
     1
 91
        1
 92
        1
 93
        3
 72
     1
 10
11.70501403700153
 20
5.125705254066141
 11
11.20501403700153
 21
5.259679850281701
 72
     1
 10
11.20501403700153
 20
5.259679850281701
 11
11.70501403700153
 21
5.393654446497263
 72
     1
 10
11.70501403700153
 20
5.393654446497263
 11
11.70501403700153
 21
5.125705254066141
 97
        1
330
1A0
 75
     0
 76
     1
 98
        1
 10
0.0
 20
0.0
  0
POLYLINE
  5
1A6
102
{ACAD_REACTORS
330
1AB
102
}
330
36
100
AcDbEntity
  8
DRAWING
  6
Continuous
 62
     0
370
     5
390
1D
100
AcDb2dPolyline
 66
     1
 10
0.0
 20
0.0
 30
0.0
 70
     1
 75
     5
  0
VERTEX
  5
1A7
330
1A6
100
AcDbEntity
  8
DRAWING
  6
Continuous
 62
     0
370
     5
390
1D
100
AcDbVertex
100
AcDb2dVertex
 10
14.6420248995121
 20
5.393654446497263
 30
0.0
  0
VERTEX
  5
1A8
330
1A6
100
AcDbEntity
  8
DRAWING
  6
Continuous
 62
     0
370
     5
390
1D
100
AcDbVertex
100
AcDb2dVertex
 10
15.1420248995121
 20
5.259679850281701
 30
0.0
  0
VERTEX
  5
1A9
330
1A6
100
AcDbEntity
  8
DRAWING
  6
Continuous
 62
     0
370
     5
390
1D
100
AcDbVertex
100
AcDb2dVertex
 10
14.6420248995121
 20
5.125705254066141
 30
0.0
  0
SEQEND
  5
1AA
330
1A6
100
AcDbEntity
  8
DRAWING
  6
Continuous
 62
     0
370
     5
390
1D
  0
HATCH
  5
1AB
330
36
100
AcDbEntity
  8
Dimension
  6
Continuous
 62
     0
370
     0
390
1D
100
AcDbHatch
 10
0.0
 20
0.0
 30
0.0
210
0.0
220
0.0
230
1.0
  2
SOLID
 70
     1
 71
     1
 91
        1
 92
        1
 93
        3
 72
     1
 10
14.6420248995121
 20
5.393654446497263
 11
15.1420248995121
 21
5.259679850281701
 72
     1
 10
15.1420248995121
 20
5.259679850281701
 11
14.6420248995121
 21
5.125705254066141
 72
     1
 10
14.6420248995121
 20
5.125705254066141
 11
14.6420248995121
 21
5.393654446497263
 97
        1
330
1A6
 75
     0
 76
     1
 98
        1
 10
0.0
 20
0.0
  0
MTEXT
  5
1AC
330
36
100
AcDbEntity
  8
Dimension
 62
     0
390
1D
100
AcDbMText
 10
12.61742137797903
 20
5.4584927118523
 30
0.0
 40
0.3188128615705982
 41
0.0
 46
0.0
 71
     1
 72
     1
  1
3.937
  7
Helvetica
 73
     1
 44
0.8397955333929318
  0
POINT
  5
1AD
330
36
100
AcDbEntity
  8
Defpoints
 62
     0
370
     0
390
1D
100
AcDbPoint
 10
15.1420248995121
 20
7.736488291143554
 30
0.0
  0
POINT
  5
1AE
330
36
100
AcDbEntity
  8
Defpoints
 62
     0
370
     0
390
1D
100
AcDbPoint
 10
11.20501403700153
 20
7.736488291143549
 30
0.0
  0
POINT
  5
1AF
330
36
100
AcDbEntity
  8
Defpoints
 62
     0
370
     0
390
1D
100
AcDbPoint
 10
11.20501403700153
 20
5.259679850281701
 30
0.0
  0
ENDBLK
  5
1B0
330
36
100
AcDbEntity
  8
Dimension
390
1D
100
AcDbBlockEnd
  0
BLOCK
  5
1B1
330
37
100
AcDbEntity
  8
Dimension
390
1D
100
AcDbBlockBegin
  2
*D21
 70
     1
 10
0.0
 20
0.0
 30
0.0
  3
*D21
  1

  0
LINE
  5
1B2
330
37
100
AcDbEntity
  8
Dimension
  6
Continuous
 62
     0
370
    -2
390
1D
100
AcDbLine
 10
11.83493828533887
 20
7.015672110017526
 30
0.0
 11
11.83493828533887
 21
5.726269568483888
 31
0.0
  0
LINE
  5
1B3
330
37
100
AcDbEntity
  8
Dimension
  6
Continuous
 62
     0
370
    -2
390
1D
100
AcDbLine
 10
14.51210363966958
 20
7.015672110017523
 30
0.0
 11
14.51210363966958
 21
5.726269568483888
 31
0.0
  0
LINE
  5
1B4
330
37
100
AcDbEntity
  8
Dimension
  6
Continuous
 62
     0
370
    -2
390
1D
100
AcDbLine
 10
14.51210363966958
 20
6.041230198405147
 30
0.0
 11
11.83493828533887
 21
6.041230198405147
 31
0.0
  0
LINE
  5
1B5
330
37
100
AcDbEntity
  8
Dimension
  6
Continuous
 62
     0
370
    -2
390
1D
100
AcDbLine
 10
11.83493828533887
 20
6.041230198405147
 30
0.0
 11
10.73257828533887
 21
6.041230198405147
 31
0.0
  0
POLYLINE
  5
1B6
102
{ACAD_REACTORS
330
1BB
102
}
330
37
100
AcDbEntity
  8
DRAWING
  6
Continuous
 62
     0
370
     5
390
1D
100
AcDb2dPolyline
 66
     1
 10
0.0
 20
0.0
 30
0.0
 70
     1
 75
     5
  0
VERTEX
  5
1B7
330
1B6
100
AcDbEntity
  8
DRAWING
  6
Continuous
 62
     0
370
     5
390
1D
100
AcDbVertex
100
AcDb2dVertex
 10
11.33493828533887
 20
6.175204794620709
 30
0.0
  0
VERTEX
  5
1B8
330
1B6
100
AcDbEntity
  8
DRAWING
  6
Continuous
 62
     0
370
     5
390
1D
100
AcDbVertex
100
AcDb2dVertex
 10
11.83493828533887
 20
6.041230198405147
 30
0.0
  0
VERTEX
  5
1B9
330
1B6
100
AcDbEntity
  8
DRAWING
  6
Continuous
 62
     0
370
     5
390
1D
100
AcDbVertex
100
AcDb2dVertex
 10
11.33493828533887
 20
5.907255602189586
 30
0.0
  0
SEQEND
  5
1BA
330
1B6
100
AcDbEntity
  8
DRAWING
  6
Continuous
 62
     0
370
     5
390
1D
  0
HATCH
  5
1BB
330
37
100
AcDbEntity
  8
Dimension
  6
Continuous
 62
     0
370
     0
390
1D
100
AcDbHatch
 10
0.0
 20
0.0
 30
0.0
210
0.0
220
0.0
230
1.0
  2
SOLID
 70
     1
 71
     1
 91
        1
 92
        1
 93
        3
 72
     1
 10
11.33493828533887
 20
6.175204794620709
 11
11.83493828533887
 21
6.041230198405147
 72
     1
 10
11.83493828533887
 20
6.041230198405147
 11
11.33493828533887
 21
5.907255602189586
 72
     1
 10
11.33493828533887
 20
5.907255602189586
 11
11.33493828533887
 21
6.175204794620709
 97
        1
330
1B6
 75
     0
 76
     1
 98
        1
 10
0.0
 20
0.0
  0
LINE
  5
1BC
330
37
100
AcDbEntity
  8
Dimension
  6
Continuous
 62
     0
370
    -2
390
1D
100
AcDbLine
 10
14.51210363966958
 20
6.041230198405147
 30
0.0
 11
15.61446363966958
 21
6.041230198405147
 31
0.0
  0
POLYLINE
  5
1BD
102
{ACAD_REACTORS
330
1C2
102
}
330
37
100
AcDbEntity
  8
DRAWING
  6
Continuous
 62
     0
370
     5
390
1D
100
AcDb2dPolyline
 66
     1
 10
0.0
 20
0.0
 30
0.0
 70
     1
 75
     5
  0
VERTEX
  5
1BE
330
1BD
100
AcDbEntity
  8
DRAWING
  6
Continuous
 62
     0
370
     5
390
1D
100
AcDbVertex
100
AcDb2dVertex
 10
15.01210363966958
 20
5.907255602189586
 30
0.0
  0
VERTEX
  5
1BF
330
1BD
100
AcDbEntity
  8
DRAWING
  6
Continuous
 62
     0
370
     5
390
1D
100
AcDbVertex
100
AcDb2dVertex
 10
14.51210363966958
 20
6.041230198405147
 30
0.0
  0
VERTEX
  5
1C0
330
1BD
100
AcDbEntity
  8
DRAWING
  6
Continuous
 62
     0
370
     5
390
1D
100
AcDbVertex
100
AcDb2dVertex
 10
15.01210363966958
 20
6.175204794620709
 30
0.0
  0
SEQEND
  5
1C1
330
1BD
100
AcDbEntity
  8
DRAWING
  6
Continuous
 62
     0
370
     5
390
1D
  0
HATCH
  5
1C2
330
37
100
AcDbEntity
  8
Dimension
  6
Continuous
 62
     0
370
     0
390
1D
100
AcDbHatch
 10
0.0
 20
0.0
 30
0.0
210
0.0
220
0.0
230
1.0
  2
SOLID
 70
     1
 71
     1
 91
        1
 92
        1
 93
        3
 72
     1
 10
15.01210363966958
 20
5.907255602189586
 11
14.51210363966958
 21
6.041230198405147
 72
     1
 10
14.51210363966958
 20
6.041230198405147
 11
15.01210363966958
 21
6.175204794620709
 72
     1
 10
15.01210363966958
 20
6.175204794620709
 11
15.01210363966958
 21
5.907255602189586
 97
        1
330
1BD
 75
     0
 76
     1
 98
        1
 10
0.0
 20
0.0
  0
MTEXT
  5
1C3
330
37
100
AcDbEntity
  8
Dimension
 62
     0
390
1D
100
AcDbMText
 10
12.61742287222645
 20
6.240043059975745
 30
0.0
 40
0.3188128615705982
 41
0.0
 46
0.0
 71
     1
 72
     1
  1
2.677
  7
Helvetica
 73
     1
 44
0.8397955333929318
  0
POINT
  5
1C4
330
37
100
AcDbEntity
  8
Defpoints
 62
     0
370
     0
390
1D
100
AcDbPoint
 10
14.51210363966958
 20
7.215672110017524
 30
0.0
  0
POINT
  5
1C5
330
37
100
AcDbEntity
  8
Defpoints
 62
     0
370
     0
390
1D
100
AcDbPoint
 10
11.83493828533887
 20
7.215672110017527
 30
0.0
  0
POINT
  5
1C6
330
37
100
AcDbEntity
  8
Defpoints
 62
     0
370
     0
390
1D
100
AcDbPoint
 10
11.83493828533887
 20
6.041230198405147
 30
0.0
  0
ENDBLK
  5
1C7
330
37
100
AcDbEntity
  8
Dimension
390
1D
100
AcDbBlockEnd
  0
BLOCK
  5
1C8
330
38
100
AcDbEntity
  8
Dimension
390
1D
100
AcDbBlockBegin
  2
*D22
 70
     1
 10
0.0
 20
0.0
 30
0.0
  3
*D22
  1

  0
LINE
  5
1C9
330
38
100
AcDbEntity
  8
Dimension
  6
Continuous
 62
     0
370
    -2
390
1D
100
AcDbLine
 10
11.20501403700153
 20
7.536488291143549
 30
0.0
 11
11.20501403700153
 21
4.944719220360442
 31
0.0
  0
LINE
  5
1CA
330
38
100
AcDbEntity
  8
Dimension
  6
Continuous
 62
     0
370
    -2
390
1D
100
AcDbLine
 10
10.85068332834009
 20
8.934126086419145
 30
0.0
 11
10.85068332834009
 21
4.944719220360442
 31
0.0
  0
LINE
  5
1CB
330
38
100
AcDbEntity
  8
Dimension
  6
Continuous
 62
     0
370
    -2
390
1D
100
AcDbLine
 10
10.85068332834009
 20
5.259679850281701
 30
0.0
 11
11.20501403700153
 21
5.259679850281701
 31
0.0
  0
LINE
  5
1CC
330
38
100
AcDbEntity
  8
Dimension
  6
Continuous
 62
     0
370
    -2
390
1D
100
AcDbLine
 10
11.20501403700153
 20
5.259679850281701
 30
0.0
 11
12.30737403700152
 21
5.259679850281701
 31
0.0
  0
POLYLINE
  5
1CD
102
{ACAD_REACTORS
330
1D2
102
}
330
38
100
AcDbEntity
  8
DRAWING
  6
Continuous
 62
     0
370
     5
390
1D
100
AcDb2dPolyline
 66
     1
 10
0.0
 20
0.0
 30
0.0
 70
     1
 75
     5
  0
VERTEX
  5
1CE
330
1CD
100
AcDbEntity
  8
DRAWING
  6
Continuous
 62
     0
370
     5
390
1D
100
AcDbVertex
100
AcDb2dVertex
 10
11.70501403700153
 20
5.125705254066141
 30
0.0
  0
VERTEX
  5
1CF
330
1CD
100
AcDbEntity
  8
DRAWING
  6
Continuous
 62
     0
370
     5
390
1D
100
AcDbVertex
100
AcDb2dVertex
 10
11.20501403700153
 20
5.259679850281701
 30
0.0
  0
VERTEX
  5
1D0
330
1CD
100
AcDbEntity
  8
DRAWING
  6
Continuous
 62
     0
370
     5
390
1D
100
AcDbVertex
100
AcDb2dVertex
 10
11.70501403700153
 20
5.393654446497263
 30
0.0
  0
SEQEND
  5
1D1
330
1CD
100
AcDbEntity
  8
DRAWING
  6
Continuous
 62
     0
370
     5
390
1D
  0
HATCH
  5
1D2
330
38
100
AcDbEntity
  8
Dimension
  6
Continuous
 62
     0
370
     0
390
1D
100
AcDbHatch
 10
0.0
 20
0.0
 30
0.0
210
0.0
220
0.0
230
1.0
  2
SOLID
 70
     1
 71
     1
 91
        1
 92
        1
 93
        3
 72
     1
 10
11.70501403700153
 20
5.125705254066141
 11
11.20501403700153
 21
5.259679850281701
 72
     1
 10
11.20501403700153
 20
5.259679850281701
 11
11.70501403700153
 21
5.393654446497263
 72
     1
 10
11.70501403700153
 20
5.393654446497263
 11
11.70501403700153
 21
5.125705254066141
 97
        1
330
1CD
 75
     0
 76
     1
 98
        1
 10
0.0
 20
0.0
  0
LINE
  5
1D3
330
38
100
AcDbEntity
  8
Dimension
  6
Continuous
 62
     0
370
    -2
390
1D
100
AcDbLine
 10
10.85068332834009
 20
5.259679850281701
 30
0.0
 11
9.806990385085005
 21
5.259679850281701
 31
0.0
  0
POLYLINE
  5
1D4
102
{ACAD_REACTORS
330
1D9
102
}
330
38
100
AcDbEntity
  8
DRAWING
  6
Continuous
 62
     0
370
     5
390
1D
100
AcDb2dPolyline
 66
     1
 10
0.0
 20
0.0
 30
0.0
 70
     1
 75
     5
  0
VERTEX
  5
1D5
330
1D4
100
AcDbEntity
  8
DRAWING
  6
Continuous
 62
     0
370
     5
390
1D
100
AcDbVertex
100
AcDb2dVertex
 10
10.35068332834009
 20
5.393654446497263
 30
0.0
  0
VERTEX
  5
1D6
330
1D4
100
AcDbEntity
  8
DRAWING
  6
Continuous
 62
     0
370
     5
390
1D
100
AcDbVertex
100
AcDb2dVertex
 10
10.85068332834009
 20
5.259679850281701
 30
0.0
  0
VERTEX
  5
1D7
330
1D4
100
AcDbEntity
  8
DRAWING
  6
Continuous
 62
     0
370
     5
390
1D
100
AcDbVertex
100
AcDb2dVertex
 10
10.35068332834009
 20
5.125705254066141
 30
0.0
  0
SEQEND
  5
1D8
330
1D4
100
AcDbEntity
  8
DRAWING
  6
Continuous
 62
     0
370
     5
390
1D
  0
HATCH
  5
1D9
330
38
100
AcDbEntity
  8
Dimension
  6
Continuous
 62
     0
370
     0
390
1D
100
AcDbHatch
 10
0.0
 20
0.0
 30
0.0
210
0.0
220
0.0
230
1.0
  2
SOLID
 70
     1
 71
     1
 91
        1
 92
        1
 93
        3
 72
     1
 10
10.35068332834009
 20
5.393654446497263
 11
10.85068332834009
 21
5.259679850281701
 72
     1
 10
10.85068332834009
 20
5.259679850281701
 11
10.35068332834009
 21
5.125705254066141
 72
     1
 10
10.35068332834009
 20
5.125705254066141
 11
10.35068332834009
 21
5.393654446497263
 97
        1
330
1D4
 75
     0
 76
     1
 98
        1
 10
0.0
 20
0.0
  0
MTEXT
  5
1DA
330
38
100
AcDbEntity
  8
Dimension
 62
     0
390
1D
100
AcDbMText
 10
8.941973023973894
 20
5.4584927118523
 30
0.0
 40
0.3188128615705982
 41
0.0
 46
0.0
 71
     1
 72
     1
  1
.354
  7
Helvetica
 73
     1
 44
0.8397955333929318
  0
POINT
  5
1DB
330
38
100
AcDbEntity
  8
Defpoints
 62
     0
370
     0
390
1D
100
AcDbPoint
 10
10.85068332834009
 20
9.134126086419144
 30
0.0
  0
POINT
  5
1DC
330
38
100
AcDbEntity
  8
Defpoints
 62
     0
370
     0
390
1D
100
AcDbPoint
 10
11.20501403700153
 20
7.736488291143549
 30
0.0
  0
POINT
  5
1DD
330
38
100
AcDbEntity
  8
Defpoints
 62
     0
370
     0
390
1D
100
AcDbPoint
 10
11.20501403700153
 20
5.259679850281701
 30
0.0
  0
ENDBLK
  5
1DE
330
38
100
AcDbEntity
  8
Dimension
390
1D
100
AcDbBlockEnd
  0
BLOCK
  5
1DF
330
39
100
AcDbEntity
  8
Dimension
390
1D
100
AcDbBlockBegin
  2
*D23
 70
     1
 10
0.0
 20
0.0
 30
0.0
  3
*D23
  1

  0
LINE
  5
1E0
330
39
100
AcDbEntity
  8
Dimension
  6
Continuous
 62
     0
370
    -2
390
1D
100
AcDbLine
 10
11.83493828533887
 20
7.015672110017526
 30
0.0
 11
11.83493828533887
 21
6.314172363783147
 31
0.0
  0
LINE
  5
1E1
330
39
100
AcDbEntity
  8
Dimension
  6
Continuous
 62
     0
370
    -2
390
1D
100
AcDbLine
 10
11.20501403700153
 20
7.536488291143549
 30
0.0
 11
11.20501403700153
 21
6.314172363783147
 31
0.0
  0
LINE
  5
1E2
330
39
100
AcDbEntity
  8
Dimension
  6
Continuous
 62
     0
370
    -2
390
1D
100
AcDbLine
 10
11.20501403700153
 20
6.629132993704407
 30
0.0
 11
11.83493828533887
 21
6.629132993704407
 31
0.0
  0
LINE
  5
1E3
330
39
100
AcDbEntity
  8
Dimension
  6
Continuous
 62
     0
370
    -2
390
1D
100
AcDbLine
 10
11.83493828533887
 20
6.629132993704407
 30
0.0
 11
12.93729828533887
 21
6.629132993704407
 31
0.0
  0
POLYLINE
  5
1E4
102
{ACAD_REACTORS
330
1E9
102
}
330
39
100
AcDbEntity
  8
DRAWING
  6
Continuous
 62
     0
370
     5
390
1D
100
AcDb2dPolyline
 66
     1
 10
0.0
 20
0.0
 30
0.0
 70
     1
 75
     5
  0
VERTEX
  5
1E5
330
1E4
100
AcDbEntity
  8
DRAWING
  6
Continuous
 62
     0
370
     5
390
1D
100
AcDbVertex
100
AcDb2dVertex
 10
12.33493828533887
 20
6.495158397488845
 30
0.0
  0
VERTEX
  5
1E6
330
1E4
100
AcDbEntity
  8
DRAWING
  6
Continuous
 62
     0
370
     5
390
1D
100
AcDbVertex
100
AcDb2dVertex
 10
11.83493828533887
 20
6.629132993704407
 30
0.0
  0
VERTEX
  5
1E7
330
1E4
100
AcDbEntity
  8
DRAWING
  6
Continuous
 62
     0
370
     5
390
1D
100
AcDbVertex
100
AcDb2dVertex
 10
12.33493828533887
 20
6.763107589919969
 30
0.0
  0
SEQEND
  5
1E8
330
1E4
100
AcDbEntity
  8
DRAWING
  6
Continuous
 62
     0
370
     5
390
1D
  0
HATCH
  5
1E9
330
39
100
AcDbEntity
  8
Dimension
  6
Continuous
 62
     0
370
     0
390
1D
100
AcDbHatch
 10
0.0
 20
0.0
 30
0.0
210
0.0
220
0.0
230
1.0
  2
SOLID
 70
     1
 71
     1
 91
        1
 92
        1
 93
        3
 72
     1
 10
12.33493828533887
 20
6.495158397488845
 11
11.83493828533887
 21
6.629132993704407
 72
     1
 10
11.83493828533887
 20
6.629132993704407
 11
12.33493828533887
 21
6.763107589919969
 72
     1
 10
12.33493828533887
 20
6.763107589919969
 11
12.33493828533887
 21
6.495158397488845
 97
        1
330
1E4
 75
     0
 76
     1
 98
        1
 10
0.0
 20
0.0
  0
LINE
  5
1EA
330
39
100
AcDbEntity
  8
Dimension
  6
Continuous
 62
     0
370
    -2
390
1D
100
AcDbLine
 10
11.20501403700153
 20
6.629132993704407
 30
0.0
 11
10.10265403700152
 21
6.629132993704407
 31
0.0
  0
POLYLINE
  5
1EB
102
{ACAD_REACTORS
330
1F0
102
}
330
39
100
AcDbEntity
  8
DRAWING
  6
Continuous
 62
     0
370
     5
390
1D
100
AcDb2dPolyline
 66
     1
 10
0.0
 20
0.0
 30
0.0
 70
     1
 75
     5
  0
VERTEX
  5
1EC
330
1EB
100
AcDbEntity
  8
DRAWING
  6
Continuous
 62
     0
370
     5
390
1D
100
AcDbVertex
100
AcDb2dVertex
 10
10.70501403700153
 20
6.763107589919969
 30
0.0
  0
VERTEX
  5
1ED
330
1EB
100
AcDbEntity
  8
DRAWING
  6
Continuous
 62
     0
370
     5
390
1D
100
AcDbVertex
100
AcDb2dVertex
 10
11.20501403700153
 20
6.629132993704407
 30
0.0
  0
VERTEX
  5
1EE
330
1EB
100
AcDbEntity
  8
DRAWING
  6
Continuous
 62
     0
370
     5
390
1D
100
AcDbVertex
100
AcDb2dVertex
 10
10.70501403700153
 20
6.495158397488845
 30
0.0
  0
SEQEND
  5
1EF
330
1EB
100
AcDbEntity
  8
DRAWING
  6
Continuous
 62
     0
370
     5
390
1D
  0
HATCH
  5
1F0
330
39
100
AcDbEntity
  8
Dimension
  6
Continuous
 62
     0
370
     0
390
1D
100
AcDbHatch
 10
0.0
 20
0.0
 30
0.0
210
0.0
220
0.0
230
1.0
  2
SOLID
 70
     1
 71
     1
 91
        1
 92
        1
 93
        3
 72
     1
 10
10.70501403700153
 20
6.763107589919969
 11
11.20501403700153
 21
6.629132993704407
 72
     1
 10
11.20501403700153
 20
6.629132993704407
 11
10.70501403700153
 21
6.495158397488845
 72
     1
 10
10.70501403700153
 20
6.495158397488845
 11
10.70501403700153
 21
6.763107589919969
 97
        1
330
1EB
 75
     0
 76
     1
 98
        1
 10
0.0
 20
0.0
  0
MTEXT
  5
1F1
330
39
100
AcDbEntity
  8
Dimension
 62
     0
390
1D
100
AcDbMText
 10
9.484815495334859
 20
6.827945855275005
 30
0.0
 40
0.3188128615705982
 41
0.0
 46
0.0
 71
     1
 72
     1
  1
.63
  7
Helvetica
 73
     1
 44
0.8397955333929318
  0
POINT
  5
1F2
330
39
100
AcDbEntity
  8
Defpoints
 62
     0
370
     0
390
1D
100
AcDbPoint
 10
11.20501403700153
 20
7.736488291143549
 30
0.0
  0
POINT
  5
1F3
330
39
100
AcDbEntity
  8
Defpoints
 62
     0
370
     0
390
1D
100
AcDbPoint
 10
11.83493828533887
 20
7.215672110017527
 30
0.0
  0
POINT
  5
1F4
330
39
100
AcDbEntity
  8
Defpoints
 62
     0
370
     0
390
1D
100
AcDbPoint
 10
11.83493828533887
 20
6.629132993704407
 30
0.0
  0
ENDBLK
  5
1F5
330
39
100
AcDbEntity
  8
Dimension
390
1D
100
AcDbBlockEnd
  0
BLOCK
  5
1F6
330
3A
100
AcDbEntity
  8
Dimension
390
1D
100
AcDbBlockBegin
  2
*D24
 70
     1
 10
0.0
 20
0.0
 30
0.0
  3
*D24
  1

  0
LINE
  5
1F7
330
3A
100
AcDbEntity
  8
Dimension
  6
Continuous
 62
     0
370
    -2
390
1D
100
AcDbLine
 10
14.51210363966958
 20
7.015672110017523
 30
0.0
 11
14.51210363966958
 21
6.314172363783147
 31
0.0
  0
LINE
  5
1F8
330
3A
100
AcDbEntity
  8
Dimension
  6
Continuous
 62
     0
370
    -2
390
1D
100
AcDbLine
 10
15.1420248995121
 20
7.536488291143554
 30
0.0
 11
15.1420248995121
 21
6.314172363783147
 31
0.0
  0
LINE
  5
1F9
330
3A
100
AcDbEntity
  8
Dimension
  6
Continuous
 62
     0
370
    -2
390
1D
100
AcDbLine
 10
15.1420248995121
 20
6.629132993704407
 30
0.0
 11
14.51210363966958
 21
6.629132993704407
 31
0.0
  0
LINE
  5
1FA
330
3A
100
AcDbEntity
  8
Dimension
  6
Continuous
 62
     0
370
    -2
390
1D
100
AcDbLine
 10
14.51210363966958
 20
6.629132993704407
 30
0.0
 11
13.40974363966958
 21
6.629132993704407
 31
0.0
  0
POLYLINE
  5
1FB
102
{ACAD_REACTORS
330
200
102
}
330
3A
100
AcDbEntity
  8
DRAWING
  6
Continuous
 62
     0
370
     5
390
1D
100
AcDb2dPolyline
 66
     1
 10
0.0
 20
0.0
 30
0.0
 70
     1
 75
     5
  0
VERTEX
  5
1FC
330
1FB
100
AcDbEntity
  8
DRAWING
  6
Continuous
 62
     0
370
     5
390
1D
100
AcDbVertex
100
AcDb2dVertex
 10
14.01210363966958
 20
6.763107589919969
 30
0.0
  0
VERTEX
  5
1FD
330
1FB
100
AcDbEntity
  8
DRAWING
  6
Continuous
 62
     0
370
     5
390
1D
100
AcDbVertex
100
AcDb2dVertex
 10
14.51210363966958
 20
6.629132993704407
 30
0.0
  0
VERTEX
  5
1FE
330
1FB
100
AcDbEntity
  8
DRAWING
  6
Continuous
 62
     0
370
     5
390
1D
100
AcDbVertex
100
AcDb2dVertex
 10
14.01210363966958
 20
6.495158397488845
 30
0.0
  0
SEQEND
  5
1FF
330
1FB
100
AcDbEntity
  8
DRAWING
  6
Continuous
 62
     0
370
     5
390
1D
  0
HATCH
  5
200
330
3A
100
AcDbEntity
  8
Dimension
  6
Continuous
 62
     0
370
     0
390
1D
100
AcDbHatch
 10
0.0
 20
0.0
 30
0.0
210
0.0
220
0.0
230
1.0
  2
SOLID
 70
     1
 71
     1
 91
        1
 92
        1
 93
        3
 72
     1
 10
14.01210363966958
 20
6.763107589919969
 11
14.51210363966958
 21
6.629132993704407
 72
     1
 10
14.51210363966958
 20
6.629132993704407
 11
14.01210363966958
 21
6.495158397488845
 72
     1
 10
14.01210363966958
 20
6.495158397488845
 11
14.01210363966958
 21
6.763107589919969
 97
        1
330
1FB
 75
     0
 76
     1
 98
        1
 10
0.0
 20
0.0
  0
LINE
  5
201
330
3A
100
AcDbEntity
  8
Dimension
  6
Continuous
 62
     0
370
    -2
390
1D
100
AcDbLine
 10
15.1420248995121
 20
6.629132993704407
 30
0.0
 11
16.2443848995121
 21
6.629132993704407
 31
0.0
  0
POLYLINE
  5
202
102
{ACAD_REACTORS
330
207
102
}
330
3A
100
AcDbEntity
  8
DRAWING
  6
Continuous
 62
     0
370
     5
390
1D
100
AcDb2dPolyline
 66
     1
 10
0.0
 20
0.0
 30
0.0
 70
     1
 75
     5
  0
VERTEX
  5
203
330
202
100
AcDbEntity
  8
DRAWING
  6
Continuous
 62
     0
370
     5
390
1D
100
AcDbVertex
100
AcDb2dVertex
 10
15.6420248995121
 20
6.495158397488845
 30
0.0
  0
VERTEX
  5
204
330
202
100
AcDbEntity
  8
DRAWING
  6
Continuous
 62
     0
370
     5
390
1D
100
AcDbVertex
100
AcDb2dVertex
 10
15.1420248995121
 20
6.629132993704407
 30
0.0
  0
VERTEX
  5
205
330
202
100
AcDbEntity
  8
DRAWING
  6
Continuous
 62
     0
370
     5
390
1D
100
AcDbVertex
100
AcDb2dVertex
 10
15.6420248995121
 20
6.763107589919969
 30
0.0
  0
SEQEND
  5
206
330
202
100
AcDbEntity
  8
DRAWING
  6
Continuous
 62
     0
370
     5
390
1D
  0
HATCH
  5
207
330
3A
100
AcDbEntity
  8
Dimension
  6
Continuous
 62
     0
370
     0
390
1D
100
AcDbHatch
 10
0.0
 20
0.0
 30
0.0
210
0.0
220
0.0
230
1.0
  2
SOLID
 70
     1
 71
     1
 91
        1
 92
        1
 93
        3
 72
     1
 10
15.6420248995121
 20
6.495158397488845
 11
15.1420248995121
 21
6.629132993704407
 72
     1
 10
15.1420248995121
 20
6.629132993704407
 11
15.6420248995121
 21
6.763107589919969
 72
     1
 10
15.6420248995121
 20
6.763107589919969
 11
15.6420248995121
 21
6.495158397488845
 97
        1
330
202
 75
     0
 76
     1
 98
        1
 10
0.0
 20
0.0
  0
MTEXT
  5
208
330
3A
100
AcDbEntity
  8
Dimension
 62
     0
390
1D
100
AcDbMText
 10
16.2443848995121
 20
6.827945855275005
 30
0.0
 40
0.3188128615705982
 41
0.0
 46
0.0
 71
     1
 72
     1
  1
.63
  7
Helvetica
 73
     1
 44
0.8397955333929318
  0
POINT
  5
209
330
3A
100
AcDbEntity
  8
Defpoints
 62
     0
370
     0
390
1D
100
AcDbPoint
 10
15.1420248995121
 20
7.736488291143554
 30
0.0
  0
POINT
  5
20A
330
3A
100
AcDbEntity
  8
Defpoints
 62
     0
370
     0
390
1D
100
AcDbPoint
 10
14.51210363966958
 20
7.215672110017524
 30
0.0
  0
POINT
  5
20B
330
3A
100
AcDbEntity
  8
Defpoints
 62
     0
370
     0
390
1D
100
AcDbPoint
 10
14.51210363966958
 20
6.629132993704407
 30
0.0
  0
ENDBLK
  5
20C
330
3A
100
AcDbEntity
  8
Dimension
390
1D
100
AcDbBlockEnd
  0
BLOCK
  5
20D
330
3B
100
AcDbEntity
  8
Dimension
390
1D
100
AcDbBlockBegin
  2
*D25
 70
     1
 10
0.0
 20
0.0
 30
0.0
  3
*D25
  1

  0
LINE
  5
20E
330
3B
100
AcDbEntity
  8
Dimension
  6
Continuous
 62
     0
370
    -2
390
1D
100
AcDbLine
 10
27.12632207302333
 20
9.20379580959711
 30
0.0
 11
28.13210363966958
 21
4.279007976182923
 31
0.0
  0
POLYLINE
  5
20F
102
{ACAD_REACTORS
330
214
102
}
330
3B
100
AcDbEntity
  8
DRAWING
  6
Continuous
 62
     0
370
     5
390
1D
100
AcDb2dPolyline
 66
     1
 10
0.0
 20
0.0
 30
0.0
 70
     1
 75
     5
  0
VERTEX
  5
210
330
20F
100
AcDbEntity
  8
DRAWING
  6
Continuous
 62
     0
370
     5
390
1D
100
AcDbVertex
100
AcDb2dVertex
 10
27.09923098858468
 20
8.686867124404404
 30
0.0
  0
VERTEX
  5
211
330
20F
100
AcDbEntity
  8
DRAWING
  6
Continuous
 62
     0
370
     5
390
1D
100
AcDbVertex
100
AcDb2dVertex
 10
27.12632207302333
 20
9.20379580959711
 30
0.0
  0
VERTEX
  5
212
330
20F
100
AcDbEntity
  8
DRAWING
  6
Continuous
 62
     0
370
     5
390
1D
100
AcDbVertex
100
AcDb2dVertex
 10
27.36132484827974
 20
8.742576894056013
 30
0.0
  0
SEQEND
  5
213
330
20F
100
AcDbEntity
  8
DRAWING
  6
Continuous
 62
     0
370
     5
390
1D
  0
HATCH
  5
214
330
3B
100
AcDbEntity
  8
Dimension
  6
Continuous
 62
     0
370
     0
390
1D
100
AcDbHatch
 10
0.0
 20
0.0
 30
0.0
210
0.0
220
0.0
230
1.0
  2
SOLID
 70
     1
 71
     1
 91
        1
 92
        1
 93
        3
 72
     1
 10
27.09923098858468
 20
8.686867124404404
 11
27.12632207302333
 21
9.20379580959711
 72
     1
 10
27.12632207302333
 20
9.20379580959711
 11
27.36132484827974
 21
8.742576894056013
 72
     1
 10
27.36132484827974
 20
8.742576894056013
 11
27.09923098858468
 21
8.686867124404404
 97
        1
330
20F
 75
     0
 76
     1
 98
        1
 10
0.0
 20
0.0
  0
LINE
  5
215
330
3B
100
AcDbEntity
  8
Dimension
  6
Continuous
 62
     0
370
    -2
390
1D
100
AcDbLine
 10
28.13210363966958
 20
4.279007976182923
 30
0.0
 11
29.07698363966958
 21
4.279007976182923
 31
0.0
  0
MTEXT
  5
216
330
3B
100
AcDbEntity
  8
Dimension
 62
     0
390
1D
100
AcDbMText
 10
29.07698363966958
 20
4.477820837753522
 30
0.0
 40
0.3188128615705982
 41
0.0
 46
0.0
 71
     1
 72
     1
  1
Ø 6.890
  7
Helvetica
 73
     1
 44
0.8397955333929318
  0
POINT
  5
217
330
3B
100
AcDbEntity
  8
Defpoints
 62
     0
370
     0
390
1D
100
AcDbPoint
 10
25.74769367500816
 20
15.95422014276875
 30
0.0
  0
POINT
  5
218
330
3B
100
AcDbEntity
  8
Defpoints
 62
     0
370
     0
390
1D
100
AcDbPoint
 10
27.12632207302333
 20
9.20379580959711
 30
0.0
  0
ENDBLK
  5
219
330
3B
100
AcDbEntity
  8
Dimension
390
1D
100
AcDbBlockEnd
  0
BLOCK
  5
21A
330
3C
100
AcDbEntity
  8
Dimension
390
1D
100
AcDbBlockBegin
  2
*D26
 70
     1
 10
0.0
 20
0.0
 30
0.0
  3
*D26
  1

  0
LINE
  5
21B
330
3C
100
AcDbEntity
  8
Dimension
  6
Continuous
 62
     0
370
    -2
390
1D
100
AcDbLine
 10
10.8506848225875
 20
12.77900797618292
 30
0.0
 11
10.8506848225875
 21
13.2482993147656
 31
0.0
  0
LINE
  5
21C
330
3C
100
AcDbEntity
  8
Dimension
  6
Continuous
 62
     0
370
    -2
390
1D
100
AcDbLine
 10
15.92942647431531
 20
12.77900797618293
 30
0.0
 11
15.92942647431531
 21
13.2482993147656
 31
0.0
  0
LINE
  5
21D
330
3C
100
AcDbEntity
  8
Dimension
  6
Continuous
 62
     0
370
    -2
390
1D
100
AcDbLine
 10
10.8506848225875
 20
12.93333868484434
 30
0.0
 11
15.92942647431531
 21
12.93333868484434
 31
0.0
  0
POLYLINE
  5
21E
102
{ACAD_REACTORS
330
223
102
}
330
3C
100
AcDbEntity
  8
DRAWING
  6
Continuous
 62
     0
370
     5
390
1D
100
AcDb2dPolyline
 66
     1
 10
0.0
 20
0.0
 30
0.0
 70
     1
 75
     5
  0
VERTEX
  5
21F
330
21E
100
AcDbEntity
  8
DRAWING
  6
Continuous
 62
     0
370
     5
390
1D
100
AcDbVertex
100
AcDb2dVertex
 10
11.3506848225875
 20
12.79936408862878
 30
0.0
  0
VERTEX
  5
220
330
21E
100
AcDbEntity
  8
DRAWING
  6
Continuous
 62
     0
370
     5
390
1D
100
AcDbVertex
100
AcDb2dVertex
 10
10.8506848225875
 20
12.93333868484434
 30
0.0
  0
VERTEX
  5
221
330
21E
100
AcDbEntity
  8
DRAWING
  6
Continuous
 62
     0
370
     5
390
1D
100
AcDbVertex
100
AcDb2dVertex
 10
11.3506848225875
 20
13.0673132810599
 30
0.0
  0
SEQEND
  5
222
330
21E
100
AcDbEntity
  8
DRAWING
  6
Continuous
 62
     0
370
     5
390
1D
  0
HATCH
  5
223
330
3C
100
AcDbEntity
  8
Dimension
  6
Continuous
 62
     0
370
     0
390
1D
100
AcDbHatch
 10
0.0
 20
0.0
 30
0.0
210
0.0
220
0.0
230
1.0
  2
SOLID
 70
     1
 71
     1
 91
        1
 92
        1
 93
        3
 72
     1
 10
11.3506848225875
 20
12.79936408862878
 11
10.8506848225875
 21
12.93333868484434
 72
     1
 10
10.8506848225875
 20
12.93333868484434
 11
11.3506848225875
 21
13.0673132810599
 72
     1
 10
11.3506848225875
 20
13.0673132810599
 11
11.3506848225875
 21
12.79936408862878
 97
        1
330
21E
 75
     0
 76
     1
 98
        1
 10
0.0
 20
0.0
  0
POLYLINE
  5
224
102
{ACAD_REACTORS
330
229
102
}
330
3C
100
AcDbEntity
  8
DRAWING
  6
Continuous
 62
     0
370
     5
390
1D
100
AcDb2dPolyline
 66
     1
 10
0.0
 20
0.0
 30
0.0
 70
     1
 75
     5
  0
VERTEX
  5
225
330
224
100
AcDbEntity
  8
DRAWING
  6
Continuous
 62
     0
370
     5
390
1D
100
AcDbVertex
100
AcDb2dVertex
 10
15.42942647431531
 20
13.0673132810599
 30
0.0
  0
VERTEX
  5
226
330
224
100
AcDbEntity
  8
DRAWING
  6
Continuous
 62
     0
370
     5
390
1D
100
AcDbVertex
100
AcDb2dVertex
 10
15.92942647431531
 20
12.93333868484434
 30
0.0
  0
VERTEX
  5
227
330
224
100
AcDbEntity
  8
DRAWING
  6
Continuous
 62
     0
370
     5
390
1D
100
AcDbVertex
100
AcDb2dVertex
 10
15.42942647431531
 20
12.79936408862878
 30
0.0
  0
SEQEND
  5
228
330
224
100
AcDbEntity
  8
DRAWING
  6
Continuous
 62
     0
370
     5
390
1D
  0
HATCH
  5
229
330
3C
100
AcDbEntity
  8
Dimension
  6
Continuous
 62
     0
370
     0
390
1D
100
AcDbHatch
 10
0.0
 20
0.0
 30
0.0
210
0.0
220
0.0
230
1.0
  2
SOLID
 70
     1
 71
     1
 91
        1
 92
        1
 93
        3
 72
     1
 10
15.42942647431531
 20
13.0673132810599
 11
15.92942647431531
 21
12.93333868484434
 72
     1
 10
15.92942647431531
 20
12.93333868484434
 11
15.42942647431531
 21
12.79936408862878
 72
     1
 10
15.42942647431531
 20
12.79936408862878
 11
15.42942647431531
 21
13.0673132810599
 97
        1
330
224
 75
     0
 76
     1
 98
        1
 10
0.0
 20
0.0
  0
MTEXT
  5
22A
330
3C
100
AcDbEntity
  8
Dimension
 62
     0
390
1D
100
AcDbMText
 10
12.95754696789585
 20
13.13215154641494
 30
0.0
 40
0.3188128615705982
 41
0.0
 46
0.0
 71
     1
 72
     1
  1
5.08
  7
Helvetica
 73
     1
 44
0.8397955333929318
  0
POINT
  5
22B
330
3C
100
AcDbEntity
  8
Defpoints
 62
     0
370
     0
390
1D
100
AcDbPoint
 10
15.92942647431531
 20
12.57900797618293
 30
0.0
  0
POINT
  5
22C
330
3C
100
AcDbEntity
  8
Defpoints
 62
     0
370
     0
390
1D
100
AcDbPoint
 10
10.8506848225875
 20
12.57900797618292
 30
0.0
  0
POINT
  5
22D
330
3C
100
AcDbEntity
  8
Defpoints
 62
     0
370
     0
390
1D
100
AcDbPoint
 10
10.8506848225875
 20
12.93333868484434
 30
0.0
  0
ENDBLK
  5
22E
330
3C
100
AcDbEntity
  8
Dimension
390
1D
100
AcDbBlockEnd
  0
BLOCK
  5
22F
330
3D
100
AcDbEntity
  8
Dimension
390
1D
100
AcDbBlockBegin
  2
*D27
 70
     1
 10
0.0
 20
0.0
 30
0.0
  3
*D27
  1

  0
LINE
  5
230
330
3D
100
AcDbEntity
  8
Dimension
  6
Continuous
 62
     0
370
    -2
390
1D
100
AcDbLine
 10
15.1420248995121
 20
7.536488291143554
 30
0.0
 11
15.1420248995121
 21
4.944719220360442
 31
0.0
  0
LINE
  5
231
330
3D
100
AcDbEntity
  8
Dimension
  6
Continuous
 62
     0
370
    -2
390
1D
100
AcDbLine
 10
15.4884815924255
 20
8.934126086419145
 30
0.0
 11
15.4884815924255
 21
4.944719220360442
 31
0.0
  0
LINE
  5
232
330
3D
100
AcDbEntity
  8
Dimension
  6
Continuous
 62
     0
370
    -2
390
1D
100
AcDbLine
 10
15.4884815924255
 20
5.259679850281701
 30
0.0
 11
15.1420248995121
 21
5.259679850281701
 31
0.0
  0
LINE
  5
233
330
3D
100
AcDbEntity
  8
Dimension
  6
Continuous
 62
     0
370
    -2
390
1D
100
AcDbLine
 10
15.1420248995121
 20
5.259679850281701
 30
0.0
 11
14.0396648995121
 21
5.259679850281701
 31
0.0
  0
POLYLINE
  5
234
102
{ACAD_REACTORS
330
239
102
}
330
3D
100
AcDbEntity
  8
DRAWING
  6
Continuous
 62
     0
370
     5
390
1D
100
AcDb2dPolyline
 66
     1
 10
0.0
 20
0.0
 30
0.0
 70
     1
 75
     5
  0
VERTEX
  5
235
330
234
100
AcDbEntity
  8
DRAWING
  6
Continuous
 62
     0
370
     5
390
1D
100
AcDbVertex
100
AcDb2dVertex
 10
14.6420248995121
 20
5.393654446497263
 30
0.0
  0
VERTEX
  5
236
330
234
100
AcDbEntity
  8
DRAWING
  6
Continuous
 62
     0
370
     5
390
1D
100
AcDbVertex
100
AcDb2dVertex
 10
15.1420248995121
 20
5.259679850281701
 30
0.0
  0
VERTEX
  5
237
330
234
100
AcDbEntity
  8
DRAWING
  6
Continuous
 62
     0
370
     5
390
1D
100
AcDbVertex
100
AcDb2dVertex
 10
14.6420248995121
 20
5.125705254066141
 30
0.0
  0
SEQEND
  5
238
330
234
100
AcDbEntity
  8
DRAWING
  6
Continuous
 62
     0
370
     5
390
1D
  0
HATCH
  5
239
330
3D
100
AcDbEntity
  8
Dimension
  6
Continuous
 62
     0
370
     0
390
1D
100
AcDbHatch
 10
0.0
 20
0.0
 30
0.0
210
0.0
220
0.0
230
1.0
  2
SOLID
 70
     1
 71
     1
 91
        1
 92
        1
 93
        3
 72
     1
 10
14.6420248995121
 20
5.393654446497263
 11
15.1420248995121
 21
5.259679850281701
 72
     1
 10
15.1420248995121
 20
5.259679850281701
 11
14.6420248995121
 21
5.125705254066141
 72
     1
 10
14.6420248995121
 20
5.125705254066141
 11
14.6420248995121
 21
5.393654446497263
 97
        1
330
234
 75
     0
 76
     1
 98
        1
 10
0.0
 20
0.0
  0
LINE
  5
23A
330
3D
100
AcDbEntity
  8
Dimension
  6
Continuous
 62
     0
370
    -2
390
1D
100
AcDbLine
 10
15.4884815924255
 20
5.259679850281701
 30
0.0
 11
16.83493529684411
 21
5.259679850281701
 31
0.0
  0
POLYLINE
  5
23B
102
{ACAD_REACTORS
330
240
102
}
330
3D
100
AcDbEntity
  8
DRAWING
  6
Continuous
 62
     0
370
     5
390
1D
100
AcDb2dPolyline
 66
     1
 10
0.0
 20
0.0
 30
0.0
 70
     1
 75
     5
  0
VERTEX
  5
23C
330
23B
100
AcDbEntity
  8
DRAWING
  6
Continuous
 62
     0
370
     5
390
1D
100
AcDbVertex
100
AcDb2dVertex
 10
15.9884815924255
 20
5.125705254066141
 30
0.0
  0
VERTEX
  5
23D
330
23B
100
AcDbEntity
  8
DRAWING
  6
Continuous
 62
     0
370
     5
390
1D
100
AcDbVertex
100
AcDb2dVertex
 10
15.4884815924255
 20
5.259679850281701
 30
0.0
  0
VERTEX
  5
23E
330
23B
100
AcDbEntity
  8
DRAWING
  6
Continuous
 62
     0
370
     5
390
1D
100
AcDbVertex
100
AcDb2dVertex
 10
15.9884815924255
 20
5.393654446497263
 30
0.0
  0
SEQEND
  5
23F
330
23B
100
AcDbEntity
  8
DRAWING
  6
Continuous
 62
     0
370
     5
390
1D
  0
HATCH
  5
240
330
3D
100
AcDbEntity
  8
Dimension
  6
Continuous
 62
     0
370
     0
390
1D
100
AcDbHatch
 10
0.0
 20
0.0
 30
0.0
210
0.0
220
0.0
230
1.0
  2
SOLID
 70
     1
 71
     1
 91
        1
 92
        1
 93
        3
 72
     1
 10
15.9884815924255
 20
5.125705254066141
 11
15.4884815924255
 21
5.259679850281701
 72
     1
 10
15.4884815924255
 20
5.259679850281701
 11
15.9884815924255
 21
5.393654446497263
 72
     1
 10
15.9884815924255
 20
5.393654446497263
 11
15.9884815924255
 21
5.125705254066141
 97
        1
330
23B
 75
     0
 76
     1
 98
        1
 10
0.0
 20
0.0
  0
MTEXT
  5
241
330
3D
100
AcDbEntity
  8
Dimension
 62
     0
390
1D
100
AcDbMText
 10
16.83493529684411
 20
5.4584927118523
 30
0.0
 40
0.3188128615705982
 41
0.0
 46
0.0
 71
     1
 72
     1
  1
.346
  7
Helvetica
 73
     1
 44
0.8397955333929318
  0
POINT
  5
242
330
3D
100
AcDbEntity
  8
Defpoints
 62
     0
370
     0
390
1D
100
AcDbPoint
 10
15.4884815924255
 20
9.134126086419144
 30
0.0
  0
POINT
  5
243
330
3D
100
AcDbEntity
  8
Defpoints
 62
     0
370
     0
390
1D
100
AcDbPoint
 10
15.1420248995121
 20
7.736488291143554
 30
0.0
  0
POINT
  5
244
330
3D
100
AcDbEntity
  8
Defpoints
 62
     0
370
     0
390
1D
100
AcDbPoint
 10
15.1420248995121
 20
5.259679850281701
 30
0.0
  0
ENDBLK
  5
245
330
3D
100
AcDbEntity
  8
Dimension
390
1D
100
AcDbBlockEnd
  0
BLOCK
  5
246
330
3E
100
AcDbEntity
  8
Dimension
390
1D
100
AcDbBlockBegin
  2
*D28
 70
     1
 10
0.0
 20
0.0
 30
0.0
  3
*D28
  1

  0
LINE
  5
247
330
3E
100
AcDbEntity
  8
Dimension
  6
Continuous
 62
     0
370
    -2
390
1D
100
AcDbLine
 10
15.1420248995121
 20
17.6215276612223
 30
0.0
 11
15.1420248995121
 21
20.33816940238501
 31
0.0
  0
LINE
  5
248
330
3E
100
AcDbEntity
  8
Dimension
  6
Continuous
 62
     0
370
    -2
390
1D
100
AcDbLine
 10
15.92942498006782
 20
14.15696073208844
 30
0.0
 11
15.92942498006782
 21
20.33816940238501
 31
0.0
  0
LINE
  5
249
330
3E
100
AcDbEntity
  8
Dimension
  6
Continuous
 62
     0
370
    -2
390
1D
100
AcDbLine
 10
15.92942498006782
 20
20.02320877246375
 30
0.0
 11
15.1420248995121
 21
20.02320877246375
 31
0.0
  0
LINE
  5
24A
330
3E
100
AcDbEntity
  8
Dimension
  6
Continuous
 62
     0
370
    -2
390
1D
100
AcDbLine
 10
15.1420248995121
 20
20.02320877246375
 30
0.0
 11
14.0396648995121
 21
20.02320877246375
 31
0.0
  0
POLYLINE
  5
24B
102
{ACAD_REACTORS
330
250
102
}
330
3E
100
AcDbEntity
  8
DRAWING
  6
Continuous
 62
     0
370
     5
390
1D
100
AcDb2dPolyline
 66
     1
 10
0.0
 20
0.0
 30
0.0
 70
     1
 75
     5
  0
VERTEX
  5
24C
330
24B
100
AcDbEntity
  8
DRAWING
  6
Continuous
 62
     0
370
     5
390
1D
100
AcDbVertex
100
AcDb2dVertex
 10
14.6420248995121
 20
20.15718336867931
 30
0.0
  0
VERTEX
  5
24D
330
24B
100
AcDbEntity
  8
DRAWING
  6
Continuous
 62
     0
370
     5
390
1D
100
AcDbVertex
100
AcDb2dVertex
 10
15.1420248995121
 20
20.02320877246375
 30
0.0
  0
VERTEX
  5
24E
330
24B
100
AcDbEntity
  8
DRAWING
  6
Continuous
 62
     0
370
     5
390
1D
100
AcDbVertex
100
AcDb2dVertex
 10
14.6420248995121
 20
19.88923417624819
 30
0.0
  0
SEQEND
  5
24F
330
24B
100
AcDbEntity
  8
DRAWING
  6
Continuous
 62
     0
370
     5
390
1D
  0
HATCH
  5
250
330
3E
100
AcDbEntity
  8
Dimension
  6
Continuous
 62
     0
370
     0
390
1D
100
AcDbHatch
 10
0.0
 20
0.0
 30
0.0
210
0.0
220
0.0
230
1.0
  2
SOLID
 70
     1
 71
     1
 91
        1
 92
        1
 93
        3
 72
     1
 10
14.6420248995121
 20
20.15718336867931
 11
15.1420248995121
 21
20.02320877246375
 72
     1
 10
15.1420248995121
 20
20.02320877246375
 11
14.6420248995121
 21
19.88923417624819
 72
     1
 10
14.6420248995121
 20
19.88923417624819
 11
14.6420248995121
 21
20.15718336867931
 97
        1
330
24B
 75
     0
 76
     1
 98
        1
 10
0.0
 20
0.0
  0
LINE
  5
251
330
3E
100
AcDbEntity
  8
Dimension
  6
Continuous
 62
     0
370
    -2
390
1D
100
AcDbLine
 10
15.92942498006782
 20
20.02320877246375
 30
0.0
 11
17.03401734518182
 21
20.02320877246375
 31
0.0
  0
POLYLINE
  5
252
102
{ACAD_REACTORS
330
257
102
}
330
3E
100
AcDbEntity
  8
DRAWING
  6
Continuous
 62
     0
370
     5
390
1D
100
AcDb2dPolyline
 66
     1
 10
0.0
 20
0.0
 30
0.0
 70
     1
 75
     5
  0
VERTEX
  5
253
330
252
100
AcDbEntity
  8
DRAWING
  6
Continuous
 62
     0
370
     5
390
1D
100
AcDbVertex
100
AcDb2dVertex
 10
16.42942498006783
 20
19.88923417624819
 30
0.0
  0
VERTEX
  5
254
330
252
100
AcDbEntity
  8
DRAWING
  6
Continuous
 62
     0
370
     5
390
1D
100
AcDbVertex
100
AcDb2dVertex
 10
15.92942498006782
 20
20.02320877246375
 30
0.0
  0
VERTEX
  5
255
330
252
100
AcDbEntity
  8
DRAWING
  6
Continuous
 62
     0
370
     5
390
1D
100
AcDbVertex
100
AcDb2dVertex
 10
16.42942498006783
 20
20.15718336867931
 30
0.0
  0
SEQEND
  5
256
330
252
100
AcDbEntity
  8
DRAWING
  6
Continuous
 62
     0
370
     5
390
1D
  0
HATCH
  5
257
330
3E
100
AcDbEntity
  8
Dimension
  6
Continuous
 62
     0
370
     0
390
1D
100
AcDbHatch
 10
0.0
 20
0.0
 30
0.0
210
0.0
220
0.0
230
1.0
  2
SOLID
 70
     1
 71
     1
 91
        1
 92
        1
 93
        3
 72
     1
 10
16.42942498006783
 20
19.88923417624819
 11
15.92942498006782
 21
20.02320877246375
 72
     1
 10
15.92942498006782
 20
20.02320877246375
 11
16.42942498006783
 21
20.15718336867931
 72
     1
 10
16.42942498006783
 20
20.15718336867931
 11
16.42942498006783
 21
19.88923417624819
 97
        1
330
252
 75
     0
 76
     1
 98
        1
 10
0.0
 20
0.0
  0
MTEXT
  5
258
330
3E
100
AcDbEntity
  8
Dimension
 62
     0
390
1D
100
AcDbMText
 10
17.03401734518182
 20
20.22202163403435
 30
0.0
 40
0.3188128615705982
 41
0.0
 46
0.0
 71
     1
 72
     1
  1
.787
  7
Helvetica
 73
     1
 44
0.8397955333929318
  0
POINT
  5
259
330
3E
100
AcDbEntity
  8
Defpoints
 62
     0
370
     0
390
1D
100
AcDbPoint
 10
15.92942498006782
 20
13.95696073208844
 30
0.0
  0
POINT
  5
25A
330
3E
100
AcDbEntity
  8
Defpoints
 62
     0
370
     0
390
1D
100
AcDbPoint
 10
15.1420248995121
 20
17.42152766122229
 30
0.0
  0
POINT
  5
25B
330
3E
100
AcDbEntity
  8
Defpoints
 62
     0
370
     0
390
1D
100
AcDbPoint
 10
15.1420248995121
 20
20.02320877246375
 30
0.0
  0
ENDBLK
  5
25C
330
3E
100
AcDbEntity
  8
Dimension
390
1D
100
AcDbBlockEnd
  0
BLOCK
  5
25D
330
3F
100
AcDbEntity
  8
DRAWING
390
1D
100
AcDbBlockBegin
  2
Group-12
 70
     0
 10
0.0
 20
0.0
 30
0.0
  3
Group-12
  1

  0
LINE
  5
25E
330
3F
100
AcDbEntity
  8
DRAWING
  6
STYLE_14
 62
     7
370
    15
390
1D
100
AcDbLine
 10
12.17418347722878
 20
-3.730198819085984
 30
0.0
 11
12.17418347722878
 21
-3.297127952944252
 31
0.0
  0
LINE
  5
25F
330
3F
100
AcDbEntity
  8
DRAWING
  6
STYLE_14
 62
     7
370
    15
390
1D
100
AcDbLine
 10
12.75686064258311
 20
-3.730198819085984
 30
0.0
 11
12.75686064258311
 21
-3.297127952944252
 31
0.0
  0
LINE
  5
260
330
3F
100
AcDbEntity
  8
DRAWING
  6
STYLE_14
 62
     7
370
    15
390
1D
100
AcDbLine
 10
12.17418347722878
 20
-3.297127952944252
 30
0.0
 11
12.75686064258311
 21
-3.297127952944252
 31
0.0
  0
ENDBLK
  5
261
330
3F
100
AcDbEntity
  8
DRAWING
390
1D
100
AcDbBlockEnd
  0
BLOCK
  5
262
330
40
100
AcDbEntity
  8
DRAWING
390
1D
100
AcDbBlockBegin
  2
Group-13
 70
     0
 10
0.0
 20
0.0
 30
0.0
  3
Group-13
  1

  0
LINE
  5
263
330
40
100
AcDbEntity
  8
DRAWING
  6
STYLE_14
 62
     7
370
    15
390
1D
100
AcDbLine
 10
-0.4990750862920391
 20
-3.730198819085984
 30
0.0
 11
-0.4990750862920391
 21
-3.297127952944252
 31
0.0
  0
LINE
  5
264
330
40
100
AcDbEntity
  8
DRAWING
  6
STYLE_14
 62
     7
370
    15
390
1D
100
AcDbLine
 10
0.0836020790622922
 20
-3.730198819085984
 30
0.0
 11
0.0836020790622922
 21
-3.297127952944252
 31
0.0
  0
LINE
  5
265
330
40
100
AcDbEntity
  8
DRAWING
  6
STYLE_14
 62
     7
370
    15
390
1D
100
AcDbLine
 10
-0.4990750862920391
 20
-3.297127952944252
 30
0.0
 11
0.0836020790622922
 21
-3.297127952944252
 31
0.0
  0
ENDBLK
  5
266
330
40
100
AcDbEntity
  8
DRAWING
390
1D
100
AcDbBlockEnd
  0
BLOCK
  5
267
330
41
100
AcDbEntity
  8
DRAWING
390
1D
100
AcDbBlockBegin
  2
Group-14
 70
     0
 10
0.0
 20
0.0
 30
0.0
  3
Group-14
  1

  0
ARC
  5
268
330
41
100
AcDbEntity
  8
PLB-Tw~
  6
STYLE_14
 62
    18
370
    15
390
1D
100
AcDbCircle
 10
12.46552205990594
 20
4.696255397769352
 30
0.0
 40
0.1968503937007866
100
AcDbArc
 50
110.0000000000008
 51
19.99999999999997
  0
CIRCLE
  5
269
330
41
100
AcDbEntity
  8
PLB-Tw~
 62
   148
370
    25
390
1D
100
AcDbCircle
 10
12.46552205990594
 20
4.696255397769354
 30
0.0
 40
0.1574803149606299
  0
ENDBLK
  5
26A
330
41
100
AcDbEntity
  8
DRAWING
390
1D
100
AcDbBlockEnd
  0
BLOCK
  5
26B
330
42
100
AcDbEntity
  8
DRAWING
390
1D
100
AcDbBlockBegin
  2
Group-15
 70
     0
 10
0.0
 20
0.0
 30
0.0
  3
Group-15
  1

  0
INSERT
  5
26C
330
42
100
AcDbEntity
  8
DRAWING
 62
     7
390
1D
100
AcDbBlockReference
  2
Group-14
 10
0.0
 20
0.0
 30
0.0
  0
LINE
  5
26D
330
42
100
AcDbEntity
  8
DRAWING
  6
Continuous
 62
     5
370
    15
390
1D
100
AcDbLine
 10
12.46552205990594
 20
4.971845948950454
 30
0.0
 11
12.46552205990594
 21
4.42066484658825
 31
0.0
  0
ENDBLK
  5
26E
330
42
100
AcDbEntity
  8
DRAWING
390
1D
100
AcDbBlockEnd
  0
BLOCK
  5
26F
330
43
100
AcDbEntity
  8
DRAWING
390
1D
100
AcDbBlockBegin
  2
Group-16
 70
     0
 10
0.0
 20
0.0
 30
0.0
  3
Group-16
  1

  0
ARC
  5
270
330
43
100
AcDbEntity
  8
PLB-Tw~
  6
STYLE_14
 62
    18
370
    15
390
1D
100
AcDbCircle
 10
9.908360434558196
 20
3.219877445013449
 30
0.0
 40
0.1968503937007864
100
AcDbArc
 50
170.0000000000008
 51
79.99999999999947
  0
CIRCLE
  5
271
330
43
100
AcDbEntity
  8
PLB-Tw~
 62
   148
370
    25
390
1D
100
AcDbCircle
 10
9.908360434558194
 20
3.219877445013449
 30
0.0
 40
0.1574803149606312
  0
ENDBLK
  5
272
330
43
100
AcDbEntity
  8
DRAWING
390
1D
100
AcDbBlockEnd
  0
BLOCK
  5
273
330
44
100
AcDbEntity
  8
DRAWING
390
1D
100
AcDbBlockBegin
  2
Group-17
 70
     0
 10
0.0
 20
0.0
 30
0.0
  3
Group-17
  1

  0
INSERT
  5
274
330
44
100
AcDbEntity
  8
DRAWING
 62
     7
390
1D
100
AcDbBlockReference
  2
Group-16
 10
0.0
 20
0.0
 30
0.0
  0
LINE
  5
275
330
44
100
AcDbEntity
  8
DRAWING
  6
Continuous
 62
     5
370
    15
390
1D
100
AcDbLine
 10
9.669692016192407
 20
3.357672720604
 30
0.0
 11
10.14702885292399
 21
3.082082169422897
 31
0.0
  0
ENDBLK
  5
276
330
44
100
AcDbEntity
  8
DRAWING
390
1D
100
AcDbBlockEnd
  0
BLOCK
  5
277
330
45
100
AcDbEntity
  8
DRAWING
390
1D
100
AcDbBlockBegin
  2
Group-18
 70
     0
 10
0.0
 20
0.0
 30
0.0
  3
Group-18
  1

  0
ARC
  5
278
330
45
100
AcDbEntity
  8
PLB-Tw~
  6
STYLE_14
 62
    18
370
    15
390
1D
100
AcDbCircle
 10
9.908360434558196
 20
0.2671215395016424
 30
0.0
 40
0.1968503937007895
100
AcDbArc
 50
230.0000000000007
 51
140.0000000000001
  0
CIRCLE
  5
279
330
45
100
AcDbEntity
  8
PLB-Tw~
 62
   148
370
    25
390
1D
100
AcDbCircle
 10
9.908360434558194
 20
0.2671215395016413
 30
0.0
 40
0.1574803149606293
  0
ENDBLK
  5
27A
330
45
100
AcDbEntity
  8
DRAWING
390
1D
100
AcDbBlockEnd
  0
BLOCK
  5
27B
330
46
100
AcDbEntity
  8
DRAWING
390
1D
100
AcDbBlockBegin
  2
Group-19
 70
     0
 10
0.0
 20
0.0
 30
0.0
  3
Group-19
  1

  0
INSERT
  5
27C
330
46
100
AcDbEntity
  8
DRAWING
 62
     7
390
1D
100
AcDbBlockReference
  2
Group-18
 10
0.0
 20
0.0
 30
0.0
  0
LINE
  5
27D
330
46
100
AcDbEntity
  8
DRAWING
  6
Continuous
 62
     5
370
    15
390
1D
100
AcDbLine
 10
9.669692016192405
 20
0.1293262639110912
 30
0.0
 11
10.14702885292399
 21
0.4049168150921936
 31
0.0
  0
ENDBLK
  5
27E
330
46
100
AcDbEntity
  8
DRAWING
390
1D
100
AcDbBlockEnd
  0
BLOCK
  5
27F
330
47
100
AcDbEntity
  8
DRAWING
390
1D
100
AcDbBlockBegin
  2
Group-20
 70
     0
 10
0.0
 20
0.0
 30
0.0
  3
Group-20
  1

  0
ARC
  5
280
330
47
100
AcDbEntity
  8
PLB-Tw~
  6
STYLE_14
 62
    18
370
    15
390
1D
100
AcDbCircle
 10
12.46552205990594
 20
-1.209256413254262
 30
0.0
 40
0.1968503937007866
100
AcDbArc
 50
290.0000000000008
 51
200.0
  0
CIRCLE
  5
281
330
47
100
AcDbEntity
  8
PLB-Tw~
 62
   148
370
    25
390
1D
100
AcDbCircle
 10
12.46552205990594
 20
-1.209256413254264
 30
0.0
 40
0.1574803149606299
  0
ENDBLK
  5
282
330
47
100
AcDbEntity
  8
DRAWING
390
1D
100
AcDbBlockEnd
  0
BLOCK
  5
283
330
48
100
AcDbEntity
  8
DRAWING
390
1D
100
AcDbBlockBegin
  2
Group-21
 70
     0
 10
0.0
 20
0.0
 30
0.0
  3
Group-21
  1

  0
INSERT
  5
284
330
48
100
AcDbEntity
  8
DRAWING
 62
     7
390
1D
100
AcDbBlockReference
  2
Group-20
 10
0.0
 20
0.0
 30
0.0
  0
LINE
  5
285
330
48
100
AcDbEntity
  8
DRAWING
  6
Continuous
 62
     5
370
    15
390
1D
100
AcDbLine
 10
12.46552205990594
 20
-1.484846964435364
 30
0.0
 11
12.46552205990594
 21
-0.9336658620731592
 31
0.0
  0
ENDBLK
  5
286
330
48
100
AcDbEntity
  8
DRAWING
390
1D
100
AcDbBlockEnd
  0
BLOCK
  5
287
330
49
100
AcDbEntity
  8
DRAWING
390
1D
100
AcDbBlockBegin
  2
Group-22
 70
     0
 10
0.0
 20
0.0
 30
0.0
  3
Group-22
  1

  0
ARC
  5
288
330
49
100
AcDbEntity
  8
PLB-Tw~
  6
STYLE_14
 62
    18
370
    15
390
1D
100
AcDbCircle
 10
15.02268368525369
 20
0.2671215395016407
 30
0.0
 40
0.1968503937007864
100
AcDbArc
 50
350.0000000000009
 51
260.0000000000002
  0
CIRCLE
  5
289
330
49
100
AcDbEntity
  8
PLB-Tw~
 62
   148
370
    25
390
1D
100
AcDbCircle
 10
15.02268368525369
 20
0.2671215395016385
 30
0.0
 40
0.1574803149606293
  0
ENDBLK
  5
28A
330
49
100
AcDbEntity
  8
DRAWING
390
1D
100
AcDbBlockEnd
  0
BLOCK
  5
28B
330
4A
100
AcDbEntity
  8
DRAWING
390
1D
100
AcDbBlockBegin
  2
Group-23
 70
     0
 10
0.0
 20
0.0
 30
0.0
  3
Group-23
  1

  0
INSERT
  5
28C
330
4A
100
AcDbEntity
  8
DRAWING
 62
     7
390
1D
100
AcDbBlockReference
  2
Group-22
 10
0.0
 20
0.0
 30
0.0
  0
LINE
  5
28D
330
4A
100
AcDbEntity
  8
DRAWING
  6
Continuous
 62
     5
370
    15
390
1D
100
AcDbLine
 10
15.26135210361948
 20
0.1293262639110895
 30
0.0
 11
14.7840152668879
 21
0.4049168150921919
 31
0.0
  0
ENDBLK
  5
28E
330
4A
100
AcDbEntity
  8
DRAWING
390
1D
100
AcDbBlockEnd
  0
BLOCK
  5
28F
330
4B
100
AcDbEntity
  8
DRAWING
390
1D
100
AcDbBlockBegin
  2
Group-24
 70
     0
 10
0.0
 20
0.0
 30
0.0
  3
Group-24
  1

  0
ARC
  5
290
330
4B
100
AcDbEntity
  8
PLB-Tw~
  6
STYLE_14
 62
    18
370
    15
390
1D
100
AcDbCircle
 10
15.02268368525369
 20
3.219877445013447
 30
0.0
 40
0.1968503937007863
100
AcDbArc
 50
50.00000000000083
 51
320.0000000000001
  0
CIRCLE
  5
291
330
4B
100
AcDbEntity
  8
PLB-Tw~
 62
   148
370
    25
390
1D
100
AcDbCircle
 10
15.02268368525369
 20
3.219877445013449
 30
0.0
 40
0.1574803149606312
  0
ENDBLK
  5
292
330
4B
100
AcDbEntity
  8
DRAWING
390
1D
100
AcDbBlockEnd
  0
BLOCK
  5
293
330
4C
100
AcDbEntity
  8
DRAWING
390
1D
100
AcDbBlockBegin
  2
Group-25
 70
     0
 10
0.0
 20
0.0
 30
0.0
  3
Group-25
  1

  0
INSERT
  5
294
330
4C
100
AcDbEntity
  8
DRAWING
 62
     7
390
1D
100
AcDbBlockReference
  2
Group-24
 10
0.0
 20
0.0
 30
0.0
  0
LINE
  5
295
330
4C
100
AcDbEntity
  8
DRAWING
  6
Continuous
 62
     5
370
    15
390
1D
100
AcDbLine
 10
15.26135210361948
 20
3.357672720603999
 30
0.0
 11
14.7840152668879
 21
3.082082169422896
 31
0.0
  0
ENDBLK
  5
296
330
4C
100
AcDbEntity
  8
DRAWING
390
1D
100
AcDbBlockEnd
  0
BLOCK
  5
297
330
4D
100
AcDbEntity
  8
DRAWING
390
1D
100
AcDbBlockBegin
  2
Group-26
 70
     0
 10
0.0
 20
0.0
 30
0.0
  3
Group-26
  1

  0
LINE
  5
298
330
4D
100
AcDbEntity
  8
DRAWING
  6
STYLE_14
 62
     7
370
    15
390
1D
100
AcDbLine
 10
16.45124523428227
 20
5.506511869409763
 30
0.0
 11
16.03366248948707
 21
5.088929124614557
 31
0.0
  0
LINE
  5
299
330
4D
100
AcDbEntity
  8
DRAWING
  6
STYLE_14
 62
     7
370
    15
390
1D
100
AcDbLine
 10
15.80618401826759
 20
5.306872247843295
 30
0.0
 11
16.22376676306279
 21
5.724454992638498
 31
0.0
  0
LINE
  5
29A
330
4D
100
AcDbEntity
  8
DRAWING
  6
STYLE_16
 62
     7
370
    15
390
1D
100
AcDbLine
 10
15.80618401826759
 20
5.306872247843295
 30
0.0
 11
16.0288948154917
 21
5.084161450619185
 31
0.0
  0
LINE
  5
29B
330
4D
100
AcDbEntity
  8
DRAWING
  6
STYLE_14
 62
     7
370
    15
390
1D
100
AcDbLine
 10
15.82567121302469
 20
5.287385053086186
 30
0.0
 11
16.24853268251785
 21
5.710246522579339
 31
0.0
  0
LINE
  5
29C
330
4D
100
AcDbEntity
  8
DRAWING
  6
STYLE_14
 62
     7
370
    15
390
1D
100
AcDbLine
 10
16.00940762073459
 20
5.103648645376294
 30
0.0
 11
16.43226909022774
 21
5.526510114869447
 31
0.0
  0
LINE
  5
29D
330
4D
100
AcDbEntity
  8
DRAWING
  6
STYLE_15
 62
     5
370
    15
390
1D
100
AcDbLine
 10
15.85058165509608
 20
5.128559087447679
 30
0.0
 11
16.54655289642142
 21
5.824530328773021
 31
0.0
  0
ENDBLK
  5
29E
330
4D
100
AcDbEntity
  8
DRAWING
390
1D
100
AcDbBlockEnd
  0
BLOCK
  5
29F
330
4E
100
AcDbEntity
  8
Dimension
390
1D
100
AcDbBlockBegin
  2
*D44
 70
     1
 10
0.0
 20
0.0
 30
0.0
  3
*D44
  1

  0
LINE
  5
2A0
330
4E
100
AcDbEntity
  8
Dimension
  6
Continuous
 62
     0
370
    -2
390
1D
100
AcDbLine
 10
-0.024130817306224
 20
12.77900797618292
 30
0.0
 11
-0.024130817306224
 21
19.12462671622433
 31
0.0
  0
LINE
  5
2A1
330
4E
100
AcDbEntity
  8
Dimension
  6
Continuous
 62
     0
370
    -2
390
1D
100
AcDbLine
 10
-2.289485148014887
 20
16.50271677411651
 30
0.0
 11
-3.296940187326928
 21
18.24768008854628
 31
0.0
  0
ARC
  5
2A2
330
4E
100
AcDbEntity
  8
Dimension
  6
Continuous
 62
     0
370
    -2
390
1D
100
AcDbCircle
 10
-0.024130817306224
 20
12.57900797618292
 30
0.0
 40
6.23065811012015
100
AcDbArc
 50
90.0
 51
120.0
  0
POLYLINE
  5
2A3
102
{ACAD_REACTORS
330
2A8
102
}
330
4E
100
AcDbEntity
  8
DRAWING
  6
Continuous
 62
     0
370
     5
390
1D
100
AcDb2dPolyline
 66
     1
 10
0.0
 20
0.0
 30
0.0
 70
     1
 75
     5
  0
VERTEX
  5
2A4
330
2A3
100
AcDbEntity
  8
DRAWING
  6
Continuous
 62
     0
370
     5
390
1D
100
AcDbVertex
100
AcDb2dVertex
 10
-2.633133416383806
 20
18.08253919240872
 30
0.0
  0
VERTEX
  5
2A5
330
2A3
100
AcDbEntity
  8
DRAWING
  6
Continuous
 62
     0
370
     5
390
1D
100
AcDbVertex
100
AcDb2dVertex
 10
-3.139459872366299
 20
17.97491618184251
 30
0.0
  0
VERTEX
  5
2A6
330
2A3
100
AcDbEntity
  8
DRAWING
  6
Continuous
 62
     0
370
     5
390
1D
100
AcDbVertex
100
AcDb2dVertex
 10
-2.754779804160421
 20
18.32128367101586
 30
0.0
  0
SEQEND
  5
2A7
330
2A3
100
AcDbEntity
  8
DRAWING
  6
Continuous
 62
     0
370
     5
390
1D
  0
HATCH
  5
2A8
330
4E
100
AcDbEntity
  8
Dimension
  6
Continuous
 62
     0
370
     0
390
1D
100
AcDbHatch
 10
0.0
 20
0.0
 30
0.0
210
0.0
220
0.0
230
1.0
  2
SOLID
 70
     1
 71
     1
 91
        1
 92
        1
 93
        3
 72
     1
 10
-2.633133416383806
 20
18.08253919240872
 11
-3.139459872366299
 21
17.97491618184251
 72
     1
 10
-3.139459872366299
 20
17.97491618184251
 11
-2.754779804160421
 21
18.32128367101586
 72
     1
 10
-2.754779804160421
 20
18.32128367101586
 11
-2.633133416383806
 21
18.08253919240872
 97
        1
330
2A3
 75
     0
 76
     1
 98
        1
 10
0.0
 20
0.0
  0
POLYLINE
  5
2A9
102
{ACAD_REACTORS
330
2AE
102
}
330
4E
100
AcDbEntity
  8
DRAWING
  6
Continuous
 62
     0
370
     5
390
1D
100
AcDb2dPolyline
 66
     1
 10
0.0
 20
0.0
 30
0.0
 70
     1
 75
     5
  0
VERTEX
  5
2AA
330
2A9
100
AcDbEntity
  8
DRAWING
  6
Continuous
 62
     0
370
     5
390
1D
100
AcDbVertex
100
AcDb2dVertex
 10
-0.5285018767946159
 20
18.92610932046324
 30
0.0
  0
VERTEX
  5
2AB
330
2A9
100
AcDbEntity
  8
DRAWING
  6
Continuous
 62
     0
370
     5
390
1D
100
AcDbVertex
100
AcDb2dVertex
 10
-0.024130817306224
 20
18.80966608630307
 30
0.0
  0
VERTEX
  5
2AC
330
2A9
100
AcDbEntity
  8
DRAWING
  6
Continuous
 62
     0
370
     5
390
1D
100
AcDbVertex
100
AcDb2dVertex
 10
-0.5191505848369271
 20
18.65832335544041
 30
0.0
  0
SEQEND
  5
2AD
330
2A9
100
AcDbEntity
  8
DRAWING
  6
Continuous
 62
     0
370
     5
390
1D
  0
HATCH
  5
2AE
330
4E
100
AcDbEntity
  8
Dimension
  6
Continuous
 62
     0
370
     0
390
1D
100
AcDbHatch
 10
0.0
 20
0.0
 30
0.0
210
0.0
220
0.0
230
1.0
  2
SOLID
 70
     1
 71
     1
 91
        1
 92
        1
 93
        3
 72
     1
 10
-0.5285018767946159
 20
18.92610932046324
 11
-0.024130817306224
 21
18.80966608630307
 72
     1
 10
-0.024130817306224
 20
18.80966608630307
 11
-0.5191505848369271
 21
18.65832335544041
 72
     1
 10
-0.5191505848369271
 20
18.65832335544041
 11
-0.5285018767946159
 21
18.92610932046324
 97
        1
330
2A9
 75
     0
 76
     1
 98
        1
 10
0.0
 20
0.0
  0
MTEXT
  5
2AF
330
4E
100
AcDbEntity
  8
Dimension
 62
     0
390
1D
100
AcDbMText
 10
-1.972789806672242
 20
18.79617442109601
 30
0.0
 40
0.318812861570598
 41
0.0
 46
0.0
 71
     1
 72
     1
  1
30°
  7
Helvetica
 73
     1
 44
0.8397955333929318
  0
POINT
  5
2B0
330
4E
100
AcDbEntity
  8
Defpoints
 62
     0
370
     0
390
1D
100
AcDbPoint
 10
-0.024130817306224
 20
18.0604540785688
 30
0.0
  0
POINT
  5
2B1
330
4E
100
AcDbEntity
  8
Defpoints
 62
     0
370
     0
390
1D
100
AcDbPoint
 10
-2.189485148014885
 20
16.32951169335963
 30
0.0
  0
POINT
  5
2B2
330
4E
100
AcDbEntity
  8
Defpoints
 62
     0
370
     0
390
1D
100
AcDbPoint
 10
-0.024130817306224
 20
12.57900797618292
 30
0.0
  0
ENDBLK
  5
2B3
330
4E
100
AcDbEntity
  8
Dimension
390
1D
100
AcDbBlockEnd
  0
BLOCK
  5
2B4
330
4F
100
AcDbEntity
  8
DRAWING
390
1D
100
AcDbBlockBegin
  2
Group-27
 70
     0
 10
0.0
 20
0.0
 30
0.0
  3
Group-27
  1

  0
LINE
  5
2B5
330
4F
100
AcDbEntity
  8
DRAWING
  6
STYLE_14
 62
     7
370
    15
390
1D
100
AcDbLine
 10
-14.2869552140932
 20
-3.730198819085984
 30
0.0
 11
-14.2869552140932
 21
-3.297127952944252
 31
0.0
  0
LINE
  5
2B6
330
4F
100
AcDbEntity
  8
DRAWING
  6
STYLE_14
 62
     7
370
    15
390
1D
100
AcDbLine
 10
-13.70427804873887
 20
-3.730198819085984
 30
0.0
 11
-13.70427804873887
 21
-3.297127952944252
 31
0.0
  0
LINE
  5
2B7
330
4F
100
AcDbEntity
  8
DRAWING
  6
STYLE_14
 62
     7
370
    15
390
1D
100
AcDbLine
 10
-14.2869552140932
 20
-3.297127952944252
 30
0.0
 11
-13.70427804873887
 21
-3.297127952944252
 31
0.0
  0
ENDBLK
  5
2B8
330
4F
100
AcDbEntity
  8
DRAWING
390
1D
100
AcDbBlockEnd
  0
BLOCK
  5
2B9
330
50
100
AcDbEntity
  8
Dimension
390
1D
100
AcDbBlockBegin
  2
*D46
 70
     1
 10
0.0
 20
0.0
 30
0.0
  3
*D46
  1

  0
LINE
  5
2BA
330
50
100
AcDbEntity
  8
Dimension
  6
Continuous
 62
     0
370
    -2
390
1D
100
AcDbLine
 10
14.51210363966958
 20
18.10623729858329
 30
0.0
 11
14.51210363966958
 21
19.01601585019867
 31
0.0
  0
LINE
  5
2BB
330
50
100
AcDbEntity
  8
Dimension
  6
Continuous
 62
     0
370
    -2
390
1D
100
AcDbLine
 10
13.76141524458244
 20
18.41530947490669
 30
0.0
 11
13.76141524458244
 21
19.01601585019867
 31
0.0
  0
LINE
  5
2BC
330
50
100
AcDbEntity
  8
Dimension
  6
Continuous
 62
     0
370
    -2
390
1D
100
AcDbLine
 10
13.76141524458244
 20
18.70105522027741
 30
0.0
 11
14.51210363966958
 21
18.70105522027741
 31
0.0
  0
LINE
  5
2BD
330
50
100
AcDbEntity
  8
Dimension
  6
Continuous
 62
     0
370
    -2
390
1D
100
AcDbLine
 10
14.51210363966958
 20
18.70105522027741
 30
0.0
 11
15.61446363966958
 21
18.70105522027741
 31
0.0
  0
POLYLINE
  5
2BE
102
{ACAD_REACTORS
330
2C3
102
}
330
50
100
AcDbEntity
  8
DRAWING
  6
Continuous
 62
     0
370
     5
390
1D
100
AcDb2dPolyline
 66
     1
 10
0.0
 20
0.0
 30
0.0
 70
     1
 75
     5
  0
VERTEX
  5
2BF
330
2BE
100
AcDbEntity
  8
DRAWING
  6
Continuous
 62
     0
370
     5
390
1D
100
AcDbVertex
100
AcDb2dVertex
 10
15.01210363966958
 20
18.56708062406185
 30
0.0
  0
VERTEX
  5
2C0
330
2BE
100
AcDbEntity
  8
DRAWING
  6
Continuous
 62
     0
370
     5
390
1D
100
AcDbVertex
100
AcDb2dVertex
 10
14.51210363966958
 20
18.70105522027741
 30
0.0
  0
VERTEX
  5
2C1
330
2BE
100
AcDbEntity
  8
DRAWING
  6
Continuous
 62
     0
370
     5
390
1D
100
AcDbVertex
100
AcDb2dVertex
 10
15.01210363966958
 20
18.83502981649297
 30
0.0
  0
SEQEND
  5
2C2
330
2BE
100
AcDbEntity
  8
DRAWING
  6
Continuous
 62
     0
370
     5
390
1D
  0
HATCH
  5
2C3
330
50
100
AcDbEntity
  8
Dimension
  6
Continuous
 62
     0
370
     0
390
1D
100
AcDbHatch
 10
0.0
 20
0.0
 30
0.0
210
0.0
220
0.0
230
1.0
  2
SOLID
 70
     1
 71
     1
 91
        1
 92
        1
 93
        3
 72
     1
 10
15.01210363966958
 20
18.56708062406185
 11
14.51210363966958
 21
18.70105522027741
 72
     1
 10
14.51210363966958
 20
18.70105522027741
 11
15.01210363966958
 21
18.83502981649297
 72
     1
 10
15.01210363966958
 20
18.83502981649297
 11
15.01210363966958
 21
18.56708062406185
 97
        1
330
2BE
 75
     0
 76
     1
 98
        1
 10
0.0
 20
0.0
  0
LINE
  5
2C4
330
50
100
AcDbEntity
  8
Dimension
  6
Continuous
 62
     0
370
    -2
390
1D
100
AcDbLine
 10
13.76141524458244
 20
18.70105522027741
 30
0.0
 11
12.65905524458244
 21
18.70105522027741
 31
0.0
  0
POLYLINE
  5
2C5
102
{ACAD_REACTORS
330
2CA
102
}
330
50
100
AcDbEntity
  8
DRAWING
  6
Continuous
 62
     0
370
     5
390
1D
100
AcDb2dPolyline
 66
     1
 10
0.0
 20
0.0
 30
0.0
 70
     1
 75
     5
  0
VERTEX
  5
2C6
330
2C5
100
AcDbEntity
  8
DRAWING
  6
Continuous
 62
     0
370
     5
390
1D
100
AcDbVertex
100
AcDb2dVertex
 10
13.26141524458244
 20
18.83502981649297
 30
0.0
  0
VERTEX
  5
2C7
330
2C5
100
AcDbEntity
  8
DRAWING
  6
Continuous
 62
     0
370
     5
390
1D
100
AcDbVertex
100
AcDb2dVertex
 10
13.76141524458244
 20
18.70105522027741
 30
0.0
  0
VERTEX
  5
2C8
330
2C5
100
AcDbEntity
  8
DRAWING
  6
Continuous
 62
     0
370
     5
390
1D
100
AcDbVertex
100
AcDb2dVertex
 10
13.26141524458244
 20
18.56708062406185
 30
0.0
  0
SEQEND
  5
2C9
330
2C5
100
AcDbEntity
  8
DRAWING
  6
Continuous
 62
     0
370
     5
390
1D
  0
HATCH
  5
2CA
330
50
100
AcDbEntity
  8
Dimension
  6
Continuous
 62
     0
370
     0
390
1D
100
AcDbHatch
 10
0.0
 20
0.0
 30
0.0
210
0.0
220
0.0
230
1.0
  2
SOLID
 70
     1
 71
     1
 91
        1
 92
        1
 93
        3
 72
     1
 10
13.26141524458244
 20
18.83502981649297
 11
13.76141524458244
 21
18.70105522027741
 72
     1
 10
13.76141524458244
 20
18.70105522027741
 11
13.26141524458244
 21
18.56708062406185
 72
     1
 10
13.26141524458244
 20
18.56708062406185
 11
13.26141524458244
 21
18.83502981649297
 97
        1
330
2C5
 75
     0
 76
     1
 98
        1
 10
0.0
 20
0.0
  0
MTEXT
  5
2CB
330
50
100
AcDbEntity
  8
Dimension
 62
     0
390
1D
100
AcDbMText
 10
13.82784017129268
 20
18.89986808184801
 30
0.0
 40
0.318812861570598
 41
0.0
 46
0.0
 71
     1
 72
     1
  1
.75
  7
Helvetica
 73
     1
 44
0.8397955333929318
  0
POINT
  5
2CC
330
50
100
AcDbEntity
  8
Defpoints
 62
     0
370
     0
390
1D
100
AcDbPoint
 10
13.76141524458244
 20
18.21530947490669
 30
0.0
  0
POINT
  5
2CD
330
50
100
AcDbEntity
  8
Defpoints
 62
     0
370
     0
390
1D
100
AcDbPoint
 10
14.51210363966958
 20
17.90623729858329
 30
0.0
  0
POINT
  5
2CE
330
50
100
AcDbEntity
  8
Defpoints
 62
     0
370
     0
390
1D
100
AcDbPoint
 10
14.51210363966958
 20
18.70105522027741
 30
0.0
  0
ENDBLK
  5
2CF
330
50
100
AcDbEntity
  8
Dimension
390
1D
100
AcDbBlockEnd
  0
BLOCK
  5
2D0
330
51
100
AcDbEntity
  8
DRAWING
390
1D
100
AcDbBlockBegin
  2
Group-28
 70
     0
 10
0.0
 20
0.0
 30
0.0
  3
Group-28
  1

  0
LINE
  5
2D1
330
51
100
AcDbEntity
  8
DRAWING
  6
STYLE_14
 62
     7
370
    15
390
1D
100
AcDbLine
 10
-17.75862900856825
 20
5.729222666633874
 30
0.0
 11
-17.34104626377305
 21
5.311639921838668
 31
0.0
  0
LINE
  5
2D2
330
51
100
AcDbEntity
  8
DRAWING
  6
STYLE_14
 62
     7
370
    15
390
1D
100
AcDbLine
 10
-17.55898938700178
 20
5.084161450619185
 30
0.0
 11
-17.97657213179699
 21
5.501744195414392
 31
0.0
  0
LINE
  5
2D3
330
51
100
AcDbEntity
  8
DRAWING
  6
STYLE_16
 62
     7
370
    15
390
1D
100
AcDbLine
 10
-17.55898938700178
 20
5.084161450619185
 30
0.0
 11
-17.33627858977767
 21
5.306872247843296
 31
0.0
  0
LINE
  5
2D4
330
51
100
AcDbEntity
  8
DRAWING
  6
STYLE_14
 62
     7
370
    15
390
1D
100
AcDbLine
 10
-17.53950219224468
 20
5.103648645376294
 30
0.0
 11
-17.96236366173783
 21
5.526510114869452
 31
0.0
  0
LINE
  5
2D5
330
51
100
AcDbEntity
  8
DRAWING
  6
STYLE_14
 62
     7
370
    15
390
1D
100
AcDbLine
 10
-17.35576578453478
 20
5.287385053086186
 30
0.0
 11
-17.77862725402793
 21
5.710246522579339
 31
0.0
  0
LINE
  5
2D6
330
51
100
AcDbEntity
  8
DRAWING
  6
STYLE_15
 62
     5
370
    15
390
1D
100
AcDbLine
 10
-17.38067622660617
 20
5.128559087447679
 30
0.0
 11
-18.07664746793151
 21
5.824530328773021
 31
0.0
  0
ENDBLK
  5
2D7
330
51
100
AcDbEntity
  8
DRAWING
390
1D
100
AcDbBlockEnd
  0
BLOCK
  5
2D8
330
52
100
AcDbEntity
  8
Dimension
390
1D
100
AcDbBlockBegin
  2
Group-29
 70
     0
 10
0.0
 20
0.0
 30
0.0
  3
Group-29
  1

  0
LINE
  5
2D9
330
52
100
AcDbEntity
  8
DRAWING
  6
Continuous
 62
     5
370
    15
390
1D
100
AcDbLine
 10
-14.36518581410981
 20
-10.83550848392538
 30
0.0
 11
-13.57778581410981
 21
-10.83550848392538
 31
0.0
  0
LINE
  5
2DA
330
52
100
AcDbEntity
  8
DRAWING
  6
Continuous
 62
     5
370
    15
390
1D
100
AcDbLine
 10
-13.9714858141098
 20
-11.22920848392538
 30
0.0
 11
-13.9714858141098
 21
-10.44180848392538
 31
0.0
  0
LINE
  5
2DB
330
52
100
AcDbEntity
  8
DRAWING
  6
Continuous
 62
     5
370
    15
390
1D
100
AcDbLine
 10
-15.32975258576335
 20
-10.83550848392538
 30
0.0
 11
-14.6801458141098
 21
-10.83550848392538
 31
0.0
  0
LINE
  5
2DC
330
52
100
AcDbEntity
  8
DRAWING
  6
Continuous
 62
     5
370
    15
390
1D
100
AcDbLine
 10
-13.26282581410981
 20
-10.83550848392538
 30
0.0
 11
-12.61321904245626
 21
-10.83550848392538
 31
0.0
  0
LINE
  5
2DD
330
52
100
AcDbEntity
  8
DRAWING
  6
Continuous
 62
     5
370
    15
390
1D
100
AcDbLine
 10
-13.9714858141098
 20
-9.493280128763933
 30
0.0
 11
-13.9714858141098
 21
-10.12684848392538
 31
0.0
  0
LINE
  5
2DE
330
52
100
AcDbEntity
  8
DRAWING
  6
Continuous
 62
     5
370
    15
390
1D
100
AcDbLine
 10
-13.9714858141098
 20
-11.54416848392538
 30
0.0
 11
-13.9714858141098
 21
-12.17773683908683
 31
0.0
  0
ENDBLK
  5
2DF
330
52
100
AcDbEntity
  8
Dimension
390
1D
100
AcDbBlockEnd
  0
BLOCK
  5
2E0
330
53
100
AcDbEntity
  8
Dimension
390
1D
100
AcDbBlockBegin
  2
*D49
 70
     1
 10
0.0
 20
0.0
 30
0.0
  3
*D49
  1

  0
LINE
  5
2E1
330
53
100
AcDbEntity
  8
Dimension
  6
Continuous
 62
     0
370
    -2
390
1D
100
AcDbLine
 10
0.2755905511811019
 20
1.229921259842522
 30
0.0
 11
0.2755905511811019
 21
2.163779527559056
 31
0.0
  0
LINE
  5
2E2
330
53
100
AcDbEntity
  8
Dimension
  6
Continuous
 62
     0
370
    -2
390
1D
100
AcDbLine
 10
-0.2755905511811036
 20
1.22992125984252
 30
0.0
 11
-0.2755905511811036
 21
2.163779527559056
 31
0.0
  0
LINE
  5
2E3
330
53
100
AcDbEntity
  8
Dimension
  6
Continuous
 62
     0
370
    -2
390
1D
100
AcDbLine
 10
-0.2755905511811036
 20
1.848818897637795
 30
0.0
 11
0.2755905511811019
 21
1.848818897637795
 31
0.0
  0
LINE
  5
2E4
330
53
100
AcDbEntity
  8
Dimension
  6
Continuous
 62
     0
370
    -2
390
1D
100
AcDbLine
 10
0.2755905511811019
 20
1.848818897637795
 30
0.0
 11
1.377950551181101
 21
1.848818897637795
 31
0.0
  0
POLYLINE
  5
2E5
102
{ACAD_REACTORS
330
2EA
102
}
330
53
100
AcDbEntity
  8
DRAWING
  6
Continuous
 62
     0
370
     5
390
1D
100
AcDb2dPolyline
 66
     1
 10
0.0
 20
0.0
 30
0.0
 70
     1
 75
     5
  0
VERTEX
  5
2E6
330
2E5
100
AcDbEntity
  8
DRAWING
  6
Continuous
 62
     0
370
     5
390
1D
100
AcDbVertex
100
AcDb2dVertex
 10
0.7755905511811019
 20
1.714844301422234
 30
0.0
  0
VERTEX
  5
2E7
330
2E5
100
AcDbEntity
  8
DRAWING
  6
Continuous
 62
     0
370
     5
390
1D
100
AcDbVertex
100
AcDb2dVertex
 10
0.2755905511811019
 20
1.848818897637795
 30
0.0
  0
VERTEX
  5
2E8
330
2E5
100
AcDbEntity
  8
DRAWING
  6
Continuous
 62
     0
370
     5
390
1D
100
AcDbVertex
100
AcDb2dVertex
 10
0.7755905511811019
 20
1.982793493853357
 30
0.0
  0
SEQEND
  5
2E9
330
2E5
100
AcDbEntity
  8
DRAWING
  6
Continuous
 62
     0
370
     5
390
1D
  0
HATCH
  5
2EA
330
53
100
AcDbEntity
  8
Dimension
  6
Continuous
 62
     0
370
     0
390
1D
100
AcDbHatch
 10
0.0
 20
0.0
 30
0.0
210
0.0
220
0.0
230
1.0
  2
SOLID
 70
     1
 71
     1
 91
        1
 92
        1
 93
        3
 72
     1
 10
0.7755905511811019
 20
1.714844301422234
 11
0.2755905511811019
 21
1.848818897637795
 72
     1
 10
0.2755905511811019
 20
1.848818897637795
 11
0.7755905511811019
 21
1.982793493853357
 72
     1
 10
0.7755905511811019
 20
1.982793493853357
 11
0.7755905511811019
 21
1.714844301422234
 97
        1
330
2E5
 75
     0
 76
     1
 98
        1
 10
0.0
 20
0.0
  0
LINE
  5
2EB
330
53
100
AcDbEntity
  8
Dimension
  6
Continuous
 62
     0
370
    -2
390
1D
100
AcDbLine
 10
-0.2755905511811036
 20
1.848818897637795
 30
0.0
 11
-1.653543307086617
 21
1.848818897637795
 31
0.0
  0
POLYLINE
  5
2EC
102
{ACAD_REACTORS
330
2F1
102
}
330
53
100
AcDbEntity
  8
DRAWING
  6
Continuous
 62
     0
370
     5
390
1D
100
AcDb2dPolyline
 66
     1
 10
0.0
 20
0.0
 30
0.0
 70
     1
 75
     5
  0
VERTEX
  5
2ED
330
2EC
100
AcDbEntity
  8
DRAWING
  6
Continuous
 62
     0
370
     5
390
1D
100
AcDbVertex
100
AcDb2dVertex
 10
-0.7755905511811019
 20
1.982793493853357
 30
0.0
  0
VERTEX
  5
2EE
330
2EC
100
AcDbEntity
  8
DRAWING
  6
Continuous
 62
     0
370
     5
390
1D
100
AcDbVertex
100
AcDb2dVertex
 10
-0.2755905511811036
 20
1.848818897637795
 30
0.0
  0
VERTEX
  5
2EF
330
2EC
100
AcDbEntity
  8
DRAWING
  6
Continuous
 62
     0
370
     5
390
1D
100
AcDbVertex
100
AcDb2dVertex
 10
-0.7755905511811019
 20
1.714844301422234
 30
0.0
  0
SEQEND
  5
2F0
330
2EC
100
AcDbEntity
  8
DRAWING
  6
Continuous
 62
     0
370
     5
390
1D
  0
HATCH
  5
2F1
330
53
100
AcDbEntity
  8
Dimension
  6
Continuous
 62
     0
370
     0
390
1D
100
AcDbHatch
 10
0.0
 20
0.0
 30
0.0
210
0.0
220
0.0
230
1.0
  2
SOLID
 70
     1
 71
     1
 91
        1
 92
        1
 93
        3
 72
     1
 10
-0.7755905511811019
 20
1.982793493853357
 11
-0.2755905511811036
 21
1.848818897637795
 72
     1
 10
-0.2755905511811036
 20
1.848818897637795
 11
-0.7755905511811019
 21
1.714844301422234
 72
     1
 10
-0.7755905511811019
 20
1.714844301422234
 11
-0.7755905511811019
 21
1.982793493853357
 97
        1
330
2EC
 75
     0
 76
     1
 98
        1
 10
0.0
 20
0.0
  0
MTEXT
  5
2F2
330
53
100
AcDbEntity
  8
Dimension
 62
     0
390
1D
100
AcDbMText
 10
-2.765739487642172
 20
2.325409536986172
 30
0.0
 40
0.3188128615705982
 41
0.0
 46
0.0
 71
     1
 72
     1
  1
.5527
  7
Helvetica
 73
     1
 44
0.8397955333929318
  0
MTEXT
  5
2F3
330
53
100
AcDbEntity
  8
Dimension
 62
     0
390
1D
100
AcDbMText
 10
-2.765739487642172
 20
1.769853981430616
 30
0.0
 40
0.3188128615705982
 41
0.0
 46
0.0
 71
     1
 72
     1
  1
.5516
  7
Helvetica
 73
     1
 44
0.8397955333929318
  0
POINT
  5
2F4
330
53
100
AcDbEntity
  8
Defpoints
 62
     0
370
     0
390
1D
100
AcDbPoint
 10
-0.2755905511811036
 20
1.029921259842519
 30
0.0
  0
POINT
  5
2F5
330
53
100
AcDbEntity
  8
Defpoints
 62
     0
370
     0
390
1D
100
AcDbPoint
 10
0.2755905511811019
 20
1.029921259842521
 30
0.0
  0
POINT
  5
2F6
330
53
100
AcDbEntity
  8
Defpoints
 62
     0
370
     0
390
1D
100
AcDbPoint
 10
0.2755905511811019
 20
1.848818897637795
 30
0.0
  0
ENDBLK
  5
2F7
330
53
100
AcDbEntity
  8
Dimension
390
1D
100
AcDbBlockEnd
  0
BLOCK
  5
2F8
330
54
100
AcDbEntity
  8
Dimension
390
1D
100
AcDbBlockBegin
  2
*D50
 70
     1
 10
0.0
 20
0.0
 30
0.0
  3
*D50
  1

  0
LINE
  5
2F9
330
54
100
AcDbEntity
  8
Dimension
  6
Continuous
 62
     0
370
    -2
390
1D
100
AcDbLine
 10
0.1999999999999993
 20
-0.8858267716535426
 30
0.0
 11
2.578740157480315
 21
-0.8858267716535426
 31
0.0
  0
LINE
  5
2FA
330
54
100
AcDbEntity
  8
Dimension
  6
Continuous
 62
     0
370
    -2
390
1D
100
AcDbLine
 10
0.4362204724409438
 20
1.023622047244098
 30
0.0
 11
2.578740157480315
 21
1.023622047244098
 31
0.0
  0
LINE
  5
2FB
330
54
100
AcDbEntity
  8
Dimension
  6
Continuous
 62
     0
370
    -2
390
1D
100
AcDbLine
 10
2.263779527559054
 20
1.023622047244098
 30
0.0
 11
2.263779527559054
 21
-0.8858267716535426
 31
0.0
  0
LINE
  5
2FC
330
54
100
AcDbEntity
  8
Dimension
  6
Continuous
 62
     0
370
    -2
390
1D
100
AcDbLine
 10
2.263779527559054
 20
-0.8858267716535426
 30
0.0
 11
2.263779527559054
 21
-1.988186771653544
 31
0.0
  0
POLYLINE
  5
2FD
102
{ACAD_REACTORS
330
302
102
}
330
54
100
AcDbEntity
  8
DRAWING
  6
Continuous
 62
     0
370
     5
390
1D
100
AcDb2dPolyline
 66
     1
 10
0.0
 20
0.0
 30
0.0
 70
     1
 75
     5
  0
VERTEX
  5
2FE
330
2FD
100
AcDbEntity
  8
DRAWING
  6
Continuous
 62
     0
370
     5
390
1D
100
AcDbVertex
100
AcDb2dVertex
 10
2.129804931343493
 20
-1.385826771653543
 30
0.0
  0
VERTEX
  5
2FF
330
2FD
100
AcDbEntity
  8
DRAWING
  6
Continuous
 62
     0
370
     5
390
1D
100
AcDbVertex
100
AcDb2dVertex
 10
2.263779527559054
 20
-0.8858267716535426
 30
0.0
  0
VERTEX
  5
300
330
2FD
100
AcDbEntity
  8
DRAWING
  6
Continuous
 62
     0
370
     5
390
1D
100
AcDbVertex
100
AcDb2dVertex
 10
2.397754123774616
 20
-1.385826771653543
 30
0.0
  0
SEQEND
  5
301
330
2FD
100
AcDbEntity
  8
DRAWING
  6
Continuous
 62
     0
370
     5
390
1D
  0
HATCH
  5
302
330
54
100
AcDbEntity
  8
Dimension
  6
Continuous
 62
     0
370
     0
390
1D
100
AcDbHatch
 10
0.0
 20
0.0
 30
0.0
210
0.0
220
0.0
230
1.0
  2
SOLID
 70
     1
 71
     1
 91
        1
 92
        1
 93
        3
 72
     1
 10
2.129804931343493
 20
-1.385826771653543
 11
2.263779527559054
 21
-0.8858267716535426
 72
     1
 10
2.263779527559054
 20
-0.8858267716535426
 11
2.397754123774616
 21
-1.385826771653543
 72
     1
 10
2.397754123774616
 20
-1.385826771653543
 11
2.129804931343493
 21
-1.385826771653543
 97
        1
330
2FD
 75
     0
 76
     1
 98
        1
 10
0.0
 20
0.0
  0
LINE
  5
303
330
54
100
AcDbEntity
  8
Dimension
  6
Continuous
 62
     0
370
    -2
390
1D
100
AcDbLine
 10
2.263779527559054
 20
1.023622047244098
 30
0.0
 11
2.263779527559054
 21
2.125982047244097
 31
0.0
  0
POLYLINE
  5
304
102
{ACAD_REACTORS
330
309
102
}
330
54
100
AcDbEntity
  8
DRAWING
  6
Continuous
 62
     0
370
     5
390
1D
100
AcDb2dPolyline
 66
     1
 10
0.0
 20
0.0
 30
0.0
 70
     1
 75
     5
  0
VERTEX
  5
305
330
304
100
AcDbEntity
  8
DRAWING
  6
Continuous
 62
     0
370
     5
390
1D
100
AcDbVertex
100
AcDb2dVertex
 10
2.397754123774616
 20
1.523622047244096
 30
0.0
  0
VERTEX
  5
306
330
304
100
AcDbEntity
  8
DRAWING
  6
Continuous
 62
     0
370
     5
390
1D
100
AcDbVertex
100
AcDb2dVertex
 10
2.263779527559054
 20
1.023622047244098
 30
0.0
  0
VERTEX
  5
307
330
304
100
AcDbEntity
  8
DRAWING
  6
Continuous
 62
     0
370
     5
390
1D
100
AcDbVertex
100
AcDb2dVertex
 10
2.129804931343493
 20
1.523622047244096
 30
0.0
  0
SEQEND
  5
308
330
304
100
AcDbEntity
  8
DRAWING
  6
Continuous
 62
     0
370
     5
390
1D
  0
HATCH
  5
309
330
54
100
AcDbEntity
  8
Dimension
  6
Continuous
 62
     0
370
     0
390
1D
100
AcDbHatch
 10
0.0
 20
0.0
 30
0.0
210
0.0
220
0.0
230
1.0
  2
SOLID
 70
     1
 71
     1
 91
        1
 92
        1
 93
        3
 72
     1
 10
2.397754123774616
 20
1.523622047244096
 11
2.263779527559054
 21
1.023622047244098
 72
     1
 10
2.263779527559054
 20
1.023622047244098
 11
2.129804931343493
 21
1.523622047244096
 72
     1
 10
2.129804931343493
 20
1.523622047244096
 11
2.397754123774616
 21
1.523622047244096
 97
        1
330
304
 75
     0
 76
     1
 98
        1
 10
0.0
 20
0.0
  0
MTEXT
  5
30A
330
54
100
AcDbEntity
  8
Dimension
 62
     0
390
1D
100
AcDbMText
 10
1.707681437281277
 20
0.5454882771436527
 30
0.0
 40
0.3188128615705982
 41
0.0
 46
0.0
 71
     1
 72
     1
  1
1.929
  7
Helvetica
 73
     1
 44
0.8397955333929318
  0
MTEXT
  5
30B
330
54
100
AcDbEntity
  8
Dimension
 62
     0
390
1D
100
AcDbMText
 10
1.707681437281277
 20
-0.0100672784119027
 30
0.0
 40
0.3188128615705982
 41
0.0
 46
0.0
 71
     1
 72
     1
  1
1.909
  7
Helvetica
 73
     1
 44
0.8397955333929318
  0
POINT
  5
30C
330
54
100
AcDbEntity
  8
Defpoints
 62
     0
370
     0
390
1D
100
AcDbPoint
 10
0.2362204724409445
 20
1.023622047244098
 30
0.0
  0
POINT
  5
30D
330
54
100
AcDbEntity
  8
Defpoints
 62
     0
370
     0
390
1D
100
AcDbPoint
 10
0.0
 20
-0.8858267716535426
 30
0.0
  0
POINT
  5
30E
330
54
100
AcDbEntity
  8
Defpoints
 62
     0
370
     0
390
1D
100
AcDbPoint
 10
2.263779527559054
 20
-0.8858267716535426
 30
0.0
  0
ENDBLK
  5
30F
330
54
100
AcDbEntity
  8
Dimension
390
1D
100
AcDbBlockEnd
  0
BLOCK
  5
310
330
55
100
AcDbEntity
  8
Dimension
390
1D
100
AcDbBlockBegin
  2
*D51
 70
     1
 10
0.0
 20
0.0
 30
0.0
  3
*D51
  1

  0
LINE
  5
311
330
55
100
AcDbEntity
  8
Dimension
  6
Continuous
 62
     0
370
    -2
390
1D
100
AcDbLine
 10
-0.6093289730051499
 20
-0.6429675513077076
 30
0.0
 11
-1.537185476000671
 21
-1.622047244094487
 31
0.0
  0
POLYLINE
  5
312
102
{ACAD_REACTORS
330
317
102
}
330
55
100
AcDbEntity
  8
DRAWING
  6
Continuous
 62
     0
370
     5
390
1D
100
AcDb2dPolyline
 66
     1
 10
0.0
 20
0.0
 30
0.0
 70
     1
 75
     5
  0
VERTEX
  5
313
330
312
100
AcDbEntity
  8
DRAWING
  6
Continuous
 62
     0
370
     5
390
1D
100
AcDbVertex
100
AcDb2dVertex
 10
-1.048310969901584
 20
-0.9172739472082441
 30
0.0
  0
VERTEX
  5
314
330
312
100
AcDbEntity
  8
DRAWING
  6
Continuous
 62
     0
370
     5
390
1D
100
AcDbVertex
100
AcDb2dVertex
 10
-0.6093289730051499
 20
-0.6429675513077076
 30
0.0
  0
VERTEX
  5
315
330
312
100
AcDbEntity
  8
DRAWING
  6
Continuous
 62
     0
370
     5
390
1D
100
AcDbVertex
100
AcDb2dVertex
 10
-0.852345336171215
 20
-1.100014857026339
 30
0.0
  0
SEQEND
  5
316
330
312
100
AcDbEntity
  8
DRAWING
  6
Continuous
 62
     0
370
     5
390
1D
  0
HATCH
  5
317
330
55
100
AcDbEntity
  8
Dimension
  6
Continuous
 62
     0
370
     0
390
1D
100
AcDbHatch
 10
0.0
 20
0.0
 30
0.0
210
0.0
220
0.0
230
1.0
  2
SOLID
 70
     1
 71
     1
 91
        1
 92
        1
 93
        3
 72
     1
 10
-1.048310969901584
 20
-0.9172739472082441
 11
-0.6093289730051499
 21
-0.6429675513077076
 72
     1
 10
-0.6093289730051499
 20
-0.6429675513077076
 11
-0.852345336171215
 21
-1.100014857026339
 72
     1
 10
-0.852345336171215
 20
-1.100014857026339
 11
-1.048310969901584
 21
-0.9172739472082441
 97
        1
330
312
 75
     0
 76
     1
 98
        1
 10
0.0
 20
0.0
  0
LINE
  5
318
330
55
100
AcDbEntity
  8
Dimension
  6
Continuous
 62
     0
370
    -2
390
1D
100
AcDbLine
 10
-1.537185476000671
 20
-1.622047244094487
 30
0.0
 11
-2.48206547600067
 21
-1.622047244094487
 31
0.0
  0
MTEXT
  5
319
330
55
100
AcDbEntity
  8
Dimension
 62
     0
390
1D
100
AcDbMText
 10
-4.063445684334003
 20
-1.534345493635
 30
0.0
 40
0.318812861570598
 41
0.0
 46
0.0
 71
     1
 72
     1
  1
Ø 
  7
Helvetica
 73
     1
 44
0.8397955333929318
  0
MTEXT
  5
31A
330
55
100
AcDbEntity
  8
Dimension
 62
     0
390
1D
100
AcDbMText
 10
-3.594261656556224
 20
-1.145456604746112
 30
0.0
 40
0.318812861570598
 41
0.0
 46
0.0
 71
     1
 72
     1
  1
1.773
  7
Helvetica
 73
     1
 44
0.8397955333929318
  0
MTEXT
  5
31B
330
55
100
AcDbEntity
  8
Dimension
 62
     0
390
1D
100
AcDbMText
 10
-3.594261656556224
 20
-1.701012160301667
 30
0.0
 40
0.318812861570598
 41
0.0
 46
0.0
 71
     1
 72
     1
  1
1.772
  7
Helvetica
 73
     1
 44
0.8397955333929318
  0
POINT
  5
31C
330
55
100
AcDbEntity
  8
Defpoints
 62
     0
370
     0
390
1D
100
AcDbPoint
 10
0.6093289730051445
 20
0.6429675513077076
 30
0.0
  0
POINT
  5
31D
330
55
100
AcDbEntity
  8
Defpoints
 62
     0
370
     0
390
1D
100
AcDbPoint
 10
-0.6093289730051499
 20
-0.6429675513077076
 30
0.0
  0
ENDBLK
  5
31E
330
55
100
AcDbEntity
  8
Dimension
390
1D
100
AcDbBlockEnd
  0
BLOCK
  5
31F
330
56
100
AcDbEntity
  8
DRAWING
390
1D
100
AcDbBlockBegin
  2
Group-30
 70
     0
 10
0.0
 20
0.0
 30
0.0
  3
Group-30
  1

  0
CIRCLE
  5
320
330
56
100
AcDbEntity
  8
PLB-Tw~
  6
Continuous
 62
   148
370
    30
390
1D
100
AcDbCircle
 10
-13.99561663141603
 20
6.271058547375651
 30
0.0
 40
0.3149606299212598
  0
POLYLINE
  5
321
330
56
100
AcDbEntity
  8
PLB-Tw~
  6
Continuous
 62
   148
370
    30
390
1D
100
AcDb2dPolyline
 66
     1
 10
0.0
 20
0.0
 30
0.0
 70
     1
 75
     5
  0
VERTEX
  5
322
330
321
100
AcDbEntity
  8
PLB-Tw~
  6
Continuous
 62
   148
370
    30
390
1D
100
AcDbVertex
100
AcDb2dVertex
 10
-13.99561663141603
 20
6.171063459891521
 30
0.0
  0
VERTEX
  5
323
330
321
100
AcDbEntity
  8
PLB-Tw~
  6
Continuous
 62
   148
370
    30
390
1D
100
AcDbVertex
100
AcDb2dVertex
 10
-13.90901834540112
 20
6.221061003633586
 30
0.0
  0
VERTEX
  5
324
330
321
100
AcDbEntity
  8
PLB-Tw~
  6
Continuous
 62
   148
370
    30
390
1D
100
AcDbVertex
100
AcDb2dVertex
 10
-13.90901834540112
 20
6.321056091117717
 30
0.0
  0
VERTEX
  5
325
330
321
100
AcDbEntity
  8
PLB-Tw~
  6
Continuous
 62
   148
370
    30
390
1D
100
AcDbVertex
100
AcDb2dVertex
 10
-13.99561663141603
 20
6.371053634859782
 30
0.0
  0
VERTEX
  5
326
330
321
100
AcDbEntity
  8
PLB-Tw~
  6
Continuous
 62
   148
370
    30
390
1D
100
AcDbVertex
100
AcDb2dVertex
 10
-14.08221491743093
 20
6.321056091117717
 30
0.0
  0
VERTEX
  5
327
330
321
100
AcDbEntity
  8
PLB-Tw~
  6
Continuous
 62
   148
370
    30
390
1D
100
AcDbVertex
100
AcDb2dVertex
 10
-14.08221491743093
 20
6.221061003633586
 30
0.0
  0
SEQEND
  5
328
330
321
100
AcDbEntity
  8
PLB-Tw~
  6
Continuous
 62
   148
370
    30
390
1D
  0
ENDBLK
  5
32A
330
56
100
AcDbEntity
  8
DRAWING
390
1D
100
AcDbBlockEnd
  0
BLOCK
  5
32B
330
57
100
AcDbEntity
  8
DRAWING
390
1D
100
AcDbBlockBegin
  2
Group-31
 70
     0
 10
0.0
 20
0.0
 30
0.0
  3
Group-31
  1

  0
CIRCLE
  5
32C
330
57
100
AcDbEntity
  8
PLB-Tw~
  6
Continuous
 62
   148
370
    30
390
1D
100
AcDbCircle
 10
-17.91659779028258
 20
4.007279019816598
 30
0.0
 40
0.3149606299212586
  0
POLYLINE
  5
32D
330
57
100
AcDbEntity
  8
PLB-Tw~
  6
Continuous
 62
   148
370
    30
390
1D
100
AcDb2dPolyline
 66
     1
 10
0.0
 20
0.0
 30
0.0
 70
     1
 75
     5
  0
VERTEX
  5
32E
330
32D
100
AcDbEntity
  8
PLB-Tw~
  6
Continuous
 62
   148
370
    30
390
1D
100
AcDbVertex
100
AcDb2dVertex
 10
-17.82999950426767
 20
3.957281476074532
 30
0.0
  0
VERTEX
  5
32F
330
32D
100
AcDbEntity
  8
PLB-Tw~
  6
Continuous
 62
   148
370
    30
390
1D
100
AcDbVertex
100
AcDb2dVertex
 10
-17.82999950426767
 20
4.057276563558664
 30
0.0
  0
VERTEX
  5
330
330
32D
100
AcDbEntity
  8
PLB-Tw~
  6
Continuous
 62
   148
370
    30
390
1D
100
AcDbVertex
100
AcDb2dVertex
 10
-17.91659779028258
 20
4.10727410730073
 30
0.0
  0
VERTEX
  5
331
330
32D
100
AcDbEntity
  8
PLB-Tw~
  6
Continuous
 62
   148
370
    30
390
1D
100
AcDbVertex
100
AcDb2dVertex
 10
-18.00319607629748
 20
4.057276563558663
 30
0.0
  0
VERTEX
  5
332
330
32D
100
AcDbEntity
  8
PLB-Tw~
  6
Continuous
 62
   148
370
    30
390
1D
100
AcDbVertex
100
AcDb2dVertex
 10
-18.00319607629748
 20
3.95728147607453
 30
0.0
  0
VERTEX
  5
333
330
32D
100
AcDbEntity
  8
PLB-Tw~
  6
Continuous
 62
   148
370
    30
390
1D
100
AcDbVertex
100
AcDb2dVertex
 10
-17.91659779028258
 20
3.907283932332463
 30
0.0
  0
SEQEND
  5
334
330
32D
100
AcDbEntity
  8
PLB-Tw~
  6
Continuous
 62
   148
370
    30
390
1D
  0
ENDBLK
  5
336
330
57
100
AcDbEntity
  8
DRAWING
390
1D
100
AcDbBlockEnd
  0
BLOCK
  5
337
330
58
100
AcDbEntity
  8
DRAWING
390
1D
100
AcDbBlockBegin
  2
Group-32
 70
     0
 10
0.0
 20
0.0
 30
0.0
  3
Group-32
  1

  0
CIRCLE
  5
338
330
58
100
AcDbEntity
  8
PLB-Tw~
  6
Continuous
 62
   148
370
    30
390
1D
100
AcDbCircle
 10
-17.91659779028258
 20
-0.52028003530151
 30
0.0
 40
0.3149606299212605
  0
POLYLINE
  5
339
330
58
100
AcDbEntity
  8
PLB-Tw~
  6
Continuous
 62
   148
370
    30
390
1D
100
AcDb2dPolyline
 66
     1
 10
0.0
 20
0.0
 30
0.0
 70
     1
 75
     5
  0
VERTEX
  5
33A
330
339
100
AcDbEntity
  8
PLB-Tw~
  6
Continuous
 62
   148
370
    30
390
1D
100
AcDbVertex
100
AcDb2dVertex
 10
-17.82999950426768
 20
-0.470282491559444
 30
0.0
  0
VERTEX
  5
33B
330
339
100
AcDbEntity
  8
PLB-Tw~
  6
Continuous
 62
   148
370
    30
390
1D
100
AcDbVertex
100
AcDb2dVertex
 10
-17.91659779028258
 20
-0.420284947817378
 30
0.0
  0
VERTEX
  5
33C
330
339
100
AcDbEntity
  8
PLB-Tw~
  6
Continuous
 62
   148
370
    30
390
1D
100
AcDbVertex
100
AcDb2dVertex
 10
-18.00319607629748
 20
-0.470282491559444
 30
0.0
  0
VERTEX
  5
33D
330
339
100
AcDbEntity
  8
PLB-Tw~
  6
Continuous
 62
   148
370
    30
390
1D
100
AcDbVertex
100
AcDb2dVertex
 10
-18.00319607629748
 20
-0.5702775790435738
 30
0.0
  0
VERTEX
  5
33E
330
339
100
AcDbEntity
  8
PLB-Tw~
  6
Continuous
 62
   148
370
    30
390
1D
100
AcDbVertex
100
AcDb2dVertex
 10
-17.91659779028258
 20
-0.620275122785642
 30
0.0
  0
VERTEX
  5
33F
330
339
100
AcDbEntity
  8
PLB-Tw~
  6
Continuous
 62
   148
370
    30
390
1D
100
AcDbVertex
100
AcDb2dVertex
 10
-17.82999950426768
 20
-0.570277579043576
 30
0.0
  0
SEQEND
  5
340
330
339
100
AcDbEntity
  8
PLB-Tw~
  6
Continuous
 62
   148
370
    30
390
1D
  0
ENDBLK
  5
342
330
58
100
AcDbEntity
  8
DRAWING
390
1D
100
AcDbBlockEnd
  0
BLOCK
  5
343
330
59
100
AcDbEntity
  8
DRAWING
390
1D
100
AcDbBlockBegin
  2
Group-33
 70
     0
 10
0.0
 20
0.0
 30
0.0
  3
Group-33
  1

  0
CIRCLE
  5
344
330
59
100
AcDbEntity
  8
PLB-Tw~
  6
Continuous
 62
   148
370
    30
390
1D
100
AcDbCircle
 10
-13.99561663141603
 20
-2.784059562860565
 30
0.0
 40
0.3149606299212598
  0
POLYLINE
  5
345
330
59
100
AcDbEntity
  8
PLB-Tw~
  6
Continuous
 62
   148
370
    30
390
1D
100
AcDb2dPolyline
 66
     1
 10
0.0
 20
0.0
 30
0.0
 70
     1
 75
     5
  0
VERTEX
  5
346
330
345
100
AcDbEntity
  8
PLB-Tw~
  6
Continuous
 62
   148
370
    30
390
1D
100
AcDbVertex
100
AcDb2dVertex
 10
-13.99561663141603
 20
-2.684064475376434
 30
0.0
  0
VERTEX
  5
347
330
345
100
AcDbEntity
  8
PLB-Tw~
  6
Continuous
 62
   148
370
    30
390
1D
100
AcDbVertex
100
AcDb2dVertex
 10
-14.08221491743093
 20
-2.734062019118499
 30
0.0
  0
VERTEX
  5
348
330
345
100
AcDbEntity
  8
PLB-Tw~
  6
Continuous
 62
   148
370
    30
390
1D
100
AcDbVertex
100
AcDb2dVertex
 10
-14.08221491743093
 20
-2.834057106602631
 30
0.0
  0
VERTEX
  5
349
330
345
100
AcDbEntity
  8
PLB-Tw~
  6
Continuous
 62
   148
370
    30
390
1D
100
AcDbVertex
100
AcDb2dVertex
 10
-13.99561663141603
 20
-2.884054650344696
 30
0.0
  0
VERTEX
  5
34A
330
345
100
AcDbEntity
  8
PLB-Tw~
  6
Continuous
 62
   148
370
    30
390
1D
100
AcDbVertex
100
AcDb2dVertex
 10
-13.90901834540112
 20
-2.834057106602631
 30
0.0
  0
VERTEX
  5
34B
330
345
100
AcDbEntity
  8
PLB-Tw~
  6
Continuous
 62
   148
370
    30
390
1D
100
AcDbVertex
100
AcDb2dVertex
 10
-13.90901834540112
 20
-2.734062019118499
 30
0.0
  0
SEQEND
  5
34C
330
345
100
AcDbEntity
  8
PLB-Tw~
  6
Continuous
 62
   148
370
    30
390
1D
  0
ENDBLK
  5
34E
330
59
100
AcDbEntity
  8
DRAWING
390
1D
100
AcDbBlockEnd
  0
BLOCK
  5
34F
330
5A
100
AcDbEntity
  8
DRAWING
390
1D
100
AcDbBlockBegin
  2
Group-34
 70
     0
 10
0.0
 20
0.0
 30
0.0
  3
Group-34
  1

  0
CIRCLE
  5
350
330
5A
100
AcDbEntity
  8
PLB-Tw~
  6
Continuous
 62
   148
370
    30
390
1D
100
AcDbCircle
 10
-10.07463547254948
 20
-0.5202800353015133
 30
0.0
 40
0.3149606299212605
  0
POLYLINE
  5
351
330
5A
100
AcDbEntity
  8
PLB-Tw~
  6
Continuous
 62
   148
370
    30
390
1D
100
AcDb2dPolyline
 66
     1
 10
0.0
 20
0.0
 30
0.0
 70
     1
 75
     5
  0
VERTEX
  5
352
330
351
100
AcDbEntity
  8
PLB-Tw~
  6
Continuous
 62
   148
370
    30
390
1D
100
AcDbVertex
100
AcDb2dVertex
 10
-10.16123375856438
 20
-0.4702824915594474
 30
0.0
  0
VERTEX
  5
353
330
351
100
AcDbEntity
  8
PLB-Tw~
  6
Continuous
 62
   148
370
    30
390
1D
100
AcDbVertex
100
AcDb2dVertex
 10
-10.16123375856438
 20
-0.5702775790435793
 30
0.0
  0
VERTEX
  5
354
330
351
100
AcDbEntity
  8
PLB-Tw~
  6
Continuous
 62
   148
370
    30
390
1D
100
AcDbVertex
100
AcDb2dVertex
 10
-10.07463547254948
 20
-0.6202751227856454
 30
0.0
  0
VERTEX
  5
355
330
351
100
AcDbEntity
  8
PLB-Tw~
  6
Continuous
 62
   148
370
    30
390
1D
100
AcDbVertex
100
AcDb2dVertex
 10
-9.988037186534575
 20
-0.5702775790435782
 30
0.0
  0
VERTEX
  5
356
330
351
100
AcDbEntity
  8
PLB-Tw~
  6
Continuous
 62
   148
370
    30
390
1D
100
AcDbVertex
100
AcDb2dVertex
 10
-9.988037186534571
 20
-0.4702824915594474
 30
0.0
  0
VERTEX
  5
357
330
351
100
AcDbEntity
  8
PLB-Tw~
  6
Continuous
 62
   148
370
    30
390
1D
100
AcDbVertex
100
AcDb2dVertex
 10
-10.07463547254948
 20
-0.4202849478173814
 30
0.0
  0
SEQEND
  5
358
330
351
100
AcDbEntity
  8
PLB-Tw~
  6
Continuous
 62
   148
370
    30
390
1D
  0
ENDBLK
  5
35A
330
5A
100
AcDbEntity
  8
DRAWING
390
1D
100
AcDbBlockEnd
  0
BLOCK
  5
35B
330
5B
100
AcDbEntity
  8
DRAWING
390
1D
100
AcDbBlockBegin
  2
Group-35
 70
     0
 10
0.0
 20
0.0
 30
0.0
  3
Group-35
  1

  0
CIRCLE
  5
35C
330
5B
100
AcDbEntity
  8
PLB-Tw~
  6
Continuous
 62
   148
370
    30
390
1D
100
AcDbCircle
 10
-10.07463547254948
 20
4.007279019816597
 30
0.0
 40
0.3149606299212586
  0
POLYLINE
  5
35D
330
5B
100
AcDbEntity
  8
PLB-Tw~
  6
Continuous
 62
   148
370
    30
390
1D
100
AcDb2dPolyline
 66
     1
 10
0.0
 20
0.0
 30
0.0
 70
     1
 75
     5
  0
VERTEX
  5
35E
330
35D
100
AcDbEntity
  8
PLB-Tw~
  6
Continuous
 62
   148
370
    30
390
1D
100
AcDbVertex
100
AcDb2dVertex
 10
-10.16123375856438
 20
3.957281476074531
 30
0.0
  0
VERTEX
  5
35F
330
35D
100
AcDbEntity
  8
PLB-Tw~
  6
Continuous
 62
   148
370
    30
390
1D
100
AcDbVertex
100
AcDb2dVertex
 10
-10.07463547254948
 20
3.907283932332465
 30
0.0
  0
VERTEX
  5
360
330
35D
100
AcDbEntity
  8
PLB-Tw~
  6
Continuous
 62
   148
370
    30
390
1D
100
AcDbVertex
100
AcDb2dVertex
 10
-9.988037186534571
 20
3.957281476074531
 30
0.0
  0
VERTEX
  5
361
330
35D
100
AcDbEntity
  8
PLB-Tw~
  6
Continuous
 62
   148
370
    30
390
1D
100
AcDbVertex
100
AcDb2dVertex
 10
-9.988037186534571
 20
4.057276563558661
 30
0.0
  0
VERTEX
  5
362
330
35D
100
AcDbEntity
  8
PLB-Tw~
  6
Continuous
 62
   148
370
    30
390
1D
100
AcDbVertex
100
AcDb2dVertex
 10
-10.07463547254948
 20
4.10727410730073
 30
0.0
  0
VERTEX
  5
363
330
35D
100
AcDbEntity
  8
PLB-Tw~
  6
Continuous
 62
   148
370
    30
390
1D
100
AcDbVertex
100
AcDb2dVertex
 10
-10.16123375856438
 20
4.057276563558663
 30
0.0
  0
SEQEND
  5
364
330
35D
100
AcDbEntity
  8
PLB-Tw~
  6
Continuous
 62
   148
370
    30
390
1D
  0
ENDBLK
  5
366
330
5B
100
AcDbEntity
  8
DRAWING
390
1D
100
AcDbBlockEnd
  0
BLOCK
  5
367
330
5C
100
AcDbEntity
  8
DRAWING
390
1D
100
AcDbBlockBegin
  2
Group-36
 70
     0
 10
0.0
 20
0.0
 30
0.0
  3
Group-36
  1

  0
CIRCLE
  5
368
330
5C
100
AcDbEntity
  8
PLB-Tw~
  6
Continuous
 62
   148
370
    30
390
1D
100
AcDbCircle
 10
12.46552205990594
 20
6.271058547375651
 30
0.0
 40
0.3149606299212598
  0
POLYLINE
  5
369
330
5C
100
AcDbEntity
  8
PLB-Tw~
  6
Continuous
 62
   148
370
    30
390
1D
100
AcDb2dPolyline
 66
     1
 10
0.0
 20
0.0
 30
0.0
 70
     1
 75
     5
  0
VERTEX
  5
36A
330
369
100
AcDbEntity
  8
PLB-Tw~
  6
Continuous
 62
   148
370
    30
390
1D
100
AcDbVertex
100
AcDb2dVertex
 10
12.46552205990594
 20
6.171063459891521
 30
0.0
  0
VERTEX
  5
36B
330
369
100
AcDbEntity
  8
PLB-Tw~
  6
Continuous
 62
   148
370
    30
390
1D
100
AcDbVertex
100
AcDb2dVertex
 10
12.55212034592085
 20
6.221061003633586
 30
0.0
  0
VERTEX
  5
36C
330
369
100
AcDbEntity
  8
PLB-Tw~
  6
Continuous
 62
   148
370
    30
390
1D
100
AcDbVertex
100
AcDb2dVertex
 10
12.55212034592085
 20
6.321056091117717
 30
0.0
  0
VERTEX
  5
36D
330
369
100
AcDbEntity
  8
PLB-Tw~
  6
Continuous
 62
   148
370
    30
390
1D
100
AcDbVertex
100
AcDb2dVertex
 10
12.46552205990594
 20
6.371053634859782
 30
0.0
  0
VERTEX
  5
36E
330
369
100
AcDbEntity
  8
PLB-Tw~
  6
Continuous
 62
   148
370
    30
390
1D
100
AcDbVertex
100
AcDb2dVertex
 10
12.37892377389104
 20
6.321056091117717
 30
0.0
  0
VERTEX
  5
36F
330
369
100
AcDbEntity
  8
PLB-Tw~
  6
Continuous
 62
   148
370
    30
390
1D
100
AcDbVertex
100
AcDb2dVertex
 10
12.37892377389104
 20
6.221061003633586
 30
0.0
  0
SEQEND
  5
370
330
369
100
AcDbEntity
  8
PLB-Tw~
  6
Continuous
 62
   148
370
    30
390
1D
  0
ENDBLK
  5
372
330
5C
100
AcDbEntity
  8
DRAWING
390
1D
100
AcDbBlockEnd
  0
BLOCK
  5
373
330
5D
100
AcDbEntity
  8
DRAWING
390
1D
100
AcDbBlockBegin
  2
Group-37
 70
     0
 10
0.0
 20
0.0
 30
0.0
  3
Group-37
  1

  0
CIRCLE
  5
374
330
5D
100
AcDbEntity
  8
PLB-Tw~
  6
Continuous
 62
   148
370
    30
390
1D
100
AcDbCircle
 10
8.544540901039396
 20
4.007279019816598
 30
0.0
 40
0.3149606299212586
  0
POLYLINE
  5
375
330
5D
100
AcDbEntity
  8
PLB-Tw~
  6
Continuous
 62
   148
370
    30
390
1D
100
AcDb2dPolyline
 66
     1
 10
0.0
 20
0.0
 30
0.0
 70
     1
 75
     5
  0
VERTEX
  5
376
330
375
100
AcDbEntity
  8
PLB-Tw~
  6
Continuous
 62
   148
370
    30
390
1D
100
AcDbVertex
100
AcDb2dVertex
 10
8.631139187054304
 20
3.957281476074532
 30
0.0
  0
VERTEX
  5
377
330
375
100
AcDbEntity
  8
PLB-Tw~
  6
Continuous
 62
   148
370
    30
390
1D
100
AcDbVertex
100
AcDb2dVertex
 10
8.631139187054304
 20
4.057276563558664
 30
0.0
  0
VERTEX
  5
378
330
375
100
AcDbEntity
  8
PLB-Tw~
  6
Continuous
 62
   148
370
    30
390
1D
100
AcDbVertex
100
AcDb2dVertex
 10
8.544540901039396
 20
4.10727410730073
 30
0.0
  0
VERTEX
  5
379
330
375
100
AcDbEntity
  8
PLB-Tw~
  6
Continuous
 62
   148
370
    30
390
1D
100
AcDbVertex
100
AcDb2dVertex
 10
8.457942615024487
 20
4.057276563558663
 30
0.0
  0
VERTEX
  5
37A
330
375
100
AcDbEntity
  8
PLB-Tw~
  6
Continuous
 62
   148
370
    30
390
1D
100
AcDbVertex
100
AcDb2dVertex
 10
8.457942615024487
 20
3.95728147607453
 30
0.0
  0
VERTEX
  5
37B
330
375
100
AcDbEntity
  8
PLB-Tw~
  6
Continuous
 62
   148
370
    30
390
1D
100
AcDbVertex
100
AcDb2dVertex
 10
8.544540901039396
 20
3.907283932332463
 30
0.0
  0
SEQEND
  5
37C
330
375
100
AcDbEntity
  8
PLB-Tw~
  6
Continuous
 62
   148
370
    30
390
1D
  0
ENDBLK
  5
37E
330
5D
100
AcDbEntity
  8
DRAWING
390
1D
100
AcDbBlockEnd
  0
BLOCK
  5
37F
330
5E
100
AcDbEntity
  8
DRAWING
390
1D
100
AcDbBlockBegin
  2
Group-38
 70
     0
 10
0.0
 20
0.0
 30
0.0
  3
Group-38
  1

  0
CIRCLE
  5
380
330
5E
100
AcDbEntity
  8
PLB-Tw~
  6
Continuous
 62
   148
370
    30
390
1D
100
AcDbCircle
 10
8.544540901039392
 20
-0.52028003530151
 30
0.0
 40
0.3149606299212605
  0
POLYLINE
  5
381
330
5E
100
AcDbEntity
  8
PLB-Tw~
  6
Continuous
 62
   148
370
    30
390
1D
100
AcDb2dPolyline
 66
     1
 10
0.0
 20
0.0
 30
0.0
 70
     1
 75
     5
  0
VERTEX
  5
382
330
381
100
AcDbEntity
  8
PLB-Tw~
  6
Continuous
 62
   148
370
    30
390
1D
100
AcDbVertex
100
AcDb2dVertex
 10
8.631139187054295
 20
-0.470282491559444
 30
0.0
  0
VERTEX
  5
383
330
381
100
AcDbEntity
  8
PLB-Tw~
  6
Continuous
 62
   148
370
    30
390
1D
100
AcDbVertex
100
AcDb2dVertex
 10
8.544540901039392
 20
-0.420284947817378
 30
0.0
  0
VERTEX
  5
384
330
381
100
AcDbEntity
  8
PLB-Tw~
  6
Continuous
 62
   148
370
    30
390
1D
100
AcDbVertex
100
AcDb2dVertex
 10
8.457942615024487
 20
-0.470282491559444
 30
0.0
  0
VERTEX
  5
385
330
381
100
AcDbEntity
  8
PLB-Tw~
  6
Continuous
 62
   148
370
    30
390
1D
100
AcDbVertex
100
AcDb2dVertex
 10
8.457942615024487
 20
-0.5702775790435738
 30
0.0
  0
VERTEX
  5
386
330
381
100
AcDbEntity
  8
PLB-Tw~
  6
Continuous
 62
   148
370
    30
390
1D
100
AcDbVertex
100
AcDb2dVertex
 10
8.544540901039392
 20
-0.620275122785642
 30
0.0
  0
VERTEX
  5
387
330
381
100
AcDbEntity
  8
PLB-Tw~
  6
Continuous
 62
   148
370
    30
390
1D
100
AcDbVertex
100
AcDb2dVertex
 10
8.6311391870543
 20
-0.570277579043576
 30
0.0
  0
SEQEND
  5
388
330
381
100
AcDbEntity
  8
PLB-Tw~
  6
Continuous
 62
   148
370
    30
390
1D
  0
ENDBLK
  5
38A
330
5E
100
AcDbEntity
  8
DRAWING
390
1D
100
AcDbBlockEnd
  0
BLOCK
  5
38B
330
5F
100
AcDbEntity
  8
DRAWING
390
1D
100
AcDbBlockBegin
  2
Group-39
 70
     0
 10
0.0
 20
0.0
 30
0.0
  3
Group-39
  1

  0
CIRCLE
  5
38C
330
5F
100
AcDbEntity
  8
PLB-Tw~
  6
Continuous
 62
   148
370
    30
390
1D
100
AcDbCircle
 10
12.46552205990594
 20
-2.784059562860565
 30
0.0
 40
0.3149606299212598
  0
POLYLINE
  5
38D
330
5F
100
AcDbEntity
  8
PLB-Tw~
  6
Continuous
 62
   148
370
    30
390
1D
100
AcDb2dPolyline
 66
     1
 10
0.0
 20
0.0
 30
0.0
 70
     1
 75
     5
  0
VERTEX
  5
38E
330
38D
100
AcDbEntity
  8
PLB-Tw~
  6
Continuous
 62
   148
370
    30
390
1D
100
AcDbVertex
100
AcDb2dVertex
 10
12.46552205990594
 20
-2.684064475376434
 30
0.0
  0
VERTEX
  5
38F
330
38D
100
AcDbEntity
  8
PLB-Tw~
  6
Continuous
 62
   148
370
    30
390
1D
100
AcDbVertex
100
AcDb2dVertex
 10
12.37892377389104
 20
-2.734062019118499
 30
0.0
  0
VERTEX
  5
390
330
38D
100
AcDbEntity
  8
PLB-Tw~
  6
Continuous
 62
   148
370
    30
390
1D
100
AcDbVertex
100
AcDb2dVertex
 10
12.37892377389104
 20
-2.834057106602631
 30
0.0
  0
VERTEX
  5
391
330
38D
100
AcDbEntity
  8
PLB-Tw~
  6
Continuous
 62
   148
370
    30
390
1D
100
AcDbVertex
100
AcDb2dVertex
 10
12.46552205990594
 20
-2.884054650344696
 30
0.0
  0
VERTEX
  5
392
330
38D
100
AcDbEntity
  8
PLB-Tw~
  6
Continuous
 62
   148
370
    30
390
1D
100
AcDbVertex
100
AcDb2dVertex
 10
12.55212034592085
 20
-2.834057106602631
 30
0.0
  0
VERTEX
  5
393
330
38D
100
AcDbEntity
  8
PLB-Tw~
  6
Continuous
 62
   148
370
    30
390
1D
100
AcDbVertex
100
AcDb2dVertex
 10
12.55212034592085
 20
-2.734062019118499
 30
0.0
  0
SEQEND
  5
394
330
38D
100
AcDbEntity
  8
PLB-Tw~
  6
Continuous
 62
   148
370
    30
390
1D
  0
ENDBLK
  5
396
330
5F
100
AcDbEntity
  8
DRAWING
390
1D
100
AcDbBlockEnd
  0
BLOCK
  5
397
330
60
100
AcDbEntity
  8
DRAWING
390
1D
100
AcDbBlockBegin
  2
Group-40
 70
     0
 10
0.0
 20
0.0
 30
0.0
  3
Group-40
  1

  0
CIRCLE
  5
398
330
60
100
AcDbEntity
  8
PLB-Tw~
  6
Continuous
 62
   148
370
    30
390
1D
100
AcDbCircle
 10
16.3865032187725
 20
-0.5202800353015133
 30
0.0
 40
0.3149606299212605
  0
POLYLINE
  5
399
330
60
100
AcDbEntity
  8
PLB-Tw~
  6
Continuous
 62
   148
370
    30
390
1D
100
AcDb2dPolyline
 66
     1
 10
0.0
 20
0.0
 30
0.0
 70
     1
 75
     5
  0
VERTEX
  5
39A
330
399
100
AcDbEntity
  8
PLB-Tw~
  6
Continuous
 62
   148
370
    30
390
1D
100
AcDbVertex
100
AcDb2dVertex
 10
16.29990493275759
 20
-0.4702824915594474
 30
0.0
  0
VERTEX
  5
39B
330
399
100
AcDbEntity
  8
PLB-Tw~
  6
Continuous
 62
   148
370
    30
390
1D
100
AcDbVertex
100
AcDb2dVertex
 10
16.29990493275759
 20
-0.5702775790435793
 30
0.0
  0
VERTEX
  5
39C
330
399
100
AcDbEntity
  8
PLB-Tw~
  6
Continuous
 62
   148
370
    30
390
1D
100
AcDbVertex
100
AcDb2dVertex
 10
16.3865032187725
 20
-0.6202751227856454
 30
0.0
  0
VERTEX
  5
39D
330
399
100
AcDbEntity
  8
PLB-Tw~
  6
Continuous
 62
   148
370
    30
390
1D
100
AcDbVertex
100
AcDb2dVertex
 10
16.4731015047874
 20
-0.5702775790435782
 30
0.0
  0
VERTEX
  5
39E
330
399
100
AcDbEntity
  8
PLB-Tw~
  6
Continuous
 62
   148
370
    30
390
1D
100
AcDbVertex
100
AcDb2dVertex
 10
16.4731015047874
 20
-0.4702824915594474
 30
0.0
  0
VERTEX
  5
39F
330
399
100
AcDbEntity
  8
PLB-Tw~
  6
Continuous
 62
   148
370
    30
390
1D
100
AcDbVertex
100
AcDb2dVertex
 10
16.3865032187725
 20
-0.4202849478173814
 30
0.0
  0
SEQEND
  5
3A0
330
399
100
AcDbEntity
  8
PLB-Tw~
  6
Continuous
 62
   148
370
    30
390
1D
  0
ENDBLK
  5
3A2
330
60
100
AcDbEntity
  8
DRAWING
390
1D
100
AcDbBlockEnd
  0
BLOCK
  5
3A3
330
61
100
AcDbEntity
  8
DRAWING
390
1D
100
AcDbBlockBegin
  2
Group-41
 70
     0
 10
0.0
 20
0.0
 30
0.0
  3
Group-41
  1

  0
CIRCLE
  5
3A4
330
61
100
AcDbEntity
  8
PLB-Tw~
  6
Continuous
 62
   148
370
    30
390
1D
100
AcDbCircle
 10
16.3865032187725
 20
4.007279019816597
 30
0.0
 40
0.3149606299212586
  0
POLYLINE
  5
3A5
330
61
100
AcDbEntity
  8
PLB-Tw~
  6
Continuous
 62
   148
370
    30
390
1D
100
AcDb2dPolyline
 66
     1
 10
0.0
 20
0.0
 30
0.0
 70
     1
 75
     5
  0
VERTEX
  5
3A6
330
3A5
100
AcDbEntity
  8
PLB-Tw~
  6
Continuous
 62
   148
370
    30
390
1D
100
AcDbVertex
100
AcDb2dVertex
 10
16.29990493275759
 20
3.957281476074531
 30
0.0
  0
VERTEX
  5
3A7
330
3A5
100
AcDbEntity
  8
PLB-Tw~
  6
Continuous
 62
   148
370
    30
390
1D
100
AcDbVertex
100
AcDb2dVertex
 10
16.3865032187725
 20
3.907283932332465
 30
0.0
  0
VERTEX
  5
3A8
330
3A5
100
AcDbEntity
  8
PLB-Tw~
  6
Continuous
 62
   148
370
    30
390
1D
100
AcDbVertex
100
AcDb2dVertex
 10
16.4731015047874
 20
3.957281476074531
 30
0.0
  0
VERTEX
  5
3A9
330
3A5
100
AcDbEntity
  8
PLB-Tw~
  6
Continuous
 62
   148
370
    30
390
1D
100
AcDbVertex
100
AcDb2dVertex
 10
16.4731015047874
 20
4.057276563558661
 30
0.0
  0
VERTEX
  5
3AA
330
3A5
100
AcDbEntity
  8
PLB-Tw~
  6
Continuous
 62
   148
370
    30
390
1D
100
AcDbVertex
100
AcDb2dVertex
 10
16.3865032187725
 20
4.10727410730073
 30
0.0
  0
VERTEX
  5
3AB
330
3A5
100
AcDbEntity
  8
PLB-Tw~
  6
Continuous
 62
   148
370
    30
390
1D
100
AcDbVertex
100
AcDb2dVertex
 10
16.29990493275759
 20
4.057276563558663
 30
0.0
  0
SEQEND
  5
3AC
330
3A5
100
AcDbEntity
  8
PLB-Tw~
  6
Continuous
 62
   148
370
    30
390
1D
  0
ENDBLK
  5
3AE
330
61
100
AcDbEntity
  8
DRAWING
390
1D
100
AcDbBlockEnd
  0
BLOCK
  5
3AF
330
62
100
AcDbEntity
  8
DRAWING
390
1D
100
AcDbBlockBegin
  2
Group-42
 70
     0
 10
0.0
 20
0.0
 30
0.0
  3
Group-42
  1

  0
LINE
  5
3B0
330
62
100
AcDbEntity
  8
PLB-Tw~
  6
Continuous
 62
   148
370
    30
390
1D
100
AcDbLine
 10
-2.520408784982286
 20
8.273442256584886
 30
0.0
 11
-2.520408784982286
 21
8.629187003381084
 31
0.0
  0
LINE
  5
3B1
330
62
100
AcDbEntity
  8
PLB-Tw~
  6
Continuous
 62
   148
370
    30
390
1D
100
AcDbLine
 10
-2.579463903092522
 20
8.273442256584886
 30
0.0
 11
-2.579463903092522
 21
8.629187003381084
 31
0.0
  0
ENDBLK
  5
3B2
330
62
100
AcDbEntity
  8
DRAWING
390
1D
100
AcDbBlockEnd
  0
BLOCK
  5
3B3
330
63
100
AcDbEntity
  8
DRAWING
390
1D
100
AcDbBlockBegin
  2
Group-43
 70
     0
 10
0.0
 20
0.0
 30
0.0
  3
Group-43
  1

  0
LINE
  5
3B4
330
63
100
AcDbEntity
  8
PLB-Tw~
  6
Continuous
 62
   148
370
    30
390
1D
100
AcDbLine
 10
-2.508597761360239
 20
6.664759334777233
 30
0.0
 11
-2.508597761360239
 21
7.732091554938495
 31
0.0
  0
LINE
  5
3B5
330
63
100
AcDbEntity
  8
PLB-Tw~
  6
Continuous
 62
   148
370
    30
390
1D
100
AcDbLine
 10
-2.591274926714569
 20
7.732091554938492
 30
0.0
 11
-2.508597761360239
 21
7.732091554938495
 31
0.0
  0
LINE
  5
3B6
330
63
100
AcDbEntity
  8
PLB-Tw~
  6
Continuous
 62
   148
370
    30
390
1D
100
AcDbLine
 10
-2.591274926714569
 20
7.871296021076139
 30
0.0
 11
-2.508597761360239
 21
7.871296021076139
 31
0.0
  0
LINE
  5
3B7
330
63
100
AcDbEntity
  8
PLB-Tw~
  6
Continuous
 62
   148
370
    30
390
1D
100
AcDbLine
 10
-2.591274926714569
 20
8.273442256584886
 30
0.0
 11
-2.508597761360239
 21
8.273442256584886
 31
0.0
  0
LINE
  5
3B8
330
63
100
AcDbEntity
  8
PLB-Tw~
  6
Continuous
 62
   148
370
    30
390
1D
100
AcDbLine
 10
-2.591274926714569
 20
6.664759334777233
 30
0.0
 11
-2.591274926714569
 21
7.732091554938495
 31
0.0
  0
LINE
  5
3B9
330
63
100
AcDbEntity
  8
PLB-Tw~
  6
Continuous
 62
   148
370
    30
390
1D
100
AcDbLine
 10
-2.508597761360239
 20
7.871296021076139
 30
0.0
 11
-2.508597761360239
 21
8.273442256584886
 31
0.0
  0
LINE
  5
3BA
330
63
100
AcDbEntity
  8
PLB-Tw~
  6
Continuous
 62
   148
370
    30
390
1D
100
AcDbLine
 10
-2.591274926714569
 20
7.871296021076139
 30
0.0
 11
-2.591274926714569
 21
8.273442256584886
 31
0.0
  0
ENDBLK
  5
3BB
330
63
100
AcDbEntity
  8
DRAWING
390
1D
100
AcDbBlockEnd
  0
BLOCK
  5
3BC
330
64
100
AcDbEntity
  8
Dimension
390
1D
100
AcDbBlockBegin
  2
*D66
 70
     1
 10
0.0
 20
0.0
 30
0.0
  3
*D66
  1

  0
LINE
  5
3BD
330
64
100
AcDbEntity
  8
Dimension
  6
Continuous
 62
     0
370
    -2
390
1D
100
AcDbLine
 10
-1.746571762188111
 20
9.59565274661055
 30
0.0
 11
-3.570061604455105
 21
6.437275692718357
 31
0.0
  0
POLYLINE
  5
3BE
102
{ACAD_REACTORS
330
3C3
102
}
330
64
100
AcDbEntity
  8
DRAWING
  6
Continuous
 62
     0
370
     5
390
1D
100
AcDb2dPolyline
 66
     1
 10
0.0
 20
0.0
 30
0.0
 70
     1
 75
     5
  0
VERTEX
  5
3BF
330
3BE
100
AcDbEntity
  8
DRAWING
  6
Continuous
 62
     0
370
     5
390
1D
100
AcDbVertex
100
AcDb2dVertex
 10
-2.106153394417451
 20
9.223295066154776
 30
0.0
  0
VERTEX
  5
3C0
330
3BE
100
AcDbEntity
  8
DRAWING
  6
Continuous
 62
     0
370
     5
390
1D
100
AcDbVertex
100
AcDb2dVertex
 10
-1.746571762188111
 20
9.59565274661055
 30
0.0
  0
VERTEX
  5
3C1
330
3BE
100
AcDbEntity
  8
DRAWING
  6
Continuous
 62
     0
370
     5
390
1D
100
AcDbVertex
100
AcDb2dVertex
 10
-1.871799750205106
 20
9.09339071992693
 30
0.0
  0
SEQEND
  5
3C2
330
3BE
100
AcDbEntity
  8
DRAWING
  6
Continuous
 62
     0
370
     5
390
1D
  0
HATCH
  5
3C3
330
64
100
AcDbEntity
  8
Dimension
  6
Continuous
 62
     0
370
     0
390
1D
100
AcDbHatch
 10
0.0
 20
0.0
 30
0.0
210
0.0
220
0.0
230
1.0
  2
SOLID
 70
     1
 71
     1
 91
        1
 92
        1
 93
        3
 72
     1
 10
-2.106153394417451
 20
9.223295066154776
 11
-1.746571762188111
 21
9.59565274661055
 72
     1
 10
-1.746571762188111
 20
9.59565274661055
 11
-1.871799750205106
 21
9.09339071992693
 72
     1
 10
-1.871799750205106
 20
9.09339071992693
 11
-2.106153394417451
 21
9.223295066154776
 97
        1
330
3BE
 75
     0
 76
     1
 98
        1
 10
0.0
 20
0.0
  0
LINE
  5
3C4
330
64
100
AcDbEntity
  8
Dimension
  6
Continuous
 62
     0
370
    -2
390
1D
100
AcDbLine
 10
-3.570061604455105
 20
6.437275692718357
 30
0.0
 11
-2.625181604455104
 21
6.437275692718357
 31
0.0
  0
MTEXT
  5
3C5
330
64
100
AcDbEntity
  8
Dimension
 62
     0
390
1D
100
AcDbMText
 10
-2.625181604455104
 20
6.636088554288955
 30
0.0
 40
0.318812861570598
 41
0.0
 46
0.0
 71
     1
 72
     1
  1
Ø 6.890
  7
Helvetica
 73
     1
 44
0.8397955333929318
  0
POINT
  5
3C6
330
64
100
AcDbEntity
  8
Defpoints
 62
     0
370
     0
390
1D
100
AcDbPoint
 10
1.698310127575668
 20
15.5623632057553
 30
0.0
  0
POINT
  5
3C7
330
64
100
AcDbEntity
  8
Defpoints
 62
     0
370
     0
390
1D
100
AcDbPoint
 10
-1.746571762188111
 20
9.59565274661055
 30
0.0
  0
ENDBLK
  5
3C8
330
64
100
AcDbEntity
  8
Dimension
390
1D
100
AcDbBlockEnd
  0
BLOCK
  5
3C9
330
65
100
AcDbEntity
  8
Dimension
390
1D
100
AcDbBlockBegin
  2
*D67
 70
     1
 10
0.0
 20
0.0
 30
0.0
  3
*D67
  1

  0
LINE
  5
3CA
330
65
100
AcDbEntity
  8
Dimension
  6
Continuous
 62
     0
370
    -2
390
1D
100
AcDbLine
 10
0.5120102456069926
 20
11.30963547050692
 30
0.0
 11
2.736220472440944
 21
6.043574905316784
 31
0.0
  0
POLYLINE
  5
3CB
102
{ACAD_REACTORS
330
3D0
102
}
330
65
100
AcDbEntity
  8
DRAWING
  6
Continuous
 62
     0
370
     5
390
1D
100
AcDb2dPolyline
 66
     1
 10
0.0
 20
0.0
 30
0.0
 70
     1
 75
     5
  0
VERTEX
  5
3CC
330
3CB
100
AcDbEntity
  8
DRAWING
  6
Continuous
 62
     0
370
     5
390
1D
100
AcDbVertex
100
AcDb2dVertex
 10
0.5840515437958729
 20
10.7970349986125
 30
0.0
  0
VERTEX
  5
3CD
330
3CB
100
AcDbEntity
  8
DRAWING
  6
Continuous
 62
     0
370
     5
390
1D
100
AcDbVertex
100
AcDb2dVertex
 10
0.5120102456069926
 20
11.30963547050692
 30
0.0
  0
VERTEX
  5
3CE
330
3CB
100
AcDbEntity
  8
DRAWING
  6
Continuous
 62
     0
370
     5
390
1D
100
AcDbVertex
100
AcDb2dVertex
 10
0.8307000759073855
 20
10.9017310889489
 30
0.0
  0
SEQEND
  5
3CF
330
3CB
100
AcDbEntity
  8
DRAWING
  6
Continuous
 62
     0
370
     5
390
1D
  0
HATCH
  5
3D0
330
65
100
AcDbEntity
  8
Dimension
  6
Continuous
 62
     0
370
     0
390
1D
100
AcDbHatch
 10
0.0
 20
0.0
 30
0.0
210
0.0
220
0.0
230
1.0
  2
SOLID
 70
     1
 71
     1
 91
        1
 92
        1
 93
        3
 72
     1
 10
0.5840515437958729
 20
10.7970349986125
 11
0.5120102456069926
 21
11.30963547050692
 72
     1
 10
0.5120102456069926
 20
11.30963547050692
 11
0.8307000759073855
 21
10.9017310889489
 72
     1
 10
0.8307000759073855
 20
10.9017310889489
 11
0.5840515437958729
 21
10.7970349986125
 97
        1
330
3CB
 75
     0
 76
     1
 98
        1
 10
0.0
 20
0.0
  0
LINE
  5
3D1
330
65
100
AcDbEntity
  8
Dimension
  6
Continuous
 62
     0
370
    -2
390
1D
100
AcDbLine
 10
2.736220472440944
 20
6.043574905316784
 30
0.0
 11
3.681100472440944
 21
6.043574905316784
 31
0.0
  0
MTEXT
  5
3D2
330
65
100
AcDbEntity
  8
Dimension
 62
     0
390
1D
100
AcDbMText
 10
3.681100472440944
 20
6.242387766887381
 30
0.0
 40
0.318812861570598
 41
0.0
 46
0.0
 71
     1
 72
     1
  1
Ø 2.756
  7
Helvetica
 73
     1
 44
0.8397955333929318
  0
POINT
  5
3D3
330
65
100
AcDbEntity
  8
Defpoints
 62
     0
370
     0
390
1D
100
AcDbPoint
 10
-0.5602718802194389
 20
13.84838048185893
 30
0.0
  0
POINT
  5
3D4
330
65
100
AcDbEntity
  8
Defpoints
 62
     0
370
     0
390
1D
100
AcDbPoint
 10
0.5120102456069926
 20
11.30963547050692
 30
0.0
  0
ENDBLK
  5
3D5
330
65
100
AcDbEntity
  8
Dimension
390
1D
100
AcDbBlockEnd
  0
BLOCK
  5
3D6
330
66
100
AcDbEntity
  8
Dimension
390
1D
100
AcDbBlockBegin
  2
Group-44
 70
     0
 10
0.0
 20
0.0
 30
0.0
  3
Group-44
  1

  0
LINE
  5
3D7
330
66
100
AcDbEntity
  8
DRAWING
  6
Continuous
 62
     5
370
    15
390
1D
100
AcDbLine
 10
-14.38931663141603
 20
1.743499492257543
 30
0.0
 11
-13.60191663141603
 21
1.743499492257543
 31
0.0
  0
LINE
  5
3D8
330
66
100
AcDbEntity
  8
DRAWING
  6
Continuous
 62
     5
370
    15
390
1D
100
AcDbLine
 10
-13.99561663141603
 20
1.349799492257543
 30
0.0
 11
-13.99561663141603
 21
2.137199492257543
 31
0.0
  0
LINE
  5
3D9
330
66
100
AcDbEntity
  8
DRAWING
  6
Continuous
 62
     5
370
    15
390
1D
100
AcDbLine
 10
-19.9495027338019
 20
1.743499492257543
 30
0.0
 11
-14.70427663141603
 21
1.743499492257543
 31
0.0
  0
LINE
  5
3DA
330
66
100
AcDbEntity
  8
DRAWING
  6
Continuous
 62
     5
370
    15
390
1D
100
AcDbLine
 10
-13.28695663141603
 20
1.743499492257543
 30
0.0
 11
-8.041730529030152
 21
1.743499492257543
 31
0.0
  0
LINE
  5
3DB
330
66
100
AcDbEntity
  8
DRAWING
  6
Continuous
 62
     5
370
    15
390
1D
100
AcDbLine
 10
-13.99561663141603
 20
7.697385594643418
 30
0.0
 11
-13.99561663141603
 21
2.452159492257543
 31
0.0
  0
LINE
  5
3DC
330
66
100
AcDbEntity
  8
DRAWING
  6
Continuous
 62
     5
370
    15
390
1D
100
AcDbLine
 10
-13.99561663141603
 20
1.034839492257543
 30
0.0
 11
-13.99561663141603
 21
-4.210386610128332
 31
0.0
  0
ENDBLK
  5
3DD
330
66
100
AcDbEntity
  8
Dimension
390
1D
100
AcDbBlockEnd
  0
BLOCK
  5
3DE
330
67
100
AcDbEntity
  8
Dimension
390
1D
100
AcDbBlockBegin
  2
Group-45
 70
     0
 10
0.0
 20
0.0
 30
0.0
  3
Group-45
  1

  0
LINE
  5
3DF
330
67
100
AcDbEntity
  8
DRAWING
  6
Continuous
 62
     5
370
    15
390
1D
100
AcDbLine
 10
12.07182205990594
 20
1.743499492257543
 30
0.0
 11
12.85922205990594
 21
1.743499492257543
 31
0.0
  0
LINE
  5
3E0
330
67
100
AcDbEntity
  8
DRAWING
  6
Continuous
 62
     5
370
    15
390
1D
100
AcDbLine
 10
12.46552205990594
 20
1.349799492257543
 30
0.0
 11
12.46552205990594
 21
2.137199492257543
 31
0.0
  0
LINE
  5
3E1
330
67
100
AcDbEntity
  8
DRAWING
  6
Continuous
 62
     5
370
    15
390
1D
100
AcDbLine
 10
6.511635957520068
 20
1.743499492257543
 30
0.0
 11
11.75686205990595
 21
1.743499492257543
 31
0.0
  0
LINE
  5
3E2
330
67
100
AcDbEntity
  8
DRAWING
  6
Continuous
 62
     5
370
    15
390
1D
100
AcDbLine
 10
13.17418205990594
 20
1.743499492257543
 30
0.0
 11
18.41940816229182
 21
1.743499492257543
 31
0.0
  0
LINE
  5
3E3
330
67
100
AcDbEntity
  8
DRAWING
  6
Continuous
 62
     5
370
    15
390
1D
100
AcDbLine
 10
12.46552205990594
 20
7.69738559464342
 30
0.0
 11
12.46552205990594
 21
2.452159492257543
 31
0.0
  0
LINE
  5
3E4
330
67
100
AcDbEntity
  8
DRAWING
  6
Continuous
 62
     5
370
    15
390
1D
100
AcDbLine
 10
12.46552205990594
 20
1.034839492257543
 30
0.0
 11
12.46552205990594
 21
-4.210386610128333
 31
0.0
  0
ENDBLK
  5
3E5
330
67
100
AcDbEntity
  8
Dimension
390
1D
100
AcDbBlockEnd
  0
BLOCK
  5
3E6
330
68
100
AcDbEntity
  8
DRAWING
390
1D
100
AcDbBlockBegin
  2
Group-46
 70
     0
 10
0.0
 20
0.0
 30
0.0
  3
Group-46
  1

  0
CIRCLE
  5
3E7
330
68
100
AcDbEntity
  8
DRAWING
  6
Continuous
 62
     7
370
    25
390
1D
100
AcDbCircle
 10
17.68205749297681
 20
1.743499492257543
 30
0.0
 40
0.1968503937007876
  0
POLYLINE
  5
3E8
330
68
100
AcDbEntity
  8
DRAWING
  6
Continuous
 62
     7
370
    25
390
1D
100
AcDb2dPolyline
 66
     1
 10
0.0
 20
0.0
 30
0.0
 70
     1
 75
     5
  0
VERTEX
  5
3E9
330
3E8
100
AcDbEntity
  8
DRAWING
  6
Continuous
 62
     7
370
    25
390
1D
100
AcDbVertex
100
AcDb2dVertex
 10
17.62523167908019
 20
1.841924689107937
 30
0.0
  0
VERTEX
  5
3EA
330
3E8
100
AcDbEntity
  8
DRAWING
  6
Continuous
 62
     7
370
    25
390
1D
100
AcDbVertex
100
AcDb2dVertex
 10
17.56840586518357
 20
1.743499492257543
 30
0.0
  0
VERTEX
  5
3EB
330
3E8
100
AcDbEntity
  8
DRAWING
  6
Continuous
 62
     7
370
    25
390
1D
100
AcDbVertex
100
AcDb2dVertex
 10
17.62523167908019
 20
1.645074295407149
 30
0.0
  0
VERTEX
  5
3EC
330
3E8
100
AcDbEntity
  8
DRAWING
  6
Continuous
 62
     7
370
    25
390
1D
100
AcDbVertex
100
AcDb2dVertex
 10
17.73888330687343
 20
1.645074295407149
 30
0.0
  0
VERTEX
  5
3ED
330
3E8
100
AcDbEntity
  8
DRAWING
  6
Continuous
 62
     7
370
    25
390
1D
100
AcDbVertex
100
AcDb2dVertex
 10
17.79570912077005
 20
1.743499492257543
 30
0.0
  0
VERTEX
  5
3EE
330
3E8
100
AcDbEntity
  8
DRAWING
  6
Continuous
 62
     7
370
    25
390
1D
100
AcDbVertex
100
AcDb2dVertex
 10
17.73888330687343
 20
1.841924689107937
 30
0.0
  0
SEQEND
  5
3EF
330
3E8
100
AcDbEntity
  8
DRAWING
  6
Continuous
 62
     7
370
    25
390
1D
  0
ENDBLK
  5
3F1
330
68
100
AcDbEntity
  8
DRAWING
390
1D
100
AcDbBlockEnd
  0
BLOCK
  5
3F2
330
69
100
AcDbEntity
  8
DRAWING
390
1D
100
AcDbBlockBegin
  2
Group-47
 70
     0
 10
0.0
 20
0.0
 30
0.0
  3
Group-47
  1

  0
CIRCLE
  5
3F3
330
69
100
AcDbEntity
  8
DRAWING
  6
Continuous
 62
     7
370
    25
390
1D
100
AcDbCircle
 10
15.07378977644138
 20
6.261151697038572
 30
0.0
 40
0.1968503937007864
  0
POLYLINE
  5
3F4
330
69
100
AcDbEntity
  8
DRAWING
  6
Continuous
 62
     7
370
    25
390
1D
100
AcDb2dPolyline
 66
     1
 10
0.0
 20
0.0
 30
0.0
 70
     1
 75
     5
  0
VERTEX
  5
3F5
330
3F4
100
AcDbEntity
  8
DRAWING
  6
Continuous
 62
     7
370
    25
390
1D
100
AcDbVertex
100
AcDb2dVertex
 10
14.96013814864814
 20
6.261151697038572
 30
0.0
  0
VERTEX
  5
3F6
330
3F4
100
AcDbEntity
  8
DRAWING
  6
Continuous
 62
     7
370
    25
390
1D
100
AcDbVertex
100
AcDb2dVertex
 10
15.01696396254476
 20
6.162726500188177
 30
0.0
  0
VERTEX
  5
3F7
330
3F4
100
AcDbEntity
  8
DRAWING
  6
Continuous
 62
     7
370
    25
390
1D
100
AcDbVertex
100
AcDb2dVertex
 10
15.13061559033799
 20
6.162726500188177
 30
0.0
  0
VERTEX
  5
3F8
330
3F4
100
AcDbEntity
  8
DRAWING
  6
Continuous
 62
     7
370
    25
390
1D
100
AcDbVertex
100
AcDb2dVertex
 10
15.18744140423461
 20
6.261151697038572
 30
0.0
  0
VERTEX
  5
3F9
330
3F4
100
AcDbEntity
  8
DRAWING
  6
Continuous
 62
     7
370
    25
390
1D
100
AcDbVertex
100
AcDb2dVertex
 10
15.13061559033799
 20
6.359576893888965
 30
0.0
  0
VERTEX
  5
3FA
330
3F4
100
AcDbEntity
  8
DRAWING
  6
Continuous
 62
     7
370
    25
390
1D
100
AcDbVertex
100
AcDb2dVertex
 10
15.01696396254476
 20
6.359576893888965
 30
0.0
  0
SEQEND
  5
3FB
330
3F4
100
AcDbEntity
  8
DRAWING
  6
Continuous
 62
     7
370
    25
390
1D
  0
ENDBLK
  5
3FD
330
69
100
AcDbEntity
  8
DRAWING
390
1D
100
AcDbBlockEnd
  0
BLOCK
  5
3FE
330
6A
100
AcDbEntity
  8
DRAWING
390
1D
100
AcDbBlockBegin
  2
Group-48
 70
     0
 10
0.0
 20
0.0
 30
0.0
  3
Group-48
  1

  0
CIRCLE
  5
3FF
330
6A
100
AcDbEntity
  8
DRAWING
  6
Continuous
 62
     7
370
    25
390
1D
100
AcDbCircle
 10
9.857254343370514
 20
6.261151697038573
 30
0.0
 40
0.1968503937007862
  0
POLYLINE
  5
400
330
6A
100
AcDbEntity
  8
DRAWING
  6
Continuous
 62
     7
370
    25
390
1D
100
AcDb2dPolyline
 66
     1
 10
0.0
 20
0.0
 30
0.0
 70
     1
 75
     5
  0
VERTEX
  5
401
330
400
100
AcDbEntity
  8
DRAWING
  6
Continuous
 62
     7
370
    25
390
1D
100
AcDbVertex
100
AcDb2dVertex
 10
9.800428529473896
 20
6.162726500188179
 30
0.0
  0
VERTEX
  5
402
330
400
100
AcDbEntity
  8
DRAWING
  6
Continuous
 62
     7
370
    25
390
1D
100
AcDbVertex
100
AcDb2dVertex
 10
9.91408015726713
 20
6.162726500188179
 30
0.0
  0
VERTEX
  5
403
330
400
100
AcDbEntity
  8
DRAWING
  6
Continuous
 62
     7
370
    25
390
1D
100
AcDbVertex
100
AcDb2dVertex
 10
9.970905971163747
 20
6.261151697038573
 30
0.0
  0
VERTEX
  5
404
330
400
100
AcDbEntity
  8
DRAWING
  6
Continuous
 62
     7
370
    25
390
1D
100
AcDbVertex
100
AcDb2dVertex
 10
9.91408015726713
 20
6.359576893888966
 30
0.0
  0
VERTEX
  5
405
330
400
100
AcDbEntity
  8
DRAWING
  6
Continuous
 62
     7
370
    25
390
1D
100
AcDbVertex
100
AcDb2dVertex
 10
9.800428529473896
 20
6.359576893888966
 30
0.0
  0
VERTEX
  5
406
330
400
100
AcDbEntity
  8
DRAWING
  6
Continuous
 62
     7
370
    25
390
1D
100
AcDbVertex
100
AcDb2dVertex
 10
9.743602715577278
 20
6.261151697038573
 30
0.0
  0
SEQEND
  5
407
330
400
100
AcDbEntity
  8
DRAWING
  6
Continuous
 62
     7
370
    25
390
1D
  0
ENDBLK
  5
409
330
6A
100
AcDbEntity
  8
DRAWING
390
1D
100
AcDbBlockEnd
  0
BLOCK
  5
40A
330
6B
100
AcDbEntity
  8
DRAWING
390
1D
100
AcDbBlockBegin
  2
Group-49
 70
     0
 10
0.0
 20
0.0
 30
0.0
  3
Group-49
  1

  0
CIRCLE
  5
40B
330
6B
100
AcDbEntity
  8
DRAWING
  6
Continuous
 62
     7
370
    25
390
1D
100
AcDbCircle
 10
7.248986626835078
 20
1.743499492257544
 30
0.0
 40
0.1968503937007876
  0
POLYLINE
  5
40C
330
6B
100
AcDbEntity
  8
DRAWING
  6
Continuous
 62
     7
370
    25
390
1D
100
AcDb2dPolyline
 66
     1
 10
0.0
 20
0.0
 30
0.0
 70
     1
 75
     5
  0
VERTEX
  5
40D
330
40C
100
AcDbEntity
  8
DRAWING
  6
Continuous
 62
     7
370
    25
390
1D
100
AcDbVertex
100
AcDb2dVertex
 10
7.305812440731694
 20
1.64507429540715
 30
0.0
  0
VERTEX
  5
40E
330
40C
100
AcDbEntity
  8
DRAWING
  6
Continuous
 62
     7
370
    25
390
1D
100
AcDbVertex
100
AcDb2dVertex
 10
7.362638254628312
 20
1.743499492257544
 30
0.0
  0
VERTEX
  5
40F
330
40C
100
AcDbEntity
  8
DRAWING
  6
Continuous
 62
     7
370
    25
390
1D
100
AcDbVertex
100
AcDb2dVertex
 10
7.305812440731694
 20
1.841924689107937
 30
0.0
  0
VERTEX
  5
410
330
40C
100
AcDbEntity
  8
DRAWING
  6
Continuous
 62
     7
370
    25
390
1D
100
AcDbVertex
100
AcDb2dVertex
 10
7.192160812938461
 20
1.841924689107937
 30
0.0
  0
VERTEX
  5
411
330
40C
100
AcDbEntity
  8
DRAWING
  6
Continuous
 62
     7
370
    25
390
1D
100
AcDbVertex
100
AcDb2dVertex
 10
7.135334999041843
 20
1.743499492257544
 30
0.0
  0
VERTEX
  5
412
330
40C
100
AcDbEntity
  8
DRAWING
  6
Continuous
 62
     7
370
    25
390
1D
100
AcDbVertex
100
AcDb2dVertex
 10
7.192160812938461
 20
1.64507429540715
 30
0.0
  0
SEQEND
  5
413
330
40C
100
AcDbEntity
  8
DRAWING
  6
Continuous
 62
     7
370
    25
390
1D
  0
ENDBLK
  5
415
330
6B
100
AcDbEntity
  8
DRAWING
390
1D
100
AcDbBlockEnd
  0
BLOCK
  5
416
330
6C
100
AcDbEntity
  8
DRAWING
390
1D
100
AcDbBlockBegin
  2
Group-50
 70
     0
 10
0.0
 20
0.0
 30
0.0
  3
Group-50
  1

  0
CIRCLE
  5
417
330
6C
100
AcDbEntity
  8
DRAWING
  6
Continuous
 62
     7
370
    25
390
1D
100
AcDbCircle
 10
9.857254343370506
 20
-2.774152712523484
 30
0.0
 40
0.1968503937007885
  0
POLYLINE
  5
418
330
6C
100
AcDbEntity
  8
DRAWING
  6
Continuous
 62
     7
370
    25
390
1D
100
AcDb2dPolyline
 66
     1
 10
0.0
 20
0.0
 30
0.0
 70
     1
 75
     5
  0
VERTEX
  5
419
330
418
100
AcDbEntity
  8
DRAWING
  6
Continuous
 62
     7
370
    25
390
1D
100
AcDbVertex
100
AcDb2dVertex
 10
9.97090597116374
 20
-2.774152712523484
 30
0.0
  0
VERTEX
  5
41A
330
418
100
AcDbEntity
  8
DRAWING
  6
Continuous
 62
     7
370
    25
390
1D
100
AcDbVertex
100
AcDb2dVertex
 10
9.914080157267124
 20
-2.675727515673091
 30
0.0
  0
VERTEX
  5
41B
330
418
100
AcDbEntity
  8
DRAWING
  6
Continuous
 62
     7
370
    25
390
1D
100
AcDbVertex
100
AcDb2dVertex
 10
9.800428529473889
 20
-2.675727515673091
 30
0.0
  0
VERTEX
  5
41C
330
418
100
AcDbEntity
  8
DRAWING
  6
Continuous
 62
     7
370
    25
390
1D
100
AcDbVertex
100
AcDb2dVertex
 10
9.743602715577273
 20
-2.774152712523484
 30
0.0
  0
VERTEX
  5
41D
330
418
100
AcDbEntity
  8
DRAWING
  6
Continuous
 62
     7
370
    25
390
1D
100
AcDbVertex
100
AcDb2dVertex
 10
9.800428529473889
 20
-2.872577909373878
 30
0.0
  0
VERTEX
  5
41E
330
418
100
AcDbEntity
  8
DRAWING
  6
Continuous
 62
     7
370
    25
390
1D
100
AcDbVertex
100
AcDb2dVertex
 10
9.914080157267124
 20
-2.872577909373878
 30
0.0
  0
SEQEND
  5
41F
330
418
100
AcDbEntity
  8
DRAWING
  6
Continuous
 62
     7
370
    25
390
1D
  0
ENDBLK
  5
421
330
6C
100
AcDbEntity
  8
DRAWING
390
1D
100
AcDbBlockEnd
  0
BLOCK
  5
422
330
6D
100
AcDbEntity
  8
DRAWING
390
1D
100
AcDbBlockBegin
  2
Group-51
 70
     0
 10
0.0
 20
0.0
 30
0.0
  3
Group-51
  1

  0
CIRCLE
  5
423
330
6D
100
AcDbEntity
  8
DRAWING
  6
Continuous
 62
     7
370
    25
390
1D
100
AcDbCircle
 10
15.07378977644138
 20
-2.774152712523485
 30
0.0
 40
0.1968503937007885
  0
POLYLINE
  5
424
330
6D
100
AcDbEntity
  8
DRAWING
  6
Continuous
 62
     7
370
    25
390
1D
100
AcDb2dPolyline
 66
     1
 10
0.0
 20
0.0
 30
0.0
 70
     1
 75
     5
  0
VERTEX
  5
425
330
424
100
AcDbEntity
  8
DRAWING
  6
Continuous
 62
     7
370
    25
390
1D
100
AcDbVertex
100
AcDb2dVertex
 10
15.13061559033799
 20
-2.675727515673092
 30
0.0
  0
VERTEX
  5
426
330
424
100
AcDbEntity
  8
DRAWING
  6
Continuous
 62
     7
370
    25
390
1D
100
AcDbVertex
100
AcDb2dVertex
 10
15.01696396254476
 20
-2.675727515673092
 30
0.0
  0
VERTEX
  5
427
330
424
100
AcDbEntity
  8
DRAWING
  6
Continuous
 62
     7
370
    25
390
1D
100
AcDbVertex
100
AcDb2dVertex
 10
14.96013814864814
 20
-2.774152712523485
 30
0.0
  0
VERTEX
  5
428
330
424
100
AcDbEntity
  8
DRAWING
  6
Continuous
 62
     7
370
    25
390
1D
100
AcDbVertex
100
AcDb2dVertex
 10
15.01696396254476
 20
-2.872577909373879
 30
0.0
  0
VERTEX
  5
429
330
424
100
AcDbEntity
  8
DRAWING
  6
Continuous
 62
     7
370
    25
390
1D
100
AcDbVertex
100
AcDb2dVertex
 10
15.13061559033799
 20
-2.872577909373879
 30
0.0
  0
VERTEX
  5
42A
330
424
100
AcDbEntity
  8
DRAWING
  6
Continuous
 62
     7
370
    25
390
1D
100
AcDbVertex
100
AcDb2dVertex
 10
15.18744140423461
 20
-2.774152712523485
 30
0.0
  0
SEQEND
  5
42B
330
424
100
AcDbEntity
  8
DRAWING
  6
Continuous
 62
     7
370
    25
390
1D
  0
ENDBLK
  5
42D
330
6D
100
AcDbEntity
  8
DRAWING
390
1D
100
AcDbBlockEnd
  0
BLOCK
  5
42E
330
6E
100
AcDbEntity
  8
DRAWING
390
1D
100
AcDbBlockBegin
  2
Group-52
 70
     0
 10
0.0
 20
0.0
 30
0.0
  3
Group-52
  1

  0
LINE
  5
42F
330
6E
100
AcDbEntity
  8
PLB-Tw~
  6
STYLE_11
 62
   148
370
    15
390
1D
100
AcDbLine
 10
0.7374682192606211
 20
-1.036272161285769
 30
0.0
 11
0.7374682192606211
 21
-1.382728854199136
 31
0.0
  0
LINE
  5
430
330
6E
100
AcDbEntity
  8
PLB-Tw~
  6
STYLE_11
 62
   148
370
    15
390
1D
100
AcDbLine
 10
0.6587280617803062
 20
-1.20950050774245
 30
0.0
 11
0.7374682192606211
 21
-1.036272161285763
 31
0.0
  0
LINE
  5
431
330
6E
100
AcDbEntity
  8
PLB-Tw~
  6
STYLE_11
 62
   148
370
    15
390
1D
100
AcDbLine
 10
0.8555784554810936
 20
-1.40635090144324
 30
0.0
 11
0.8555784554810936
 21
-1.012650114041663
 31
0.0
  0
LINE
  5
432
330
6E
100
AcDbEntity
  8
PLB-Tw~
  6
STYLE_11
 62
   148
370
    15
390
1D
100
AcDbLine
 10
0.7374682192606211
 20
-1.382728854199149
 30
0.0
 11
1.485499715323622
 21
-1.382728854199153
 31
0.0
  0
LINE
  5
433
330
6E
100
AcDbEntity
  8
PLB-Tw~
  6
STYLE_11
 62
    18
370
    15
390
1D
100
AcDbLine
 10
0.8555784554810936
 20
-1.406350901443242
 30
0.0
 11
1.499137910658814
 21
-1.406350901443244
 31
0.0
  0
LINE
  5
434
330
6E
100
AcDbEntity
  8
PLB-Tw~
  6
STYLE_11
 62
   148
370
    15
390
1D
100
AcDbLine
 10
0.7374682192606211
 20
-1.38272885419914
 30
0.0
 11
0.6587280617803062
 21
-1.20950050774245
 31
0.0
  0
LINE
  5
435
330
6E
100
AcDbEntity
  8
PLB-Tw~
  6
STYLE_11
 62
   148
370
    15
390
1D
100
AcDbLine
 10
0.7374682192606211
 20
-1.03627216128576
 30
0.0
 11
1.485499715323613
 21
-1.036272161285767
 31
0.0
  0
LINE
  5
436
330
6E
100
AcDbEntity
  8
PLB-Tw~
  6
STYLE_11
 62
    18
370
    15
390
1D
100
AcDbLine
 10
0.8555784554810936
 20
-1.012650114041663
 30
0.0
 11
1.499137910658814
 21
-1.012650114041667
 31
0.0
  0
LINE
  5
437
330
6E
100
AcDbEntity
  8
PLB-Tw~
  6
STYLE_11
 62
   148
370
    15
390
1D
100
AcDbLine
 10
1.485499715323622
 20
-1.382728854199153
 30
0.0
 11
1.485499715323613
 21
-1.036272161285765
 31
0.0
  0
LINE
  5
438
330
6E
100
AcDbEntity
  8
PLB-Tw~
  6
STYLE_11
 62
   148
370
    15
390
1D
100
AcDbLine
 10
1.485499715323622
 20
-1.382728854199151
 30
0.0
 11
1.524869794063789
 21
-1.450919830875101
 31
0.0
  0
LINE
  5
439
330
6E
100
AcDbEntity
  8
PLB-Tw~
  6
STYLE_11
 62
   148
370
    15
390
1D
100
AcDbLine
 10
1.485499715323622
 20
-1.036272161285763
 30
0.0
 11
1.524869794063789
 21
-0.9680811846098129
 31
0.0
  0
LINE
  5
43A
330
6E
100
AcDbEntity
  8
PLB-Tw~
  6
STYLE_11
 62
    18
370
    15
390
1D
100
AcDbLine
 10
0.5524679150060936
 20
-1.209500507742455
 30
0.0
 11
1.802248451133787
 21
-1.209500507742455
 31
0.0
  0
ENDBLK
  5
43B
330
6E
100
AcDbEntity
  8
DRAWING
390
1D
100
AcDbBlockEnd
  0
BLOCK
  5
43C
330
6F
100
AcDbEntity
  8
DRAWING
390
1D
100
AcDbBlockBegin
  2
Group-53
 70
     0
 10
0.0
 20
0.0
 30
0.0
  3
Group-53
  1

  0
LINE
  5
43D
330
6F
100
AcDbEntity
  8
PLB-Tw~
 62
   148
370
    25
390
1D
100
AcDbLine
 10
-7.172456029076759
 20
-9.457555728019772
 30
0.0
 11
-8.117337918840539
 21
-9.45755572801977
 31
0.0
  0
LINE
  5
43E
330
6F
100
AcDbEntity
  8
PLB-Tw~
 62
   148
370
    25
390
1D
100
AcDbLine
 10
-8.32206083404195
 20
-9.457555728019761
 30
0.0
 11
-8.322060834041963
 21
-9.831571476051364
 31
0.0
  0
LINE
  5
43F
330
6F
100
AcDbEntity
  8
PLB-Tw~
 62
   148
370
    25
390
1D
100
AcDbLine
 10
-8.117337918840539
 20
-9.457555728019768
 30
0.0
 11
-8.117337918840539
 21
-9.516610846130005
 31
0.0
  0
LINE
  5
440
330
6F
100
AcDbEntity
  8
PLB-Tw~
  6
Continuous
 62
   148
370
    25
390
1D
100
AcDbLine
 10
-8.117337918840539
 20
-9.516610846130005
 30
0.0
 11
-8.223637131438966
 21
-9.516610846130005
 31
0.0
  0
LINE
  5
441
330
6F
100
AcDbEntity
  8
PLB-Tw~
  6
Continuous
 62
   148
370
    25
390
1D
100
AcDbLine
 10
-8.003163196246687
 20
-9.88078407447656
 30
0.0
 11
-8.085840361601019
 21
-9.88078407447656
 31
0.0
  0
LINE
  5
442
330
6F
100
AcDbEntity
  8
PLB-Tw~
 62
   148
370
    25
390
1D
100
AcDbLine
 10
-8.085840361601019
 20
-9.88078407447656
 30
0.0
 11
-8.085840361601013
 21
-9.949681712271836
 31
0.0
  0
LINE
  5
443
330
6F
100
AcDbEntity
  8
PLB-Tw~
  6
Continuous
 62
   148
370
    25
390
1D
100
AcDbLine
 10
-8.085840361601013
 20
-9.949681712271836
 30
0.0
 11
-8.203950597821496
 21
-9.949681712271836
 31
0.0
  0
LINE
  5
444
330
6F
100
AcDbEntity
  8
PLB-Tw~
  6
Continuous
 62
   148
370
    25
390
1D
100
AcDbLine
 10
-8.223637131438966
 20
-9.457555728019765
 30
0.0
 11
-8.32206083404195
 21
-9.457555728019765
 31
0.0
  0
LINE
  5
445
330
6F
100
AcDbEntity
  8
PLB-Tw~
 62
   148
370
    25
390
1D
100
AcDbLine
 10
-8.203950597821496
 20
-9.949681712271836
 30
0.0
 11
-8.322060834041963
 21
-9.831571476051364
 31
0.0
  0
LINE
  5
446
330
6F
100
AcDbEntity
  8
PLB-Tw~
 62
   148
370
    25
390
1D
100
AcDbLine
 10
-8.003163196246687
 20
-9.880784074476557
 30
0.0
 11
-8.003163196246682
 21
-9.949681712271833
 31
0.0
  0
LINE
  5
447
330
6F
100
AcDbEntity
  8
PLB-Tw~
 62
    18
370
    25
390
1D
100
AcDbLine
 10
-8.322060834041963
 20
-9.831571476051364
 30
0.0
 11
-8.322060834041963
 21
-10.83550848392538
 31
0.0
  0
LINE
  5
448
330
6F
100
AcDbEntity
  8
PLB-Tw~
  6
Continuous
 62
    18
370
    25
390
1D
100
AcDbLine
 10
-8.203950597821496
 20
-9.949681712271836
 30
0.0
 11
-8.203950597821496
 21
-10.83550848392538
 31
0.0
  0
LINE
  5
449
330
6F
100
AcDbEntity
  8
PLB-Tw~
  6
Continuous
 62
    18
370
    25
390
1D
100
AcDbLine
 10
-8.085840361601013
 20
-9.949681712271836
 30
0.0
 11
-8.085840361601013
 21
-10.83550848392538
 31
0.0
  0
LINE
  5
44A
330
6F
100
AcDbEntity
  8
PLB-Tw~
  6
Continuous
 62
    18
370
    25
390
1D
100
AcDbLine
 10
-8.003163196246687
 20
-9.949681712271836
 30
0.0
 11
-8.003163196246687
 21
-10.83550848392538
 31
0.0
  0
ENDBLK
  5
44B
330
6F
100
AcDbEntity
  8
DRAWING
390
1D
100
AcDbBlockEnd
  0
BLOCK
  5
44C
330
70
100
AcDbEntity
  8
Dimension
390
1D
100
AcDbBlockBegin
  2
*D78
 70
     1
 10
0.0
 20
0.0
 30
0.0
  3
*D78
  1

  0
LINE
  5
44D
330
70
100
AcDbEntity
  8
Dimension
  6
Continuous
 62
     0
370
    -2
390
1D
100
AcDbLine
 10
5.649424980067842
 20
-0.1999999999999993
 30
0.0
 11
5.649424980067842
 21
-1.374960629921262
 31
0.0
  0
LINE
  5
44E
330
70
100
AcDbEntity
  8
Dimension
  6
Continuous
 62
     0
370
    -2
390
1D
100
AcDbLine
 10
5.885645452508792
 20
-0.1999999999999993
 30
0.0
 11
5.885645452508792
 21
-1.374960629921262
 31
0.0
  0
LINE
  5
44F
330
70
100
AcDbEntity
  8
Dimension
  6
Continuous
 62
     0
370
    -2
390
1D
100
AcDbLine
 10
5.885645452508792
 20
-1.06
 30
0.0
 11
5.649424980067842
 21
-1.06
 31
0.0
  0
LINE
  5
450
330
70
100
AcDbEntity
  8
Dimension
  6
Continuous
 62
     0
370
    -2
390
1D
100
AcDbLine
 10
5.649424980067842
 20
-1.06
 30
0.0
 11
4.547064980067841
 21
-1.06
 31
0.0
  0
POLYLINE
  5
451
102
{ACAD_REACTORS
330
456
102
}
330
70
100
AcDbEntity
  8
DRAWING
  6
Continuous
 62
     0
370
     5
390
1D
100
AcDb2dPolyline
 66
     1
 10
0.0
 20
0.0
 30
0.0
 70
     1
 75
     5
  0
VERTEX
  5
452
330
451
100
AcDbEntity
  8
DRAWING
  6
Continuous
 62
     0
370
     5
390
1D
100
AcDbVertex
100
AcDb2dVertex
 10
5.149424980067842
 20
-0.926025403784438
 30
0.0
  0
VERTEX
  5
453
330
451
100
AcDbEntity
  8
DRAWING
  6
Continuous
 62
     0
370
     5
390
1D
100
AcDbVertex
100
AcDb2dVertex
 10
5.649424980067842
 20
-1.06
 30
0.0
  0
VERTEX
  5
454
330
451
100
AcDbEntity
  8
DRAWING
  6
Continuous
 62
     0
370
     5
390
1D
100
AcDbVertex
100
AcDb2dVertex
 10
5.149424980067842
 20
-1.193974596215563
 30
0.0
  0
SEQEND
  5
455
330
451
100
AcDbEntity
  8
DRAWING
  6
Continuous
 62
     0
370
     5
390
1D
  0
HATCH
  5
456
330
70
100
AcDbEntity
  8
Dimension
  6
Continuous
 62
     0
370
     0
390
1D
100
AcDbHatch
 10
0.0
 20
0.0
 30
0.0
210
0.0
220
0.0
230
1.0
  2
SOLID
 70
     1
 71
     1
 91
        1
 92
        1
 93
        3
 72
     1
 10
5.149424980067842
 20
-0.926025403784438
 11
5.649424980067842
 21
-1.06
 72
     1
 10
5.649424980067842
 20
-1.06
 11
5.149424980067842
 21
-1.193974596215563
 72
     1
 10
5.149424980067842
 20
-1.193974596215563
 11
5.149424980067842
 21
-0.926025403784438
 97
        1
330
451
 75
     0
 76
     1
 98
        1
 10
0.0
 20
0.0
  0
LINE
  5
457
330
70
100
AcDbEntity
  8
Dimension
  6
Continuous
 62
     0
370
    -2
390
1D
100
AcDbLine
 10
5.885645452508792
 20
-1.06
 30
0.0
 11
6.988005452508791
 21
-1.06
 31
0.0
  0
POLYLINE
  5
458
102
{ACAD_REACTORS
330
45D
102
}
330
70
100
AcDbEntity
  8
DRAWING
  6
Continuous
 62
     0
370
     5
390
1D
100
AcDb2dPolyline
 66
     1
 10
0.0
 20
0.0
 30
0.0
 70
     1
 75
     5
  0
VERTEX
  5
459
330
458
100
AcDbEntity
  8
DRAWING
  6
Continuous
 62
     0
370
     5
390
1D
100
AcDbVertex
100
AcDb2dVertex
 10
6.385645452508791
 20
-1.193974596215563
 30
0.0
  0
VERTEX
  5
45A
330
458
100
AcDbEntity
  8
DRAWING
  6
Continuous
 62
     0
370
     5
390
1D
100
AcDbVertex
100
AcDb2dVertex
 10
5.885645452508792
 20
-1.06
 30
0.0
  0
VERTEX
  5
45B
330
458
100
AcDbEntity
  8
DRAWING
  6
Continuous
 62
     0
370
     5
390
1D
100
AcDbVertex
100
AcDb2dVertex
 10
6.385645452508791
 20
-0.926025403784438
 30
0.0
  0
SEQEND
  5
45C
330
458
100
AcDbEntity
  8
DRAWING
  6
Continuous
 62
     0
370
     5
390
1D
  0
HATCH
  5
45D
330
70
100
AcDbEntity
  8
Dimension
  6
Continuous
 62
     0
370
     0
390
1D
100
AcDbHatch
 10
0.0
 20
0.0
 30
0.0
210
0.0
220
0.0
230
1.0
  2
SOLID
 70
     1
 71
     1
 91
        1
 92
        1
 93
        3
 72
     1
 10
6.385645452508791
 20
-1.193974596215563
 11
5.885645452508792
 21
-1.06
 72
     1
 10
5.885645452508792
 20
-1.06
 11
6.385645452508791
 21
-0.926025403784438
 72
     1
 10
6.385645452508791
 20
-0.926025403784438
 11
6.385645452508791
 21
-1.193974596215563
 97
        1
330
458
 75
     0
 76
     1
 98
        1
 10
0.0
 20
0.0
  0
MTEXT
  5
45E
330
70
100
AcDbEntity
  8
Dimension
 62
     0
390
1D
100
AcDbMText
 10
3.68204761895673
 20
-0.8611871384294041
 30
0.0
 40
0.318812861570598
 41
0.0
 46
0.0
 71
     1
 72
     1
  1
.236
  7
Helvetica
 73
     1
 44
0.8397955333929318
  0
POINT
  5
45F
330
70
100
AcDbEntity
  8
Defpoints
 62
     0
370
     0
390
1D
100
AcDbPoint
 10
5.885645452508792
 20
0.0
 30
0.0
  0
POINT
  5
460
330
70
100
AcDbEntity
  8
Defpoints
 62
     0
370
     0
390
1D
100
AcDbPoint
 10
5.649424980067842
 20
0.0
 30
0.0
  0
POINT
  5
461
330
70
100
AcDbEntity
  8
Defpoints
 62
     0
370
     0
390
1D
100
AcDbPoint
 10
5.649424980067842
 20
-1.06
 30
0.0
  0
ENDBLK
  5
462
330
70
100
AcDbEntity
  8
Dimension
390
1D
100
AcDbBlockEnd
  0
BLOCK
  5
463
330
71
100
AcDbEntity
  8
Dimension
390
1D
100
AcDbBlockBegin
  2
*D79
 70
     1
 10
0.0
 20
0.0
 30
0.0
  3
*D79
  1

  0
LINE
  5
464
330
71
100
AcDbEntity
  8
Dimension
  6
Continuous
 62
     0
370
    -2
390
1D
100
AcDbLine
 10
5.885645452508792
 20
-0.1999999999999993
 30
0.0
 11
5.885645452508792
 21
-0.7549606299212588
 31
0.0
  0
LINE
  5
465
330
71
100
AcDbEntity
  8
Dimension
  6
Continuous
 62
     0
370
    -2
390
1D
100
AcDbLine
 10
5.968322617863118
 20
-0.1999999999999993
 30
0.0
 11
5.968322617863118
 21
-0.7549606299212588
 31
0.0
  0
LINE
  5
466
330
71
100
AcDbEntity
  8
Dimension
  6
Continuous
 62
     0
370
    -2
390
1D
100
AcDbLine
 10
5.968322617863118
 20
-0.4399999999999995
 30
0.0
 11
5.885645452508792
 21
-0.4399999999999995
 31
0.0
  0
LINE
  5
467
330
71
100
AcDbEntity
  8
Dimension
  6
Continuous
 62
     0
370
    -2
390
1D
100
AcDbLine
 10
5.885645452508792
 20
-0.4399999999999995
 30
0.0
 11
4.783285452508791
 21
-0.4399999999999995
 31
0.0
  0
POLYLINE
  5
468
102
{ACAD_REACTORS
330
46D
102
}
330
71
100
AcDbEntity
  8
DRAWING
  6
Continuous
 62
     0
370
     5
390
1D
100
AcDb2dPolyline
 66
     1
 10
0.0
 20
0.0
 30
0.0
 70
     1
 75
     5
  0
VERTEX
  5
469
330
468
100
AcDbEntity
  8
DRAWING
  6
Continuous
 62
     0
370
     5
390
1D
100
AcDbVertex
100
AcDb2dVertex
 10
5.385645452508792
 20
-0.306025403784437
 30
0.0
  0
VERTEX
  5
46A
330
468
100
AcDbEntity
  8
DRAWING
  6
Continuous
 62
     0
370
     5
390
1D
100
AcDbVertex
100
AcDb2dVertex
 10
5.885645452508792
 20
-0.4399999999999995
 30
0.0
  0
VERTEX
  5
46B
330
468
100
AcDbEntity
  8
DRAWING
  6
Continuous
 62
     0
370
     5
390
1D
100
AcDbVertex
100
AcDb2dVertex
 10
5.385645452508792
 20
-0.573974596215562
 30
0.0
  0
SEQEND
  5
46C
330
468
100
AcDbEntity
  8
DRAWING
  6
Continuous
 62
     0
370
     5
390
1D
  0
HATCH
  5
46D
330
71
100
AcDbEntity
  8
Dimension
  6
Continuous
 62
     0
370
     0
390
1D
100
AcDbHatch
 10
0.0
 20
0.0
 30
0.0
210
0.0
220
0.0
230
1.0
  2
SOLID
 70
     1
 71
     1
 91
        1
 92
        1
 93
        3
 72
     1
 10
5.385645452508792
 20
-0.306025403784437
 11
5.885645452508792
 21
-0.4399999999999995
 72
     1
 10
5.885645452508792
 20
-0.4399999999999995
 11
5.385645452508792
 21
-0.573974596215562
 72
     1
 10
5.385645452508792
 20
-0.573974596215562
 11
5.385645452508792
 21
-0.306025403784437
 97
        1
330
468
 75
     0
 76
     1
 98
        1
 10
0.0
 20
0.0
  0
LINE
  5
46E
330
71
100
AcDbEntity
  8
Dimension
  6
Continuous
 62
     0
370
    -2
390
1D
100
AcDbLine
 10
5.968322617863118
 20
-0.4399999999999995
 30
0.0
 11
7.070682617863118
 21
-0.4399999999999995
 31
0.0
  0
POLYLINE
  5
46F
102
{ACAD_REACTORS
330
474
102
}
330
71
100
AcDbEntity
  8
DRAWING
  6
Continuous
 62
     0
370
     5
390
1D
100
AcDb2dPolyline
 66
     1
 10
0.0
 20
0.0
 30
0.0
 70
     1
 75
     5
  0
VERTEX
  5
470
330
46F
100
AcDbEntity
  8
DRAWING
  6
Continuous
 62
     0
370
     5
390
1D
100
AcDbVertex
100
AcDb2dVertex
 10
6.468322617863118
 20
-0.573974596215562
 30
0.0
  0
VERTEX
  5
471
330
46F
100
AcDbEntity
  8
DRAWING
  6
Continuous
 62
     0
370
     5
390
1D
100
AcDbVertex
100
AcDb2dVertex
 10
5.968322617863118
 20
-0.4399999999999995
 30
0.0
  0
VERTEX
  5
472
330
46F
100
AcDbEntity
  8
DRAWING
  6
Continuous
 62
     0
370
     5
390
1D
100
AcDbVertex
100
AcDb2dVertex
 10
6.468322617863118
 20
-0.306025403784437
 30
0.0
  0
SEQEND
  5
473
330
46F
100
AcDbEntity
  8
DRAWING
  6
Continuous
 62
     0
370
     5
390
1D
  0
HATCH
  5
474
330
71
100
AcDbEntity
  8
Dimension
  6
Continuous
 62
     0
370
     0
390
1D
100
AcDbHatch
 10
0.0
 20
0.0
 30
0.0
210
0.0
220
0.0
230
1.0
  2
SOLID
 70
     1
 71
     1
 91
        1
 92
        1
 93
        3
 72
     1
 10
6.468322617863118
 20
-0.573974596215562
 11
5.968322617863118
 21
-0.4399999999999995
 72
     1
 10
5.968322617863118
 20
-0.4399999999999995
 11
6.468322617863118
 21
-0.306025403784437
 72
     1
 10
6.468322617863118
 20
-0.306025403784437
 11
6.468322617863118
 21
-0.573974596215562
 97
        1
330
46F
 75
     0
 76
     1
 98
        1
 10
0.0
 20
0.0
  0
MTEXT
  5
475
330
71
100
AcDbEntity
  8
Dimension
 62
     0
390
1D
100
AcDbMText
 10
7.070682617863118
 20
-0.2411871384294013
 30
0.0
 40
0.318812861570598
 41
0.0
 46
0.0
 71
     1
 72
     1
  1
.083 X Ø1.89"
  7
Helvetica
 73
     1
 44
0.8397955333929318
  0
POINT
  5
476
330
71
100
AcDbEntity
  8
Defpoints
 62
     0
370
     0
390
1D
100
AcDbPoint
 10
5.968322617863118
 20
0.0
 30
0.0
  0
POINT
  5
477
330
71
100
AcDbEntity
  8
Defpoints
 62
     0
370
     0
390
1D
100
AcDbPoint
 10
5.885645452508792
 20
0.0
 30
0.0
  0
POINT
  5
478
330
71
100
AcDbEntity
  8
Defpoints
 62
     0
370
     0
390
1D
100
AcDbPoint
 10
5.885645452508792
 20
-0.4399999999999995
 30
0.0
  0
ENDBLK
  5
479
330
71
100
AcDbEntity
  8
Dimension
390
1D
100
AcDbBlockEnd
  0
BLOCK
  5
47A
330
72
100
AcDbEntity
  8
DRAWING
390
1D
100
AcDbBlockBegin
  2
Group-54
 70
     0
 10
0.0
 20
0.0
 30
0.0
  3
Group-54
  1

  0
LINE
  5
47B
330
72
100
AcDbEntity
  8
PLB-Tw~
 62
   148
370
    15
390
1D
100
AcDbLine
 10
0.7374682192605467
 20
4.869483744226049
 30
0.0
 11
0.7374682192605467
 21
4.523027051312682
 31
0.0
  0
LINE
  5
47C
330
72
100
AcDbEntity
  8
PLB-Tw~
 62
   148
370
    15
390
1D
100
AcDbLine
 10
0.6587280617802318
 20
4.696255397769368
 30
0.0
 11
0.7374682192605467
 21
4.869483744226055
 31
0.0
  0
LINE
  5
47D
330
72
100
AcDbEntity
  8
PLB-Tw~
  6
STYLE_14
 62
   148
370
    15
390
1D
100
AcDbLine
 10
0.8555784554810192
 20
4.499405004068578
 30
0.0
 11
0.8555784554810192
 21
4.893105791470155
 31
0.0
  0
LINE
  5
47E
330
72
100
AcDbEntity
  8
PLB-Tw~
  6
Continuous
 62
   148
370
    15
390
1D
100
AcDbLine
 10
0.7374682192605467
 20
4.523027051312669
 30
0.0
 11
1.485499715323548
 21
4.523027051312664
 31
0.0
  0
LINE
  5
47F
330
72
100
AcDbEntity
  8
PLB-Tw~
  6
STYLE_14
 62
    18
370
    15
390
1D
100
AcDbLine
 10
0.8555784554810192
 20
4.499405004068576
 30
0.0
 11
1.499137910658739
 21
4.499405004068573
 31
0.0
  0
LINE
  5
480
330
72
100
AcDbEntity
  8
PLB-Tw~
 62
   148
370
    15
390
1D
100
AcDbLine
 10
0.7374682192605467
 20
4.523027051312678
 30
0.0
 11
0.6587280617802318
 21
4.696255397769368
 31
0.0
  0
LINE
  5
481
330
72
100
AcDbEntity
  8
PLB-Tw~
  6
Continuous
 62
   148
370
    15
390
1D
100
AcDbLine
 10
0.7374682192605467
 20
4.869483744226057
 30
0.0
 11
1.485499715323539
 21
4.86948374422605
 31
0.0
  0
LINE
  5
482
330
72
100
AcDbEntity
  8
PLB-Tw~
  6
STYLE_14
 62
    18
370
    15
390
1D
100
AcDbLine
 10
0.8555784554810192
 20
4.893105791470155
 30
0.0
 11
1.499137910658739
 21
4.89310579147015
 31
0.0
  0
LINE
  5
483
330
72
100
AcDbEntity
  8
PLB-Tw~
 62
   148
370
    15
390
1D
100
AcDbLine
 10
1.485499715323548
 20
4.523027051312664
 30
0.0
 11
1.485499715323539
 21
4.869483744226053
 31
0.0
  0
LINE
  5
484
330
72
100
AcDbEntity
  8
PLB-Tw~
 62
   148
370
    15
390
1D
100
AcDbLine
 10
1.485499715323548
 20
4.523027051312667
 30
0.0
 11
1.524869794063714
 21
4.454836074636717
 31
0.0
  0
LINE
  5
485
330
72
100
AcDbEntity
  8
PLB-Tw~
 62
   148
370
    15
390
1D
100
AcDbLine
 10
1.485499715323548
 20
4.869483744226055
 30
0.0
 11
1.524869794063714
 21
4.937674720902005
 31
0.0
  0
LINE
  5
486
330
72
100
AcDbEntity
  8
PLB-Tw~
  6
STYLE_01
 62
     5
370
    15
390
1D
100
AcDbLine
 10
0.5524679150060192
 20
4.696255397769363
 30
0.0
 11
1.802248451133712
 21
4.696255397769363
 31
0.0
  0
ENDBLK
  5
487
330
72
100
AcDbEntity
  8
DRAWING
390
1D
100
AcDbBlockEnd
  0
ENDSEC
  0
SECTION
  2
ENTITIES
  0
LINE
  5
488
330
A
100
AcDbEntity
  8
PLB-Tw~
 62
   148
370
    30
390
1D
100
AcDbLine
 10
11.95304852155935
 20
7.097561873797051
 30
0.0
 11
14.39399340344911
 21
7.097561873797051
 31
0.0
  0
LINE
  5
489
330
A
100
AcDbEntity
  8
PLB-Tw~
 62
   148
370
    30
390
1D
100
AcDbLine
 10
12.22863907274045
 20
17.64874297615926
 30
0.0
 11
14.11840285226801
 21
17.64874297615926
 31
0.0
  0
LINE
  5
48A
330
A
100
AcDbEntity
  8
PLB-Tw~
 62
   148
370
    30
390
1D
100
AcDbLine
 10
11.71682804911834
 20
8.28766939350576
 30
0.0
 11
11.71682804911834
 21
7.81522844862387
 31
0.0
  0
LINE
  5
48B
330
A
100
AcDbEntity
  8
PLB-Tw~
 62
   148
370
    30
390
1D
100
AcDbLine
 10
11.7168280491184
 20
7.697118212403401
 30
0.0
 11
11.7168280491184
 21
12.57900797618292
 31
0.0
  0
ARC
  5
48C
330
A
100
AcDbEntity
  8
PLB-Tw~
 62
   148
370
    30
390
1D
100
AcDbCircle
 10
11.95304852155935
 20
7.215672110017527
 30
0.0
 40
0.1181102362204725
100
AcDbArc
 50
180.0
 51
270.0
  0
LINE
  5
48D
330
A
100
AcDbEntity
  8
PLB-Tw~
  6
Continuous
 62
   148
370
    30
390
1D
100
AcDbLine
 10
11.75619812785855
 20
7.657748133663244
 30
0.0
 11
11.83493828533887
 21
7.657748133663244
 31
0.0
  0
LINE
  5
48E
330
A
100
AcDbEntity
  8
PLB-Tw~
 62
   148
370
    30
390
1D
100
AcDbLine
 10
11.7168280491184
 20
7.697118212403401
 30
0.0
 11
11.75619812785855
 21
7.657748133663244
 31
0.0
  0
LINE
  5
48F
330
A
100
AcDbEntity
  8
PLB-Tw~
 62
   148
370
    30
390
1D
100
AcDbLine
 10
11.83493828533887
 20
7.215672110017527
 30
0.0
 11
11.83493828533887
 21
12.57900797618292
 31
0.0
  0
LINE
  5
490
330
A
100
AcDbEntity
  8
PLB-Tw~
  6
Continuous
 62
   148
370
    30
390
1D
100
AcDbLine
 10
12.18926749975287
 20
16.3979056139782
 30
0.0
 11
12.18926749975287
 21
16.43727569271836
 31
0.0
  0
LINE
  5
491
330
A
100
AcDbEntity
  8
PLB-Tw~
 62
   148
370
    30
390
1D
100
AcDbLine
 10
11.83493828533887
 20
17.50026781870262
 30
0.0
 11
11.83493828533887
 21
17.92433352734036
 31
0.0
  0
LINE
  5
492
330
A
100
AcDbEntity
  8
PLB-Tw~
  6
Continuous
 62
   148
370
    30
390
1D
100
AcDbLine
 10
11.75619812785855
 20
17.50026781870262
 30
0.0
 11
11.83493828533887
 21
17.50026781870262
 31
0.0
  0
LINE
  5
493
330
A
100
AcDbEntity
  8
PLB-Tw~
 62
   148
370
    30
390
1D
100
AcDbLine
 10
11.7168280491184
 20
17.34278750374198
 30
0.0
 11
11.7168280491184
 21
16.87034655886009
 31
0.0
  0
LINE
  5
494
330
A
100
AcDbEntity
  8
PLB-Tw~
 62
   148
370
    30
390
1D
100
AcDbLine
 10
11.71682804911839
 20
16.65381112578922
 30
0.0
 11
11.7168280491184
 21
17.46089773996246
 31
0.0
  0
LINE
  5
495
330
A
100
AcDbEntity
  8
PLB-Tw~
 62
   148
370
    30
390
1D
100
AcDbLine
 10
11.75619812785855
 20
17.50026781870262
 30
0.0
 11
11.7168280491184
 21
17.46089773996246
 31
0.0
  0
LINE
  5
496
330
A
100
AcDbEntity
  8
PLB-Tw~
 62
   148
370
    30
390
1D
100
AcDbLine
 10
12.22863907274045
 20
16.92940167697033
 30
0.0
 11
12.22863907274044
 21
17.64874297615926
 31
0.0
  0
ARC
  5
497
330
A
100
AcDbEntity
  8
PLB-Tw~
 62
   148
370
    30
390
1D
100
AcDbCircle
 10
11.95304852155935
 20
17.92433352734036
 30
0.0
 40
0.1181102362204725
100
AcDbArc
 50
90.0
 51
180.0
  0
LINE
  5
498
330
A
100
AcDbEntity
  8
PLB-Tw~
 62
   148
370
    30
390
1D
100
AcDbLine
 10
11.95304852155935
 20
18.04244376356083
 30
0.0
 11
14.39399340344911
 21
18.04244376356083
 31
0.0
  0
LINE
  5
499
330
A
100
AcDbEntity
  8
PLB-Tw~
 62
   148
370
    30
390
1D
100
AcDbLine
 10
14.63021387589006
 20
7.6971182124034
 30
0.0
 11
14.63021387589006
 21
12.57900797618293
 31
0.0
  0
LINE
  5
49A
330
A
100
AcDbEntity
  8
PLB-Tw~
  6
Continuous
 62
   148
370
    30
390
1D
100
AcDbLine
 10
14.51210363966958
 20
7.657748133663243
 30
0.0
 11
14.5908437971499
 21
7.657748133663243
 31
0.0
  0
LINE
  5
49B
330
A
100
AcDbEntity
  8
PLB-Tw~
 62
   148
370
    30
390
1D
100
AcDbLine
 10
14.51210363966958
 20
7.215672110017524
 30
0.0
 11
14.51210363966958
 21
12.57900797618292
 31
0.0
  0
ARC
  5
49C
330
A
100
AcDbEntity
  8
PLB-Tw~
 62
   148
370
    30
390
1D
100
AcDbCircle
 10
14.39399340344911
 20
7.215672110017524
 30
0.0
 40
0.1181102362204725
100
AcDbArc
 50
270.0
 51
0.0
  0
LINE
  5
49D
330
A
100
AcDbEntity
  8
PLB-Tw~
 62
   148
370
    30
390
1D
100
AcDbLine
 10
14.5908437971499
 20
7.657748133663243
 30
0.0
 11
14.63021387589006
 21
7.6971182124034
 31
0.0
  0
LINE
  5
49E
330
A
100
AcDbEntity
  8
PLB-Tw~
 62
   148
370
    30
390
1D
100
AcDbLine
 10
15.1420248995121
 20
7.736488291143554
 30
0.0
 11
15.14202489951203
 21
12.57900797618293
 31
0.0
  0
LINE
  5
49F
330
A
100
AcDbEntity
  8
PLB-Tw~
  6
Continuous
 62
   148
370
    30
390
1D
100
AcDbLine
 10
14.15777143676076
 20
16.3979056139782
 30
0.0
 11
14.15777143676076
 21
16.43727569271837
 31
0.0
  0
LINE
  5
4A0
330
A
100
AcDbEntity
  8
PLB-Tw~
 62
   148
370
    30
390
1D
100
AcDbLine
 10
15.14202489951209
 20
16.0238898659467
 30
0.0
 11
15.1420248995121
 21
17.42152766122229
 31
0.0
  0
LINE
  5
4A1
330
A
100
AcDbEntity
  8
PLB-Tw~
 62
   148
370
    30
390
1D
100
AcDbLine
 10
14.51210363966957
 20
17.50026781870261
 30
0.0
 11
14.51210363966958
 21
17.92433352734036
 31
0.0
  0
LINE
  5
4A2
330
A
100
AcDbEntity
  8
PLB-Tw~
  6
Continuous
 62
   148
370
    30
390
1D
100
AcDbLine
 10
14.51210363966958
 20
17.50026781870261
 30
0.0
 11
14.63021387589006
 21
17.50026781870261
 31
0.0
  0
LINE
  5
4A3
330
A
100
AcDbEntity
  8
PLB-Tw~
 62
   148
370
    30
390
1D
100
AcDbLine
 10
14.63021387589006
 20
17.50026781870261
 30
0.0
 11
15.06328474203179
 21
17.50026781870261
 31
0.0
  0
LINE
  5
4A4
330
A
100
AcDbEntity
  8
PLB-Tw~
 62
   148
370
    30
390
1D
100
AcDbLine
 10
14.11840285226799
 20
16.92940167697033
 30
0.0
 11
14.11840285226801
 21
17.64874297615926
 31
0.0
  0
LINE
  5
4A5
330
A
100
AcDbEntity
  8
PLB-Tw~
  6
Continuous
 62
   148
370
    30
390
1D
100
AcDbLine
 10
12.22863907274045
 20
16.92940167697034
 30
0.0
 11
14.11840285226799
 21
16.92940167697033
 31
0.0
  0
LINE
  5
4A6
330
A
100
AcDbEntity
  8
PLB-Tw~
  6
Continuous
 62
   148
370
    30
390
1D
100
AcDbLine
 10
11.71682506062358
 20
16.57507096830891
 30
0.0
 11
14.63021387589006
 21
16.57507096830891
 31
0.0
  0
LINE
  5
4A7
330
A
100
AcDbEntity
  8
PLB-Tw~
 62
   148
370
    30
390
1D
100
AcDbLine
 10
14.63021387589006
 20
16.57507096830891
 30
0.0
 11
14.63021387589006
 21
17.50026781870261
 31
0.0
  0
ARC
  5
4A8
330
A
100
AcDbEntity
  8
PLB-Tw~
 62
   148
370
    30
390
1D
100
AcDbCircle
 10
14.39399340344911
 20
17.92433352734036
 30
0.0
 40
0.1181102362204725
100
AcDbArc
 50
0.0
 51
90.0
  0
LINE
  5
4A9
330
A
100
AcDbEntity
  8
PLB-Tw~
  6
Continuous
 62
   148
370
    30
390
1D
100
AcDbLine
 10
11.16958246038278
 20
13.46483474783647
 30
0.0
 11
15.61052734227256
 21
13.46483474783647
 31
0.0
  0
LINE
  5
4AA
330
A
100
AcDbEntity
  8
PLB-Tw~
  6
Continuous
 62
   148
370
    30
390
1D
100
AcDbLine
 10
13.29162970447728
 20
14.42940167697023
 30
0.0
 11
13.29162970447728
 21
15.41365364547426
 31
0.0
  0
LINE
  5
4AB
330
A
100
AcDbEntity
  8
PLB-Tw~
  6
Continuous
 62
   148
370
    30
390
1D
100
AcDbLine
 10
13.05540923203634
 20
14.42940167697023
 30
0.0
 11
13.05540923203634
 21
15.41365364547426
 31
0.0
  0
LINE
  5
4AC
330
A
100
AcDbEntity
  8
PLB-Tw~
  6
Continuous
 62
   148
370
    30
390
1D
100
AcDbLine
 10
14.78769419085068
 20
15.03963789744277
 30
0.0
 11
15.73257608061446
 21
15.03963789744277
 31
0.0
  0
LINE
  5
4AD
330
A
100
AcDbEntity
  8
PLB-Tw~
  6
Continuous
 62
   148
370
    30
390
1D
100
AcDbLine
 10
15.4884815924255
 20
10.11837805492308
 30
0.0
 11
15.72470206486643
 21
10.11837805492308
 31
0.0
  0
LINE
  5
4AE
330
A
100
AcDbEntity
  8
PLB-Tw~
 62
   148
370
    30
390
1D
100
AcDbLine
 10
15.92942498006782
 20
13.95696073208844
 30
0.0
 11
15.92942498006784
 21
13.58294498405694
 31
0.0
  0
LINE
  5
4AF
330
A
100
AcDbEntity
  8
PLB-Tw~
 62
   148
370
    30
390
1D
100
AcDbLine
 10
15.73257608061446
 20
13.95696073208843
 30
0.0
 11
15.73257608061446
 21
13.8979056139782
 31
0.0
  0
LINE
  5
4B0
330
A
100
AcDbEntity
  8
PLB-Tw~
  6
Continuous
 62
   148
370
    30
390
1D
100
AcDbLine
 10
15.73257608061446
 20
13.8979056139782
 30
0.0
 11
15.83887529321288
 21
13.8979056139782
 31
0.0
  0
LINE
  5
4B1
330
A
100
AcDbEntity
  8
PLB-Tw~
  6
Continuous
 62
   148
370
    30
390
1D
100
AcDbLine
 10
15.61052734227256
 20
13.53373238563174
 30
0.0
 11
15.6932045076269
 21
13.53373238563174
 31
0.0
  0
LINE
  5
4B2
330
A
100
AcDbEntity
  8
PLB-Tw~
 62
   148
370
    30
390
1D
100
AcDbLine
 10
15.6932045076269
 20
13.53373238563174
 30
0.0
 11
15.6932045076269
 21
13.46483474783647
 31
0.0
  0
LINE
  5
4B3
330
A
100
AcDbEntity
  8
PLB-Tw~
  6
Continuous
 62
   148
370
    30
390
1D
100
AcDbLine
 10
15.6932045076269
 20
13.46483474783647
 30
0.0
 11
15.81131474384737
 21
13.46483474783647
 31
0.0
  0
LINE
  5
4B4
330
A
100
AcDbEntity
  8
PLB-Tw~
  6
Continuous
 62
   148
370
    30
390
1D
100
AcDbLine
 10
15.83887529321288
 20
13.95696073208844
 30
0.0
 11
15.92942498006782
 21
13.95696073208844
 31
0.0
  0
LINE
  5
4B5
330
A
100
AcDbEntity
  8
PLB-Tw~
  6
Continuous
 62
   148
370
    30
390
1D
100
AcDbLine
 10
13.52785167116564
 20
15.36168885154712
 30
0.0
 11
13.52785167116564
 21
15.47979908776759
 31
0.0
  0
LINE
  5
4B6
330
A
100
AcDbEntity
  8
PLB-Tw~
 62
   148
370
    30
390
1D
100
AcDbLine
 10
13.58352937047166
 20
15.50286154594188
 30
0.0
 11
13.94545430034621
 21
15.14093661606733
 31
0.0
  0
LINE
  5
4B7
330
A
100
AcDbEntity
  8
PLB-Tw~
 62
   148
370
    30
390
1D
100
AcDbLine
 10
13.52785167116564
 20
15.36168885154711
 30
0.0
 11
13.8532800440742
 21
15.03626047863856
 31
0.0
  0
LINE
  5
4B8
330
A
100
AcDbEntity
  8
PLB-Tw~
  6
Continuous
 62
   148
370
    30
390
1D
100
AcDbLine
 10
12.2680076572332
 20
16.53570088956857
 30
0.0
 11
14.07903127928045
 21
16.53570088956877
 31
0.0
  0
LINE
  5
4B9
330
A
100
AcDbEntity
  8
PLB-Tw~
 62
   148
370
    30
390
1D
100
AcDbLine
 10
15.49635560817352
 20
15.03963789744277
 30
0.0
 11
15.49635560817352
 21
16.0238898659467
 31
0.0
  0
LINE
  5
4BA
330
A
100
AcDbEntity
  8
PLB-Tw~
 62
   148
370
    30
390
1D
100
AcDbLine
 10
15.4884815924255
 20
9.134126086419144
 30
0.0
 11
15.48848159242545
 21
12.57900797618293
 31
0.0
  0
ARC
  5
4BB
330
A
100
AcDbEntity
  8
PLB-Tw~
 62
   148
370
    30
390
1D
100
AcDbCircle
 10
15.06328474203179
 20
17.42152766122229
 30
0.0
 40
0.078740157480315
100
AcDbArc
 50
0.0
 51
90.0
  0
LINE
  5
4BC
330
A
100
AcDbEntity
  8
PLB-Tw~
  6
Continuous
 62
   148
370
    30
390
1D
100
AcDbLine
 10
13.48848009817808
 20
14.5475119131908
 30
0.0
 11
14.74832411211053
 21
14.5475119131908
 31
0.0
  0
ARC
  5
4BD
330
A
100
AcDbEntity
  8
PLB-Tw~
 62
   148
370
    30
390
1D
100
AcDbCircle
 10
13.39005490132768
 20
14.42940167697023
 30
0.0
 40
0.0984251968503937
100
AcDbArc
 50
180.0
 51
0.0
  0
LINE
  5
4BE
330
A
100
AcDbEntity
  8
PLB-Tw~
 62
   148
370
    30
390
1D
100
AcDbLine
 10
13.48848009817806
 20
14.90184262185222
 30
0.0
 11
13.48848009817808
 21
14.5475119131908
 31
0.0
  0
ARC
  5
4BF
330
A
100
AcDbEntity
  8
PLB-Tw~
 62
   148
370
    30
390
1D
100
AcDbCircle
 10
12.95698403518595
 20
14.42940167697023
 30
0.0
 40
0.0984251968503937
100
AcDbArc
 50
180.0
 51
0.0
  0
LINE
  5
4C0
330
A
100
AcDbEntity
  8
PLB-Tw~
 62
   148
370
    30
390
1D
100
AcDbLine
 10
10.85068332834011
 20
15.03963789744276
 30
0.0
 11
10.85068332834011
 21
16.0238898659467
 31
0.0
  0
LINE
  5
4C1
330
A
100
AcDbEntity
  8
PLB-Tw~
  6
Continuous
 62
   148
370
    30
390
1D
100
AcDbLine
 10
11.05540773778892
 20
15.03963789744277
 30
0.0
 11
10.85068332834011
 21
15.03963789744276
 31
0.0
  0
LINE
  5
4C2
330
A
100
AcDbEntity
  8
PLB-Tw~
  6
Continuous
 62
   148
370
    30
390
1D
100
AcDbLine
 10
12.00028962755271
 20
15.03963789744277
 30
0.0
 11
11.05540773778892
 21
15.03963789744277
 31
0.0
  0
LINE
  5
4C3
330
A
100
AcDbEntity
  8
PLB-Tw~
 62
   148
370
    30
390
1D
100
AcDbLine
 10
11.20501403700153
 20
16.0238898659467
 30
0.0
 11
11.20501403700153
 21
17.4215276612223
 31
0.0
  0
LINE
  5
4C4
330
A
100
AcDbEntity
  8
PLB-Tw~
 62
   148
370
    30
390
1D
100
AcDbLine
 10
11.67745498188342
 20
17.50026781870262
 30
0.0
 11
11.28375419448185
 21
17.50026781870261
 31
0.0
  0
ARC
  5
4C5
330
A
100
AcDbEntity
  8
PLB-Tw~
 62
   148
370
    30
390
1D
100
AcDbCircle
 10
11.28375419448185
 20
17.4215276612223
 30
0.0
 40
0.078740157480315
100
AcDbArc
 50
90.0
 51
180.0
  0
LINE
  5
4C6
330
A
100
AcDbEntity
  8
PLB-Tw~
 62
   148
370
    30
390
1D
100
AcDbLine
 10
11.71682506062358
 20
16.57507096830891
 30
0.0
 11
11.71682506062358
 21
17.46089773996246
 31
0.0
  0
LINE
  5
4C7
330
A
100
AcDbEntity
  8
PLB-Tw~
 62
   148
370
    30
390
1D
100
AcDbLine
 10
12.85855883833557
 20
14.90184262185221
 30
0.0
 11
12.85855883833556
 21
14.5475119131908
 31
0.0
  0
LINE
  5
4C8
330
A
100
AcDbEntity
  8
PLB-Tw~
  6
Continuous
 62
   148
370
    30
390
1D
100
AcDbLine
 10
12.85855883833556
 20
14.5475119131908
 30
0.0
 11
12.03965970629287
 21
14.5475119131908
 31
0.0
  0
LINE
  5
4C9
330
A
100
AcDbEntity
  8
PLB-Tw~
 62
   148
370
    30
390
1D
100
AcDbLine
 10
12.00028962755271
 20
13.95696073208853
 30
0.0
 11
11.05540773778893
 21
13.95696073208853
 31
0.0
  0
LINE
  5
4CA
330
A
100
AcDbEntity
  8
PLB-Tw~
 62
   148
370
    30
390
1D
100
AcDbLine
 10
10.85068482258752
 20
13.95696073208854
 30
0.0
 11
10.8506848225875
 21
13.58294498405694
 31
0.0
  0
LINE
  5
4CB
330
A
100
AcDbEntity
  8
PLB-Tw~
 62
   148
370
    30
390
1D
100
AcDbLine
 10
11.05540773778893
 20
13.95696073208854
 30
0.0
 11
11.05540773778893
 21
13.8979056139783
 31
0.0
  0
LINE
  5
4CC
330
A
100
AcDbEntity
  8
PLB-Tw~
  6
Continuous
 62
   148
370
    30
390
1D
100
AcDbLine
 10
11.05540773778893
 20
13.8979056139783
 30
0.0
 11
10.9491085251905
 21
13.8979056139783
 31
0.0
  0
LINE
  5
4CD
330
A
100
AcDbEntity
  8
PLB-Tw~
  6
Continuous
 62
   148
370
    30
390
1D
100
AcDbLine
 10
11.16958246038278
 20
13.53373238563174
 30
0.0
 11
11.08690529502845
 21
13.53373238563174
 31
0.0
  0
LINE
  5
4CE
330
A
100
AcDbEntity
  8
PLB-Tw~
 62
   148
370
    30
390
1D
100
AcDbLine
 10
11.08690529502845
 20
13.53373238563174
 30
0.0
 11
11.08690529502845
 21
13.46483474783647
 31
0.0
  0
LINE
  5
4CF
330
A
100
AcDbEntity
  8
PLB-Tw~
  6
Continuous
 62
   148
370
    30
390
1D
100
AcDbLine
 10
11.08690529502845
 20
13.46483474783647
 30
0.0
 11
10.96879505880797
 21
13.46483474783647
 31
0.0
  0
LINE
  5
4D0
330
A
100
AcDbEntity
  8
PLB-Tw~
  6
Continuous
 62
   148
370
    30
390
1D
100
AcDbLine
 10
10.9491085251905
 20
13.95696073208854
 30
0.0
 11
10.85068482258752
 21
13.95696073208854
 31
0.0
  0
LINE
  5
4D1
330
A
100
AcDbEntity
  8
PLB-Tw~
  6
STYLE_03
 62
   148
370
    30
390
1D
100
AcDbLine
 10
11.20501403700153
 20
8.025794342967302
 30
0.0
 11
11.20501403700153
 21
7.736488291143549
 31
0.0
  0
LINE
  5
4D2
330
A
100
AcDbEntity
  8
PLB-Tw~
 62
   148
370
    30
390
1D
100
AcDbLine
 10
11.20501403700148
 20
8.0257943429673
 30
0.0
 11
11.20501403700158
 21
12.57900797618292
 31
0.0
  0
LINE
  5
4D3
330
A
100
AcDbEntity
  8
PLB-Tw~
 62
   148
370
    30
390
1D
100
AcDbLine
 10
10.85068332834008
 20
9.134126086419144
 30
0.0
 11
10.85068332834017
 21
12.57900797618292
 31
0.0
  0
LINE
  5
4D4
330
A
100
AcDbEntity
  8
PLB-Tw~
  6
Continuous
 62
   148
370
    30
390
1D
100
AcDbLine
 10
14.78769419085068
 20
13.95696073208844
 30
0.0
 11
15.73257608061446
 21
13.95696073208844
 31
0.0
  0
LINE
  5
4D5
330
A
100
AcDbEntity
  8
PLB-Tw~
 62
   148
370
    30
390
1D
100
AcDbLine
 10
15.73257608061446
 20
15.03963789744277
 30
0.0
 11
15.73257608061446
 21
13.95696073208844
 31
0.0
  0
LINE
  5
4D6
330
A
100
AcDbEntity
  8
PLB-Tw~
 62
   148
370
    30
390
1D
100
AcDbLine
 10
11.05540773778892
 20
15.03963789744277
 30
0.0
 11
11.05540773778892
 21
13.95696073208853
 31
0.0
  0
LINE
  5
4D7
330
A
100
AcDbEntity
  8
PLB-Tw~
 62
   148
370
    30
390
1D
100
AcDbLine
 10
15.72470206486643
 20
12.57900797618293
 30
0.0
 11
15.72470206486643
 21
10.11837805492308
 31
0.0
  0
LINE
  5
4D8
330
A
100
AcDbEntity
  8
PLB-Tw~
  6
Continuous
 62
   148
370
    30
390
1D
100
AcDbLine
 10
14.15777143676076
 20
16.3979056139782
 30
0.0
 11
14.15777143676076
 21
16.45696073208846
 31
0.0
  0
LINE
  5
4D9
330
A
100
AcDbEntity
  8
PLB-Tw~
  6
Continuous
 62
   148
370
    30
390
1D
100
AcDbLine
 10
12.18926749975287
 20
16.39790561397821
 30
0.0
 11
12.18926749975288
 21
16.45696073208844
 31
0.0
  0
ARC
  5
4DA
330
A
100
AcDbEntity
  8
PLB-Tw~
  6
Continuous
 62
   148
370
    30
390
1D
100
AcDbCircle
 10
14.07903127928045
 20
16.45696073208846
 30
0.0
 40
0.078740157480315
100
AcDbArc
 50
0.0
 51
90.0
  0
ARC
  5
4DB
330
A
100
AcDbEntity
  8
PLB-Tw~
  6
Continuous
 62
   148
370
    30
390
1D
100
AcDbCircle
 10
12.2680076572332
 20
16.45696073208844
 30
0.0
 40
0.078740157480315
100
AcDbArc
 50
90.0
 51
180.0
  0
LINE
  5
4DC
330
A
100
AcDbEntity
  8
PLB-Tw~
 62
   148
370
    30
390
1D
100
AcDbLine
 10
12.18926749975287
 20
16.3979056139782
 30
0.0
 11
13.05540923203634
 21
15.41365364547426
 31
0.0
  0
LINE
  5
4DD
330
A
100
AcDbEntity
  8
PLB-Tw~
 62
   148
370
    30
390
1D
100
AcDbLine
 10
14.15777143676076
 20
16.3979056139782
 30
0.0
 11
13.29162970447728
 21
15.41365364547426
 31
0.0
  0
LINE
  5
4DE
330
A
100
AcDbEntity
  8
PLB-Tw~
 62
   148
370
    30
390
1D
100
AcDbLine
 10
13.52785167116564
 20
15.47979908776759
 30
0.0
 11
13.58352937047166
 21
15.50286154594188
 31
0.0
  0
LINE
  5
4DF
330
A
100
AcDbEntity
  8
PLB-Tw~
  6
Continuous
 62
   148
370
    30
390
1D
100
AcDbLine
 10
12.81918726534799
 20
15.36168885154712
 30
0.0
 11
12.81918726534799
 21
15.47979908776759
 31
0.0
  0
LINE
  5
4E0
330
A
100
AcDbEntity
  8
PLB-Tw~
 62
   148
370
    30
390
1D
100
AcDbLine
 10
12.76350956604197
 20
15.50286154594188
 30
0.0
 11
12.40158463616742
 21
15.14093661606733
 31
0.0
  0
LINE
  5
4E1
330
A
100
AcDbEntity
  8
PLB-Tw~
 62
   148
370
    30
390
1D
100
AcDbLine
 10
12.81918726534799
 20
15.47979908776759
 30
0.0
 11
12.76350956604197
 21
15.50286154594188
 31
0.0
  0
LINE
  5
4E2
330
A
100
AcDbEntity
  8
PLB-Tw~
 62
   148
370
    30
390
1D
100
AcDbLine
 10
12.81918726534799
 20
15.36168885154711
 30
0.0
 11
12.49375889243944
 21
15.03626047863856
 31
0.0
  0
LINE
  5
4E3
330
A
100
AcDbEntity
  8
PLB-Tw~
 62
   148
370
    30
390
1D
100
AcDbLine
 10
15.83887529321288
 20
14.30144892106482
 30
0.0
 11
15.83887529321288
 21
13.8979056139782
 31
0.0
  0
LINE
  5
4E4
330
A
100
AcDbEntity
  8
PLB-Tw~
 62
   148
370
    30
390
1D
100
AcDbLine
 10
10.9491085251905
 20
14.30144892106486
 30
0.0
 11
10.9491085251905
 21
13.8979056139783
 31
0.0
  0
LINE
  5
4E5
330
A
100
AcDbEntity
  8
PLB-Tw~
 62
   148
370
    30
390
1D
100
AcDbLine
 10
15.92942498006784
 20
13.58294498405694
 30
0.0
 11
15.81131474384737
 21
13.46483474783647
 31
0.0
  0
LINE
  5
4E6
330
A
100
AcDbEntity
  8
PLB-Tw~
 62
   148
370
    30
390
1D
100
AcDbLine
 10
10.96879505880797
 20
13.46483474783647
 30
0.0
 11
10.8506848225875
 21
13.58294498405694
 31
0.0
  0
LINE
  5
4E7
330
A
100
AcDbEntity
  8
PLB-Tw~
 62
   148
370
    30
390
1D
100
AcDbLine
 10
11.16958246038278
 20
13.53373238563175
 30
0.0
 11
11.16958246038278
 21
13.46483474783647
 31
0.0
  0
LINE
  5
4E8
330
A
100
AcDbEntity
  8
PLB-Tw~
 62
   148
370
    30
390
1D
100
AcDbLine
 10
15.61052734227256
 20
13.53373238563174
 30
0.0
 11
15.61052734227256
 21
13.46483474783647
 31
0.0
  0
LINE
  5
4E9
330
A
100
AcDbEntity
  8
PLB-Tw~
  6
Continuous
 62
   148
370
    30
390
1D
100
AcDbLine
 10
10.8506848225875
 20
13.60263002342702
 30
0.0
 11
15.92942498006782
 21
13.60263002342702
 31
0.0
  0
LINE
  5
4EA
330
A
100
AcDbEntity
  8
PLB-Tw~
  6
Continuous
 62
   148
370
    30
390
1D
100
AcDbLine
 10
13.48848009817808
 20
14.42940167697023
 30
0.0
 11
13.48848009817808
 21
14.52782687382072
 31
0.0
  0
LINE
  5
4EB
330
A
100
AcDbEntity
  8
PLB-Tw~
  6
Continuous
 62
   148
370
    30
390
1D
100
AcDbLine
 10
12.85855883833556
 20
14.42940167697023
 30
0.0
 11
12.85855883833556
 21
14.52782687382072
 31
0.0
  0
LINE
  5
4EC
330
A
100
AcDbEntity
  8
PLB-Tw~
  6
Continuous
 62
   148
370
    30
390
1D
100
AcDbLine
 10
12.00028962755271
 20
14.84278750374198
 30
0.0
 11
12.03965970629287
 21
14.84278750374198
 31
0.0
  0
LINE
  5
4ED
330
A
100
AcDbEntity
  8
PLB-Tw~
 62
   148
370
    30
390
1D
100
AcDbLine
 10
14.74832411211053
 20
14.84278750374198
 30
0.0
 11
14.74832411211053
 21
14.5475119131908
 31
0.0
  0
LINE
  5
4EE
330
A
100
AcDbEntity
  8
PLB-Tw~
 62
   148
370
    30
390
1D
100
AcDbLine
 10
12.03965970629287
 20
14.84278750374198
 30
0.0
 11
12.03965970629287
 21
14.5475119131908
 31
0.0
  0
LINE
  5
4EF
330
A
100
AcDbEntity
  8
PLB-Tw~
  6
Continuous
 62
   148
370
    30
390
1D
100
AcDbLine
 10
14.74832411211052
 20
14.84278750374198
 30
0.0
 11
14.78769419085068
 21
14.84278750374198
 31
0.0
  0
LINE
  5
4F0
330
A
100
AcDbEntity
  8
PLB-Tw~
  6
Continuous
 62
   148
370
    30
390
1D
100
AcDbLine
 10
12.54943659174546
 20
14.90184262185221
 30
0.0
 11
12.85855883833556
 21
14.90184262185221
 31
0.0
  0
LINE
  5
4F1
330
A
100
AcDbEntity
  8
PLB-Tw~
  6
Continuous
 62
   148
370
    30
390
1D
100
AcDbLine
 10
13.48848009817806
 20
14.90184262185221
 30
0.0
 11
13.79760234476817
 21
14.90184262185221
 31
0.0
  0
LINE
  5
4F2
330
A
100
AcDbEntity
  8
PLB-Tw~
 62
   148
370
    30
390
1D
100
AcDbLine
 10
11.71682506062358
 20
17.46089773996246
 30
0.0
 11
11.67745498188342
 21
17.50026781870262
 31
0.0
  0
ARC
  5
4F3
330
A
100
AcDbEntity
  8
PLB-Tw~
 62
   148
370
    30
390
1D
100
AcDbCircle
 10
13.79760234476817
 20
14.98058277933253
 30
0.0
 40
0.078740157480315
100
AcDbArc
 50
270.0
 51
45.0
  0
ARC
  5
4F4
330
A
100
AcDbEntity
  8
PLB-Tw~
 62
   148
370
    30
390
1D
100
AcDbCircle
 10
12.54943659174546
 20
14.98058277933253
 30
0.0
 40
0.0787401574803156
100
AcDbArc
 50
135.0
 51
270.0
  0
LINE
  5
4F5
330
A
100
AcDbEntity
  8
PLB-Tw~
  6
Continuous
 62
   148
370
    30
390
1D
100
AcDbLine
 10
13.48848009817808
 20
14.52782687382072
 30
0.0
 11
14.74832411211053
 21
14.52782687382072
 31
0.0
  0
LINE
  5
4F6
330
A
100
AcDbEntity
  8
PLB-Tw~
  6
Continuous
 62
   148
370
    30
390
1D
100
AcDbLine
 10
12.03965970629287
 20
14.52782687382072
 30
0.0
 11
12.85855883833556
 21
14.52782687382072
 31
0.0
  0
LINE
  5
4F7
330
A
100
AcDbEntity
  8
PLB-Tw~
 62
   148
370
    30
390
1D
100
AcDbLine
 10
14.31525324596879
 20
16.57507096830891
 30
0.0
 11
14.55147371840973
 21
16.33885049586797
 31
0.0
  0
LINE
  5
4F8
330
A
100
AcDbEntity
  8
PLB-Tw~
 62
   148
370
    30
390
1D
100
AcDbLine
 10
14.55147371840974
 20
15.61050403917505
 30
0.0
 11
14.55147371840973
 21
16.33885049586797
 31
0.0
  0
LINE
  5
4F9
330
A
100
AcDbEntity
  8
PLB-Tw~
 62
   148
370
    30
390
1D
100
AcDbLine
 10
12.03178569054484
 20
16.57507096830891
 30
0.0
 11
11.7955652181039
 21
16.33885049586797
 31
0.0
  0
LINE
  5
4FA
330
A
100
AcDbEntity
  8
PLB-Tw~
 62
   148
370
    30
390
1D
100
AcDbLine
 10
11.79556521810389
 20
15.61050403917505
 30
0.0
 11
11.79556521810389
 21
16.33885049586797
 31
0.0
  0
LINE
  5
4FB
330
A
100
AcDbEntity
  8
PLB-Tw~
 62
   148
370
    30
390
1D
100
AcDbLine
 10
11.79556521810389
 20
15.61050403917505
 30
0.0
 11
12.40158463616742
 21
15.14093661606733
 31
0.0
  0
LINE
  5
4FC
330
A
100
AcDbEntity
  8
PLB-Tw~
 62
   148
370
    30
390
1D
100
AcDbLine
 10
14.55147371840974
 20
15.61050403917505
 30
0.0
 11
13.94545430034621
 21
15.14093661606733
 31
0.0
  0
LINE
  5
4FD
330
A
100
AcDbEntity
  8
PLB-Tw~
 62
    18
370
    25
390
1D
100
AcDbLine
 10
15.92942498006784
 20
13.58294498405694
 30
0.0
 11
15.92942498006784
 21
12.57900797618292
 31
0.0
  0
LINE
  5
4FE
330
A
100
AcDbEntity
  8
PLB-Tw~
 62
    18
370
    25
390
1D
100
AcDbLine
 10
10.8506848225875
 20
13.58294498405694
 30
0.0
 11
10.8506848225875
 21
12.57900797618292
 31
0.0
  0
LINE
  5
4FF
330
A
100
AcDbEntity
  8
PLB-Tw~
 62
   148
370
    30
390
1D
100
AcDbLine
 10
15.92942647431524
 20
11.20105522027751
 30
0.0
 11
15.92942647431531
 21
12.57900797618293
 31
0.0
  0
LINE
  5
500
330
A
100
AcDbEntity
  8
PLB-Tw~
  6
Continuous
 62
   148
370
    30
390
1D
100
AcDbLine
 10
15.83100127746484
 20
11.20105522027752
 30
0.0
 11
15.92942647431523
 21
11.20105522027752
 31
0.0
  0
LINE
  5
501
330
A
100
AcDbEntity
  8
PLB-Tw~
 62
   148
370
    30
390
1D
100
AcDbLine
 10
15.83100127746484
 20
10.85656703130104
 30
0.0
 11
15.83100127746484
 21
12.57900797618293
 31
0.0
  0
LINE
  5
502
330
A
100
AcDbEntity
  8
PLB-Tw~
 62
   148
370
    30
390
1D
100
AcDbLine
 10
15.06328474203179
 20
7.657748133663238
 30
0.0
 11
14.66958395463021
 21
7.657748133663236
 31
0.0
  0
LINE
  5
503
330
A
100
AcDbEntity
  8
PLB-Tw~
 62
   148
370
    30
390
1D
100
AcDbLine
 10
11.67745498188342
 20
7.657748133663237
 30
0.0
 11
11.28375419448184
 21
7.657748133663233
 31
0.0
  0
ARC
  5
504
330
A
100
AcDbEntity
  8
PLB-Tw~
 62
   148
370
    30
390
1D
100
AcDbCircle
 10
11.28375419448184
 20
7.736488291143549
 30
0.0
 40
0.078740157480315
100
AcDbArc
 50
180.0
 51
270.0
  0
ARC
  5
505
330
A
100
AcDbEntity
  8
PLB-Tw~
 62
   148
370
    30
390
1D
100
AcDbCircle
 10
15.06328474203179
 20
7.736488291143554
 30
0.0
 40
0.078740157480315
100
AcDbArc
 50
270.0
 51
0.0
  0
LINE
  5
506
330
A
100
AcDbEntity
  8
PLB-Tw~
 62
   148
370
    30
390
1D
100
AcDbLine
 10
11.71682506062358
 20
7.697118212403394
 30
0.0
 11
11.67745498188342
 21
7.657748133663237
 31
0.0
  0
LINE
  5
507
330
A
100
AcDbEntity
  8
PLB-Tw~
 62
   148
370
    30
390
1D
100
AcDbLine
 10
14.63021387589006
 20
7.697118212403392
 30
0.0
 11
14.66958395463021
 21
7.657748133663236
 31
0.0
  0
LINE
  5
508
330
A
100
AcDbEntity
  8
PLB-Tw~
  6
Continuous
 62
   148
370
    30
390
1D
100
AcDbLine
 10
15.14202489951209
 20
16.0238898659467
 30
0.0
 11
15.49635560817352
 21
16.0238898659467
 31
0.0
  0
LINE
  5
509
330
A
100
AcDbEntity
  8
PLB-Tw~
  6
Continuous
 62
   148
370
    30
390
1D
100
AcDbLine
 10
15.14202489951211
 20
9.134126086419146
 30
0.0
 11
15.4884815924255
 21
9.134126086419144
 31
0.0
  0
LINE
  5
50A
330
A
100
AcDbEntity
  8
PLB-Tw~
  6
Continuous
 62
   148
370
    30
390
1D
100
AcDbLine
 10
11.2050140370015
 20
9.134126086419146
 30
0.0
 11
10.85068332834009
 21
9.134126086419144
 31
0.0
  0
LINE
  5
50B
330
A
100
AcDbEntity
  8
PLB-Tw~
  6
Continuous
 62
   148
370
    30
390
1D
100
AcDbLine
 10
11.20501403700153
 20
16.0238898659467
 30
0.0
 11
10.85068332834011
 21
16.0238898659467
 31
0.0
  0
LINE
  5
50C
330
A
100
AcDbEntity
  8
PLB-Tw~
 62
   148
370
    30
390
1D
100
AcDbLine
 10
14.78769419085068
 20
15.03963789744277
 30
0.0
 11
14.78769419085068
 21
13.95696073208844
 31
0.0
  0
LINE
  5
50D
330
A
100
AcDbEntity
  8
PLB-Tw~
 62
   148
370
    30
390
1D
100
AcDbLine
 10
12.00028962755271
 20
15.03963789744277
 30
0.0
 11
12.00028962755271
 21
13.95696073208853
 31
0.0
  0
LINE
  5
50E
330
A
100
AcDbEntity
  8
PLB-Tw~
  6
Continuous
 62
   148
370
    30
390
1D
100
AcDbLine
 10
14.74832411211053
 20
14.23255128326954
 30
0.0
 11
14.78769419085068
 21
14.23255128326954
 31
0.0
  0
LINE
  5
50F
330
A
100
AcDbEntity
  8
PLB-Tw~
  6
Continuous
 62
   148
370
    30
390
1D
100
AcDbLine
 10
12.00028962755271
 20
14.23255128326954
 30
0.0
 11
12.03965970629287
 21
14.23255128326954
 31
0.0
  0
LINE
  5
510
330
A
100
AcDbEntity
  8
PLB-Tw~
 62
   148
370
    30
390
1D
100
AcDbLine
 10
14.74832411211053
 20
14.52782687382072
 30
0.0
 11
14.74832411211053
 21
14.23255128326954
 31
0.0
  0
LINE
  5
511
330
A
100
AcDbEntity
  8
PLB-Tw~
 62
   148
370
    30
390
1D
100
AcDbLine
 10
12.03965970629287
 20
14.52782687382072
 30
0.0
 11
12.03965970629287
 21
14.23255128326954
 31
0.0
  0
LINE
  5
512
330
A
100
AcDbEntity
  8
PLB-Tw~
  6
STYLE_01
 62
    18
370
    13
390
1D
100
AcDbLine
 10
10.2019633522079
 20
12.57900797618292
 30
0.0
 11
16.58913769114302
 21
12.57900797618293
 31
0.0
  0
CIRCLE
  5
513
330
A
100
AcDbEntity
  8
PLB-Tw~
  6
Continuous
 62
   148
370
    30
390
1D
100
AcDbCircle
 10
11.52784868267082
 20
14.49829931476565
 30
0.0
 40
0.3334413262962244
  0
CIRCLE
  5
514
330
A
100
AcDbEntity
  8
PLB-Tw~
  6
Continuous
 62
   148
370
    30
390
1D
100
AcDbCircle
 10
15.26013513573257
 20
14.4982993147656
 30
0.0
 40
0.3334413262962244
  0
LINE
  5
515
330
A
100
AcDbEntity
  8
PLB-Tw~
  6
Continuous
 62
   148
370
    30
390
1D
100
AcDbLine
 10
11.05540773778892
 20
14.69514970846644
 30
0.0
 11
11.25871481155455
 21
14.69514970846644
 31
0.0
  0
LINE
  5
516
330
A
100
AcDbEntity
  8
PLB-Tw~
  6
Continuous
 62
   148
370
    30
390
1D
100
AcDbLine
 10
11.05540773778892
 20
14.30144892106486
 30
0.0
 11
11.25871481155455
 21
14.30144892106486
 31
0.0
  0
LINE
  5
517
330
A
100
AcDbEntity
  8
PLB-Tw~
  6
Continuous
 62
   148
370
    30
390
1D
100
AcDbLine
 10
14.78769419085068
 20
14.30144892106482
 30
0.0
 11
14.9910012646163
 21
14.30144892106482
 31
0.0
  0
LINE
  5
518
330
A
100
AcDbEntity
  8
PLB-Tw~
  6
Continuous
 62
   148
370
    30
390
1D
100
AcDbLine
 10
14.78769419085068
 20
14.69514970846639
 30
0.0
 11
14.9910012646163
 21
14.69514970846639
 31
0.0
  0
LINE
  5
519
330
A
100
AcDbEntity
  8
PLB-Tw~
  6
Continuous
 62
   148
370
    30
390
1D
100
AcDbLine
 10
11.79698255378709
 20
14.69514970846644
 30
0.0
 11
12.00028962755271
 21
14.69514970846644
 31
0.0
  0
LINE
  5
51A
330
A
100
AcDbEntity
  8
PLB-Tw~
  6
Continuous
 62
   148
370
    30
390
1D
100
AcDbLine
 10
11.7969825537871
 20
14.30144892106486
 30
0.0
 11
12.00028962755271
 21
14.30144892106486
 31
0.0
  0
LINE
  5
51B
330
A
100
AcDbEntity
  8
PLB-Tw~
  6
Continuous
 62
   148
370
    30
390
1D
100
AcDbLine
 10
15.52926900684885
 20
14.30144892106482
 30
0.0
 11
15.73257608061446
 21
14.30144892106482
 31
0.0
  0
LINE
  5
51C
330
A
100
AcDbEntity
  8
PLB-Tw~
  6
Continuous
 62
   148
370
    30
390
1D
100
AcDbLine
 10
15.52926900684885
 20
14.69514970846639
 30
0.0
 11
15.73257608061446
 21
14.69514970846639
 31
0.0
  0
LINE
  5
51D
330
A
100
AcDbEntity
  8
PLB-Tw~
  6
Continuous
 62
    18
370
    13
390
1D
100
AcDbLine
 10
12.22863907274044
 20
17.64874297615926
 30
0.0
 11
14.11840285226799
 21
16.92940167697033
 31
0.0
  0
LINE
  5
51E
330
A
100
AcDbEntity
  8
PLB-Tw~
  6
Continuous
 62
    18
370
    13
390
1D
100
AcDbLine
 10
14.11840285226801
 20
17.64874297615926
 30
0.0
 11
12.22863907274045
 21
16.92940167697033
 31
0.0
  0
LINE
  5
51F
330
A
100
AcDbEntity
  8
PLB-Tw~
  6
Continuous
 62
    18
370
    13
390
1D
100
AcDbLine
 10
11.05540773778892
 20
14.30144892106486
 30
0.0
 11
10.9491085251905
 21
14.30144892106486
 31
0.0
  0
LINE
  5
520
330
A
100
AcDbEntity
  8
PLB-Tw~
  6
Continuous
 62
    18
370
    25
390
1D
100
AcDbLine
 10
15.73257608061446
 20
14.30144892106482
 30
0.0
 11
15.83887529321288
 21
14.30144892106482
 31
0.0
  0
LINE
  5
521
330
A
100
AcDbEntity
  8
PLB-Tw~
  6
Continuous
 62
    18
370
    13
390
1D
100
AcDbLine
 10
15.72470206486643
 20
10.85656703130104
 30
0.0
 11
15.83100127746485
 21
10.85656703130104
 31
0.0
  0
HATCH
  5
522
330
A
100
AcDbEntity
  8
PLB-Tw~
  6
Continuous
 62
    18
370
    13
390
1D
100
AcDbHatch
 10
0.0
 20
0.0
 30
0.0
210
0.0
220
0.0
230
1.0
  2
ANSI31_3
 70
     0
 71
     0
 91
        2
 92
        1
 93
       11
 72
     1
 10
14.63027718390905
 20
16.57426131975327
 11
14.63015056787106
 21
17.50107746725826
 72
     1
 10
14.63015056787106
 20
17.50107746725826
 11
14.51140099432561
 21
17.5002663585881
 72
     1
 10
14.51140099432561
 20
17.5002663585881
 11
14.51216061879024
 21
17.92363307464036
 72
     2
 10
14.39399340344911
 20
17.92433352734036
 40
0.1181692913385842
 50
359.6603752292662
 51
450.3396247707352
 73
     1
 72
     1
 10
14.39329295074911
 20
18.04250074268149
 11
11.95374897425934
 21
18.04250074268149
 72
     2
 10
11.95304852155934
 20
17.92433352734036
 40
0.1181692913385847
 50
89.66037522926544
 51
180.3396247707343
 73
     1
 72
     1
 10
11.83488130621821
 20
17.92363307464036
 11
11.83564093068284
 21
17.50026927881712
 72
     1
 10
11.83564093068284
 20
17.50026927881712
 11
11.756701113848
 21
17.50076586502104
 72
     1
 10
11.756701113848
 20
17.50076586502104
 11
11.71677281076136
 21
17.46169342558942
 72
     1
 10
11.71677281076136
 20
17.46169342558942
 11
11.71612495387507
 21
16.57507096830891
 72
     1
 10
11.71612495387507
 20
16.57507096830891
 11
14.63027718390905
 21
16.57426131975327
 97
        0
 92
        1
 93
        4
 72
     1
 10
14.11835360894623
 20
17.64952828858221
 11
14.11916286515747
 21
16.92943613296238
 72
     1
 10
14.11916286515747
 20
16.92943613296238
 11
12.22787905985096
 21
16.92936722097828
 72
     1
 10
12.22787905985096
 20
16.92936722097828
 11
12.22858982941866
 21
17.64952828858221
 72
     1
 10
12.22858982941866
 20
17.64952828858221
 11
14.11835360894623
 21
17.64952828858221
 97
        0
 75
     0
 76
     2
 52
0.0
 41
1.0
 77
     0
 78
     1
 53
45.0
 43
-22.43081653824953
 44
-3.646371315878535
 45
-0.1325825214724781
 46
0.1325825214724776
 79
     0
 98
        1
 10
0.0
 20
0.0
  0
INSERT
  5
523
330
A
100
AcDbEntity
  8
PLB-Tw~
 62
    18
390
1D
100
AcDbBlockReference
  2
Group
 10
13.9714858141098
 20
10.83550848392538
 30
0.0
  0
LINE
  5
524
330
A
100
AcDbEntity
  8
PLB-Tw~
390
1D
100
AcDbLine
 10
11.33099828897003
 20
14.49829931476565
 30
0.0
 11
11.72469907637161
 21
14.49829931476565
 31
0.0
  0
LINE
  5
525
330
A
100
AcDbEntity
  8
PLB-Tw~
390
1D
100
AcDbLine
 10
11.52784868267082
 20
14.69514970846644
 30
0.0
 11
11.52784868267082
 21
14.30144892106486
 31
0.0
  0
LINE
  5
526
330
A
100
AcDbEntity
  8
PLB-Tw~
390
1D
100
AcDbLine
 10
15.06328474203179
 20
14.4982993147656
 30
0.0
 11
15.45698552943336
 21
14.4982993147656
 31
0.0
  0
LINE
  5
527
330
A
100
AcDbEntity
  8
PLB-Tw~
390
1D
100
AcDbLine
 10
15.26013513573257
 20
14.69514970846639
 30
0.0
 11
15.26013513573257
 21
14.30144892106482
 31
0.0
  0
POLYLINE
  5
528
330
A
100
AcDbEntity
  8
PLB-Tw~
  6
Continuous
 62
    18
370
    25
390
1D
100
AcDb2dPolyline
 66
     1
 10
0.0
 20
0.0
 30
0.0
 70
     1
 75
     5
  0
VERTEX
  5
529
330
528
100
AcDbEntity
  8
PLB-Tw~
  6
Continuous
 62
    18
370
    25
390
1D
100
AcDbVertex
100
AcDb2dVertex
 10
11.05540773778893
 20
13.8979056139783
 30
0.0
  0
VERTEX
  5
52A
330
528
100
AcDbEntity
  8
PLB-Tw~
  6
Continuous
 62
    18
370
    25
390
1D
100
AcDbVertex
100
AcDb2dVertex
 10
11.05540773778892
 20
13.95696073208853
 30
0.0
  0
VERTEX
  5
52B
330
528
100
AcDbEntity
  8
PLB-Tw~
  6
Continuous
 62
    18
370
    25
390
1D
100
AcDbVertex
100
AcDb2dVertex
 10
11.05540773778892
 20
14.30144892106486
 30
0.0
  0
VERTEX
  5
52C
330
528
100
AcDbEntity
  8
PLB-Tw~
  6
Continuous
 62
    18
370
    25
390
1D
100
AcDbVertex
100
AcDb2dVertex
 10
10.9491085251905
 20
14.30144892106486
 30
0.0
  0
VERTEX
  5
52D
330
528
100
AcDbEntity
  8
PLB-Tw~
  6
Continuous
 62
    18
370
    25
390
1D
100
AcDbVertex
100
AcDb2dVertex
 10
10.9491085251905
 20
13.8979056139783
 30
0.0
  0
SEQEND
  5
52E
330
528
100
AcDbEntity
  8
PLB-Tw~
  6
Continuous
 62
    18
370
    25
390
1D
  0
LINE
  5
530
330
A
100
AcDbEntity
  8
PLB-Tw~
  6
Continuous
 62
   148
370
    30
390
1D
100
AcDbLine
 10
11.39005340708028
 20
19.46469548730646
 30
0.0
 11
11.44910852519051
 21
19.46469548730646
 31
0.0
  0
LINE
  5
531
330
A
100
AcDbEntity
  8
PLB-Tw~
  6
Continuous
 62
    18
370
    25
390
1D
100
AcDbLine
 10
10.96879505880797
 20
13.46483474783647
 30
0.0
 11
10.96879505880797
 21
12.57900797618292
 31
0.0
  0
LINE
  5
532
330
A
100
AcDbEntity
  8
PLB-Tw~
  6
Continuous
 62
    18
370
    25
390
1D
100
AcDbLine
 10
11.08690529502845
 20
13.46483474783647
 30
0.0
 11
11.08690529502845
 21
12.57900797618292
 31
0.0
  0
LINE
  5
533
330
A
100
AcDbEntity
  8
PLB-Tw~
  6
Continuous
 62
    18
370
    25
390
1D
100
AcDbLine
 10
11.16958246038278
 20
13.46483474783647
 30
0.0
 11
11.16958246038278
 21
12.57900797618292
 31
0.0
  0
LINE
  5
534
330
A
100
AcDbEntity
  8
PLB-Tw~
  6
Continuous
 62
    18
370
    25
390
1D
100
AcDbLine
 10
15.61052734227256
 20
13.46483474783647
 30
0.0
 11
15.61052734227256
 21
12.57900797618292
 31
0.0
  0
LINE
  5
535
330
A
100
AcDbEntity
  8
PLB-Tw~
  6
Continuous
 62
    18
370
    25
390
1D
100
AcDbLine
 10
15.6932045076269
 20
13.46483474783647
 30
0.0
 11
15.6932045076269
 21
12.57900797618292
 31
0.0
  0
LINE
  5
536
330
A
100
AcDbEntity
  8
PLB-Tw~
  6
Continuous
 62
    18
370
    25
390
1D
100
AcDbLine
 10
15.81131474384737
 20
13.46483474783647
 30
0.0
 11
15.81131474384737
 21
12.57900797618292
 31
0.0
  0
HATCH
  5
537
330
A
100
AcDbEntity
  8
PLB-Tw~
  6
Continuous
 62
    18
370
    13
390
1D
100
AcDbHatch
 10
0.0
 20
0.0
 30
0.0
210
0.0
220
0.0
230
1.0
  2
ANSI31_5
 70
     0
 71
     0
 91
        1
 92
        1
 93
       36
 72
     1
 10
15.92942498006782
 20
13.95696073208844
 11
15.83887529321288
 21
13.95696073208844
 72
     1
 10
15.83887529321288
 20
13.95696073208844
 11
15.83887529321288
 21
13.8979056139782
 72
     1
 10
15.83887529321288
 20
13.8979056139782
 11
15.73257608061446
 21
13.8979056139782
 72
     1
 10
15.73257608061446
 20
13.8979056139782
 11
15.73257608061446
 21
13.95696073208844
 72
     1
 10
15.73257608061446
 20
13.95696073208844
 11
14.78769419085068
 21
13.95696073208844
 72
     1
 10
14.78769419085068
 20
13.95696073208844
 11
14.78769419085068
 21
14.23255128326954
 72
     1
 10
14.78769419085068
 20
14.23255128326954
 11
14.74832411211053
 21
14.23255128326954
 72
     1
 10
14.74832411211053
 20
14.23255128326954
 11
14.74832411211053
 21
14.52782687382072
 72
     1
 10
14.74832411211053
 20
14.52782687382072
 11
13.48848009817808
 21
14.52782687382072
 72
     1
 10
13.48848009817808
 20
14.52782687382072
 11
13.48848009817808
 21
14.42940167697023
 72
     2
 10
13.39005490132768
 20
14.42940167697023
 40
0.0984251968503982
 50
0.0
 51
90.0
 73
     0
 72
     2
 10
13.39005490132768
 20
14.42940167697023
 40
0.0984251968503982
 50
90.0
 51
180.0
 73
     0
 72
     1
 10
13.29162970447728
 20
14.42940167697023
 11
13.29162970447728
 21
15.41365364547426
 72
     1
 10
13.29162970447728
 20
15.41365364547426
 11
14.15777143676076
 21
16.3979056139782
 72
     1
 10
14.15777143676076
 20
16.3979056139782
 11
14.15777143676076
 21
16.45696073208846
 72
     2
 10
14.07903127928045
 20
16.45696073208845
 40
0.0787401574803116
 50
0.0000000000024427
 51
90.00000000000162
 73
     1
 72
     1
 10
14.07903127928045
 20
16.53570088956877
 11
12.2680076572332
 21
16.53570088956875
 72
     2
 10
12.26800765723319
 20
16.45696073208844
 40
0.0787401574803127
 50
90.0
 51
179.9999999999991
 73
     1
 72
     1
 10
12.18926749975288
 20
16.45696073208844
 11
12.18926749975287
 21
16.3979056139782
 72
     1
 10
12.18926749975287
 20
16.3979056139782
 11
13.05540923203634
 21
15.41365364547426
 72
     1
 10
13.05540923203634
 20
15.41365364547426
 11
13.05540923203634
 21
14.42940167697023
 72
     2
 10
12.95698403518595
 20
14.42940167697023
 40
0.0984251968503937
 50
0.0
 51
90.0
 73
     0
 72
     2
 10
12.95698403518595
 20
14.42940167697023
 40
0.0984251968503937
 50
90.0
 51
180.0
 73
     0
 72
     1
 10
12.85855883833556
 20
14.42940167697023
 11
12.85855883833556
 21
14.52782687382072
 72
     1
 10
12.85855883833556
 20
14.52782687382072
 11
12.03965970629287
 21
14.52782687382072
 72
     1
 10
12.03965970629287
 20
14.52782687382072
 11
12.03965970629287
 21
14.23255128326954
 72
     1
 10
12.03965970629287
 20
14.23255128326954
 11
12.00028962755271
 21
14.23255128326954
 72
     1
 10
12.00028962755271
 20
14.23255128326954
 11
12.00028962755271
 21
13.95696073208853
 72
     1
 10
12.00028962755271
 20
13.95696073208853
 11
11.05540773778893
 21
13.95696073208854
 72
     1
 10
11.05540773778893
 20
13.95696073208854
 11
11.05540773778893
 21
13.8979056139783
 72
     1
 10
11.05540773778893
 20
13.8979056139783
 11
10.9491085251905
 21
13.8979056139783
 72
     1
 10
10.9491085251905
 20
13.8979056139783
 11
10.9491085251905
 21
13.95696073208854
 72
     1
 10
10.9491085251905
 20
13.95696073208854
 11
10.85068482258752
 21
13.95696073208854
 72
     1
 10
10.85068482258752
 20
13.95696073208854
 11
10.8506848225875
 21
13.60263002342702
 72
     1
 10
10.8506848225875
 20
13.60263002342702
 11
15.92942498006784
 21
13.60263002342702
 72
     1
 10
15.92942498006784
 20
13.60263002342702
 11
15.92942498006782
 21
13.95696073208844
 97
        0
 75
     0
 76
     2
 52
0.0
 41
1.0
 77
     0
 78
     1
 53
45.0
 43
-6.196392637123261
 44
-3.646371315878535
 45
-0.1679378605318046
 46
0.1679378605318051
 79
     0
 98
        1
 10
0.0
 20
0.0
  0
LINE
  5
538
330
A
100
AcDbEntity
  8
PLB-Tw~
  6
STYLE_01
 62
    18
370
     5
390
1D
100
AcDbLine
 10
26.43700787401575
 20
15.33491348799394
 30
0.0
 11
26.43700787401575
 21
15.72861427539552
 31
0.0
  0
CIRCLE
  5
539
330
A
100
AcDbEntity
  8
PLB-Tw~
  6
STYLE_12
 62
     5
370
    15
390
1D
100
AcDbCircle
 10
26.43700787401575
 20
12.57900797618293
 30
0.0
 40
2.952755905511807
  0
CIRCLE
  5
53A
330
A
100
AcDbEntity
  8
PLB-Tw~
  6
Continuous
 62
   148
370
    35
390
1D
100
AcDbCircle
 10
26.43700787401575
 20
12.57900797618292
 30
0.0
 40
3.44488188976378
  0
CIRCLE
  5
53B
330
A
100
AcDbEntity
  8
PLB-Tw~
  6
Continuous
 62
   148
370
    35
390
1D
100
AcDbCircle
 10
26.43700787401575
 20
12.57900797618292
 30
0.0
 40
1.377952755905619
  0
CIRCLE
  5
53C
330
A
100
AcDbEntity
  8
PLB-Tw~
  6
Continuous
 62
   148
370
    30
390
1D
100
AcDbCircle
 10
26.43700787401575
 20
12.57900797618292
 30
0.0
 40
2.460629921259838
  0
CIRCLE
  5
53D
330
A
100
AcDbEntity
  8
PLB-Tw~
  6
Continuous
 62
   148
370
    35
390
1D
100
AcDbCircle
 10
26.43700787401575
 20
12.57900797618292
 30
0.0
 40
4.92125984251969
  0
CIRCLE
  5
53E
330
A
100
AcDbEntity
  8
PLB-Tw~
  6
Continuous
 62
   148
370
    35
390
1D
100
AcDbCircle
 10
-0.024130817306224
 20
12.57900797618292
 30
0.0
 40
3.44488188976378
  0
CIRCLE
  5
53F
330
A
100
AcDbEntity
  8
PLB-Tw~
  6
Continuous
 62
   148
370
    35
390
1D
100
AcDbCircle
 10
-0.024130817306224
 20
12.57900797618292
 30
0.0
 40
1.377952755905619
  0
CIRCLE
  5
540
330
A
100
AcDbEntity
  8
PLB-Tw~
  6
Continuous
 62
   148
370
    35
390
1D
100
AcDbCircle
 10
-0.024130817306224
 20
12.57900797618292
 30
0.0
 40
2.460629921259838
  0
CIRCLE
  5
541
330
A
100
AcDbEntity
  8
PLB-Tw~
  6
Continuous
 62
   148
370
    30
390
1D
100
AcDbCircle
 10
-0.024130817306224
 20
12.57900797618292
 30
0.0
 40
4.92125984251969
  0
LINE
  5
542
330
A
100
AcDbEntity
  8
PLB-Tw~
  6
STYLE_01
 62
    18
370
    13
390
1D
100
AcDbLine
 10
-0.024130817306224
 20
18.36105299828397
 30
0.0
 11
-0.024130817306224
 21
12.9727087635845
 31
0.0
  0
LINE
  5
543
330
A
100
AcDbEntity
  8
PLB-Tw~
  6
Continuous
 62
   148
370
    25
390
1D
100
AcDbLine
 10
-3.355839914946575
 20
18.44462594215676
 30
0.0
 11
-3.284239389436838
 21
18.48596452483392
 31
0.0
  0
LINE
  5
544
330
A
100
AcDbEntity
  8
PLB-Tw~
  6
Continuous
 62
   148
370
    25
390
1D
100
AcDbLine
 10
-3.425442148015396
 20
18.56518054615221
 30
0.0
 11
-3.353841622505662
 21
18.60651912882938
 31
0.0
  0
LINE
  5
545
330
A
100
AcDbEntity
  8
PLB-Tw~
  6
Continuous
 62
   148
370
    25
390
1D
100
AcDbLine
 10
-3.626515265769772
 20
18.91344940213907
 30
0.0
 11
-3.554914740260038
 21
18.95478798481623
 31
0.0
  0
LINE
  5
546
330
A
100
AcDbEntity
  8
PLB-Tw~
  6
Continuous
 62
   148
370
    25
390
1D
100
AcDbLine
 10
-3.353841622505662
 20
18.60651912882938
 30
0.0
 11
-3.555109770980284
 21
18.95512578793274
 31
0.0
  0
LINE
  5
547
330
A
100
AcDbEntity
  8
PLB-Tw~
  6
Continuous
 62
   148
370
    25
390
1D
100
AcDbLine
 10
-3.425442148015396
 20
18.56518054615221
 30
0.0
 11
-3.626710296490018
 21
18.91378720525557
 31
0.0
  0
LINE
  5
548
330
A
100
AcDbEntity
  8
PLB-Tw~
  6
Continuous
 62
   148
370
    25
390
1D
100
AcDbLine
 10
-3.56514066361645
 20
18.94887775637974
 30
0.0
 11
-3.74301576015953
 21
19.25696646099357
 31
0.0
  0
LINE
  5
549
330
A
100
AcDbEntity
  8
PLB-Tw~
  6
Continuous
 62
   148
370
    25
390
1D
100
AcDbLine
 10
-3.616283896123402
 20
18.91935019732462
 30
0.0
 11
-3.794158992666482
 21
19.22743890193846
 31
0.0
  0
LINE
  5
54A
330
A
100
AcDbEntity
  8
PLB-Tw~
  6
Continuous
 62
   148
370
    25
390
1D
100
AcDbLine
 10
-3.794158992666482
 20
19.22743890193846
 30
0.0
 11
-3.74301576015953
 21
19.25696646099357
 31
0.0
  0
LINE
  5
54B
330
A
100
AcDbEntity
  8
PLB-Tw~
  6
Continuous
 62
   148
370
    30
390
1D
100
AcDbLine
 10
-2.651088841099781
 20
17.38931560627405
 30
0.0
 11
-3.284239389436838
 21
18.48596452483392
 31
0.0
  0
LINE
  5
54C
330
A
100
AcDbEntity
  8
PLB-Tw~
  6
Continuous
 62
   148
370
    30
390
1D
100
AcDbLine
 10
-2.723646183734875
 20
17.34963427947155
 30
0.0
 11
-3.355839914946575
 21
18.44462594215676
 31
0.0
  0
LINE
  5
54D
330
A
100
AcDbEntity
  8
PLB-Tw~
  6
Continuous
 62
   148
370
    30
390
1D
100
AcDbLine
 10
-3.509650961423525
 20
18.35582309306895
 30
0.0
 11
-3.438050435913791
 21
18.39716167574612
 31
0.0
  0
LINE
  5
54E
330
A
100
AcDbEntity
  8
PLB-Tw~
  6
Continuous
 62
   148
370
    25
390
1D
100
AcDbLine
 10
-3.579253194492349
 20
18.4763776970644
 30
0.0
 11
-3.507652668982612
 21
18.51771627974157
 31
0.0
  0
LINE
  5
54F
330
A
100
AcDbEntity
  8
PLB-Tw~
  6
Continuous
 62
   148
370
    25
390
1D
100
AcDbLine
 10
-3.780326312246725
 20
18.82464655305126
 30
0.0
 11
-3.708725786736988
 21
18.86598513572842
 31
0.0
  0
LINE
  5
550
330
A
100
AcDbEntity
  8
PLB-Tw~
  6
Continuous
 62
   148
370
    25
390
1D
100
AcDbLine
 10
-3.507652668982612
 20
18.51771627974157
 30
0.0
 11
-3.708920817457233
 21
18.86632293884493
 31
0.0
  0
LINE
  5
551
330
A
100
AcDbEntity
  8
PLB-Tw~
  6
Continuous
 62
   148
370
    25
390
1D
100
AcDbLine
 10
-3.579253194492349
 20
18.4763776970644
 30
0.0
 11
-3.780521342966974
 21
18.82498435616776
 31
0.0
  0
LINE
  5
552
330
A
100
AcDbEntity
  8
PLB-Tw~
  6
Continuous
 62
   148
370
    25
390
1D
100
AcDbLine
 10
-3.7189517100934
 20
18.86007490729193
 30
0.0
 11
-3.896826806636479
 21
19.16816361190577
 31
0.0
  0
LINE
  5
553
330
A
100
AcDbEntity
  8
PLB-Tw~
  6
Continuous
 62
   148
370
    25
390
1D
100
AcDbLine
 10
-3.770094942600352
 20
18.83054734823681
 30
0.0
 11
-3.947970039143431
 21
19.13863605285065
 31
0.0
  0
LINE
  5
554
330
A
100
AcDbEntity
  8
PLB-Tw~
  6
Continuous
 62
   148
370
    25
390
1D
100
AcDbLine
 10
-3.947970039143431
 20
19.13863605285065
 30
0.0
 11
-3.896826806636479
 21
19.16816361190577
 31
0.0
  0
LINE
  5
555
330
A
100
AcDbEntity
  8
PLB-Tw~
  6
Continuous
 62
   148
370
    30
390
1D
100
AcDbLine
 10
-2.805856704702087
 20
17.3021700130609
 30
0.0
 11
-3.438050435913791
 21
18.39716167574612
 31
0.0
  0
LINE
  5
556
330
A
100
AcDbEntity
  8
PLB-Tw~
  6
Continuous
 62
   148
370
    30
390
1D
100
AcDbLine
 10
-2.876500413086465
 20
17.25917417450907
 30
0.0
 11
-3.509650961423525
 21
18.35582309306895
 31
0.0
  0
MTEXT
  5
557
330
A
100
AcDbEntity
  8
DRAWING
 62
     7
390
1D
100
AcDbMText
 10
4.267207765370834
 20
26.07404663777986
 30
0.0
 40
0.717328938533846
 41
0.0
 46
0.0
 71
     1
 72
     1
  1
MAGNETIC PARTICLE BRAKE PLB-200
  7
Helvetica
 73
     1
 44
0.8397955333929319
  0
MTEXT
  5
558
330
A
100
AcDbEntity
  8
None
 62
     7
390
1D
100
AcDbMText
 10
-5.566052200708835
 20
-3.494031764243754
 30
0.0
 40
0.4743935229500436
 41
0.0
 46
0.0
 71
     1
 72
     1
  1
Units : inches\PScale : 1/4
  7
Helvetica
 73
     1
 44
0.8397955333929318
  0
MTEXT
  5
559
330
A
100
AcDbEntity
  8
None
 62
     7
390
1D
100
AcDbMText
 10
11.17768415547562
 20
-3.704882670506978
 30
0.0
 40
0.3557951420524249
 41
4.574222074883949
 46
0.0
 71
     1
 72
     1
  1
Drawn      10/5/12\PChanged  10/8/12
  7
Helvetica
 73
     1
 44
0.8397955333929318
  0
INSERT
  5
55A
330
A
100
AcDbEntity
  8
None
 62
     7
390
1D
100
AcDbBlockReference
  2
Group-11
 10
13.9714858141098
 20
10.83550848392538
 30
0.0
  0
LINE
  5
55B
330
A
100
AcDbEntity
  8
PLB-Tw~
  6
Continuous
 62
   148
370
    30
390
1D
100
AcDbLine
 10
29.83558452287123
 20
18.40601994346265
 30
0.0
 11
29.93787098788515
 21
18.34696482535241
 31
0.0
  0
LINE
  5
55C
330
A
100
AcDbEntity
  8
PLB-Tw~
  6
Continuous
 62
   148
370
    30
390
1D
100
AcDbLine
 10
29.90518675594005
 20
18.5265745474581
 30
0.0
 11
30.00747322095397
 21
18.46751942934786
 31
0.0
  0
LINE
  5
55D
330
A
100
AcDbEntity
  8
PLB-Tw~
  6
Continuous
 62
   148
370
    30
390
1D
100
AcDbLine
 10
30.10625987369443
 20
18.87484340344496
 30
0.0
 11
30.20854633870834
 21
18.81578828533473
 31
0.0
  0
LINE
  5
55E
330
A
100
AcDbEntity
  8
PLB-Tw~
  6
Continuous
 62
   148
370
    30
390
1D
100
AcDbLine
 10
30.00747322095397
 20
18.46751942934786
 30
0.0
 11
30.20854633870834
 21
18.81578828533473
 31
0.0
  0
LINE
  5
55F
330
A
100
AcDbEntity
  8
PLB-Tw~
  6
Continuous
 62
   148
370
    30
390
1D
100
AcDbLine
 10
29.90518675594005
 20
18.5265745474581
 30
0.0
 11
30.10625987369443
 21
18.87484340344496
 31
0.0
  0
LINE
  5
560
330
A
100
AcDbEntity
  8
PLB-Tw~
  6
Continuous
 62
   148
370
    30
390
1D
100
AcDbLine
 10
30.18467949687176
 20
18.82956781289378
 30
0.0
 11
30.36255187026985
 21
19.13765180088215
 31
0.0
  0
LINE
  5
561
330
A
100
AcDbEntity
  8
PLB-Tw~
  6
Continuous
 62
   148
370
    30
390
1D
100
AcDbLine
 10
30.13012671553101
 20
18.8610638758859
 30
0.0
 11
30.30799908892911
 21
19.16914786387427
 31
0.0
  0
LINE
  5
562
330
A
100
AcDbEntity
  8
PLB-Tw~
  6
Continuous
 62
   148
370
    30
390
1D
100
AcDbLine
 10
30.30799908892911
 20
19.16914786387427
 30
0.0
 11
30.36255187026985
 21
19.13765180088215
 31
0.0
  0
LINE
  5
563
330
A
100
AcDbEntity
  8
PLB-Tw~
  6
Continuous
 62
   148
370
    30
390
1D
100
AcDbLine
 10
29.30478240960199
 20
17.25042324207446
 30
0.0
 11
29.93787098788515
 21
18.34696482535241
 31
0.0
  0
LINE
  5
564
330
A
100
AcDbEntity
  8
PLB-Tw~
  6
Continuous
 62
   148
370
    30
390
1D
100
AcDbLine
 10
29.20345285551352
 20
17.31113577852587
 30
0.0
 11
29.83558452287123
 21
18.40601994346266
 31
0.0
  0
LINE
  5
565
330
A
100
AcDbEntity
  8
PLB-Tw~
  6
Continuous
 62
   148
370
    30
390
1D
100
AcDbLine
 10
29.68177347639428
 20
18.49482279255045
 30
0.0
 11
29.78405994140819
 21
18.43576767444022
 31
0.0
  0
LINE
  5
566
330
A
100
AcDbEntity
  8
PLB-Tw~
  6
Continuous
 62
   148
370
    30
390
1D
100
AcDbLine
 10
29.7513757094631
 20
18.61537739654591
 30
0.0
 11
29.85366217447701
 21
18.55632227843568
 31
0.0
  0
LINE
  5
567
330
A
100
AcDbEntity
  8
PLB-Tw~
  6
Continuous
 62
   148
370
    30
390
1D
100
AcDbLine
 10
29.95244882721747
 20
18.96364625253277
 30
0.0
 11
30.05473529223139
 21
18.90459113442253
 31
0.0
  0
LINE
  5
568
330
A
100
AcDbEntity
  8
PLB-Tw~
  6
Continuous
 62
   148
370
    30
390
1D
100
AcDbLine
 10
29.85366217447701
 20
18.55632227843568
 30
0.0
 11
30.05473529223139
 21
18.90459113442253
 31
0.0
  0
LINE
  5
569
330
A
100
AcDbEntity
  8
PLB-Tw~
  6
Continuous
 62
   148
370
    30
390
1D
100
AcDbLine
 10
29.7513757094631
 20
18.61537739654591
 30
0.0
 11
29.95244882721747
 21
18.96364625253277
 31
0.0
  0
LINE
  5
56A
330
A
100
AcDbEntity
  8
PLB-Tw~
  6
Continuous
 62
   148
370
    30
390
1D
100
AcDbLine
 10
30.03086845039481
 20
18.91837066198158
 30
0.0
 11
30.2087408237929
 21
19.22645464996995
 31
0.0
  0
LINE
  5
56B
330
A
100
AcDbEntity
  8
PLB-Tw~
  6
Continuous
 62
   148
370
    30
390
1D
100
AcDbLine
 10
29.97631566905406
 20
18.9498667249737
 30
0.0
 11
30.15418804245216
 21
19.25795071296208
 31
0.0
  0
LINE
  5
56C
330
A
100
AcDbEntity
  8
PLB-Tw~
  6
Continuous
 62
   148
370
    30
390
1D
100
AcDbLine
 10
30.15418804245216
 20
19.25795071296208
 30
0.0
 11
30.2087408237929
 21
19.22645464996995
 31
0.0
  0
LINE
  5
56D
330
A
100
AcDbEntity
  8
PLB-Tw~
  6
Continuous
 62
   148
370
    30
390
1D
100
AcDbLine
 10
29.15192827405048
 20
17.34088350950343
 30
0.0
 11
29.78405994140819
 21
18.43576767444022
 31
0.0
  0
LINE
  5
56E
330
A
100
AcDbEntity
  8
PLB-Tw~
  6
Continuous
 62
   148
370
    30
390
1D
100
AcDbLine
 10
29.04868489811113
 20
17.39828120927249
 30
0.0
 11
29.68177347639428
 21
18.49482279255046
 31
0.0
  0
CIRCLE
  5
56F
330
A
100
AcDbEntity
  8
PLB-Tw~
  6
Continuous
 62
   148
370
    35
390
1D
100
AcDbCircle
 10
26.43700787401575
 20
12.57900797618292
 30
0.0
 40
5.481446102385876
  0
MTEXT
  5
570
330
A
100
AcDbEntity
  8
0
 62
     5
390
1D
100
AcDbMText
 10
22.9916172141897
 20
21.59674553742356
 30
0.0
 40
0.3188128615705982
 41
0.0
 46
0.0
 71
     2
 72
     1
  1
{\LMOUNTING HOLES}\P6X M10-1.5 x 14 mm\PTHIS SIDE ONLY
  7
Helvetica
 73
     1
 44
0.9447699750670484
  0
MTEXT
  5
571
330
A
100
AcDbEntity
  8
0
 62
     5
390
1D
100
AcDbMText
 10
27.37560806427719
 20
20.59234402235544
 30
0.0
 40
0.3188128615705982
 41
2.786112673411646
 46
0.0
 71
     2
 72
     1
  1
3/8-19 BSPT\PCOOLING\PAIR PORT
  7
Helvetica
 73
     1
 44
0.8397955333929318
  0
MTEXT
  5
572
330
A
100
AcDbEntity
  8
0
 62
     5
390
1D
100
AcDbMText
 10
30.03884547701691
 20
17.74428045016544
 30
0.0
 40
0.3188128615705982
 41
0.0
 46
0.0
 71
     1
 72
     1
  1
M8-1.25 x 19\PFOR LIFTING
  7
Helvetica
 73
     1
 44
0.9447699750670484
  0
LINE
  5
573
330
A
100
AcDbEntity
  8
None
  6
STYLE_16
 62
     7
370
    15
390
1D
100
AcDbLine
 10
26.73823795467539
 20
17.58222832282238
 30
0.0
 11
26.76181101956178
 21
18.03531747591127
 31
0.0
  0
LINE
  5
574
330
A
100
AcDbEntity
  8
None
  6
STYLE_16
 62
     7
370
    15
390
1D
100
AcDbLine
 10
26.13597769025655
 20
17.57801453231284
 30
0.0
 11
26.11220472846972
 21
18.03556145013555
 31
0.0
  0
LINE
  5
575
330
A
100
AcDbEntity
  8
None
  6
STYLE_16
 62
     7
370
    15
390
1D
100
AcDbLine
 10
26.17497845715728
 20
17.57984623868212
 30
0.0
 11
26.15120060804191
 21
18.03748722059877
 31
0.0
  0
LINE
  5
576
330
A
100
AcDbEntity
  8
None
  6
STYLE_16
 62
     7
370
    15
390
1D
100
AcDbLine
 10
26.69482591950819
 20
17.57982809258248
 30
0.0
 11
26.7186357179333
 21
18.03746741337685
 31
0.0
  0
LINE
  5
577
330
A
100
AcDbEntity
  8
None
  6
STYLE_17
 62
     5
370
    15
390
1D
100
AcDbLine
 10
26.43464151266574
 20
17.36885278255697
 30
0.0
 11
26.43467174669235
 21
18.23499451431275
 31
0.0
  0
DIMENSION
  5
578
330
A
100
AcDbEntity
  8
Dimension
  6
Continuous
 62
     5
370
    15
390
1D
100
AcDbDimension
  2
*D13
 10
27.82372209548499
 20
9.972134157696535
 30
0.0
 11
22.03178758030868
 21
19.08407612581289
 31
0.0
 70
     3
 71
     5
 42
-1.0
 73
     0
 74
     0
 75
     0
  3
Placid2
100
AcDbDiametricDimension
 15
25.05029365254651
 25
15.18588179466931
 35
0.0
 40
4.415409848567227
1001
ACAD
1000
DSTYLE
1002
{
1070
   172
1070
     0
1070
   289
1070
     0
1070
   342
1005
90
1070
   340
1005
73
1070
    75
1070
     1
1070
    76
1070
     1
1070
     3
1000

1070
   174
1070
     0
1070
   147
1040
0.0625
1002
}
  0
DIMENSION
  5
579
330
A
100
AcDbEntity
  8
Dimension
  6
Continuous
 62
     5
370
    15
390
1D
100
AcDbDimension
  2
*D14
 10
10.85068332834011
 20
20.94514970846639
 30
0.0
 11
13.17351946825682
 21
20.94514970846639
 31
0.0
 70
   128
 71
     5
 42
-1.0
 73
     0
 74
     0
 75
     0
  3
Placid2
100
AcDbAlignedDimension
 13
15.49635560817352
 23
16.0238898659467
 33
0.0
 14
10.85068332834011
 24
16.0238898659467
 34
0.0
100
AcDbRotatedDimension
1001
ACAD
1000
DSTYLE
1002
{
1070
   340
1005
73
1070
   147
1040
0.0625
1002
}
  0
DIMENSION
  5
57A
330
A
100
AcDbEntity
  8
Dimension
  6
Continuous
 62
     5
370
    15
390
1D
100
AcDbDimension
  2
*D15
 10
15.73257608061446
 20
19.21286624389946
 30
0.0
 11
16.82595463842055
 21
19.21286624389946
 31
0.0
 70
   128
 71
     5
 42
-1.0
 73
     0
 74
     0
 75
     0
  3
Placid2
100
AcDbAlignedDimension
 13
15.49635560817352
 23
16.0238898659467
 33
0.0
 14
15.73257608061446
 24
15.03963789744277
 34
0.0
100
AcDbRotatedDimension
1001
ACAD
1000
DSTYLE
1002
{
1070
   340
1005
73
1070
   174
1070
     0
1070
   147
1040
0.0625
1002
}
  0
DIMENSION
  5
57B
330
A
100
AcDbEntity
  8
Dimension
  6
Continuous
 62
     5
370
    15
390
1D
100
AcDbDimension
  2
*D16
 10
25.34747872212196
 20
14.78527764160753
 30
0.0
 11
30.17698363966958
 21
6.919007976182926
 31
0.0
 70
     3
 71
     5
 42
-1.0
 73
     0
 74
     0
 75
     0
  3
Placid2
100
AcDbDiametricDimension
 15
27.52653702590953
 25
10.37273831075832
 35
0.0
 40
3.851910006469411
1001
ACAD
1000
DSTYLE
1002
{
1070
   172
1070
     0
1070
   289
1070
     0
1070
   342
1005
90
1070
   340
1005
73
1070
    75
1070
     1
1070
    76
1070
     1
1070
    72
1070
     1
1070
    48
1040
0.0019685039370079
1070
     3
1000

1070
   174
1070
     0
1070
   147
1040
0.0625
1002
}
  0
MTEXT
  5
57C
330
A
100
AcDbEntity
  8
DRAWING
 62
     5
390
1D
100
AcDbMText
 10
26.03360938070552
 20
5.786312982634644
 30
0.0
 40
0.3188128615705982
 41
2.673517974009474
 46
0.0
 71
     2
 72
     1
  1
COOLING AIR EXIT
  7
Helvetica
 73
     1
 44
0.8397955333929318
  0
LINE
  5
57D
330
A
100
AcDbEntity
  8
DRAWING
  6
Continuous
 62
     5
370
    15
390
1D
100
AcDbLine
 10
26.27417436208539
 20
6.932038722232345
 30
0.0
 11
25.9375403627491
 21
6.007144410435166
 31
0.0
  0
POLYLINE
  5
57E
102
{ACAD_REACTORS
330
583
102
}
330
A
100
AcDbEntity
  8
DRAWING
  6
Continuous
 62
     5
370
     5
390
1D
100
AcDb2dPolyline
 66
     1
 10
0.0
 20
0.0
 30
0.0
 70
     1
 75
     5
  0
VERTEX
  5
57F
330
57E
100
AcDbEntity
  8
DRAWING
  6
Continuous
 62
     5
370
     5
390
1D
100
AcDbVertex
100
AcDb2dVertex
 10
25.98471481547658
 20
6.50289729646673
 30
0.0
  0
VERTEX
  5
580
330
57E
100
AcDbEntity
  8
DRAWING
  6
Continuous
 62
     5
370
     5
390
1D
100
AcDbVertex
100
AcDb2dVertex
 10
26.27417436208539
 20
6.932038722232345
 30
0.0
  0
VERTEX
  5
581
330
57E
100
AcDbEntity
  8
DRAWING
  6
Continuous
 62
     5
370
     5
390
1D
100
AcDbVertex
100
AcDb2dVertex
 10
26.23806575423704
 20
6.415661572398644
 30
0.0
  0
SEQEND
  5
582
330
57E
100
AcDbEntity
  8
DRAWING
  6
Continuous
 62
     5
370
     5
390
1D
  0
HATCH
  5
583
330
A
100
AcDbEntity
  8
DRAWING
  6
Continuous
 62
     5
370
     0
390
1D
100
AcDbHatch
 10
0.0
 20
0.0
 30
0.0
210
0.0
220
0.0
230
1.0
  2
SOLID
 70
     1
 71
     1
 91
        1
 92
        1
 93
        3
 72
     1
 10
25.98471481547658
 20
6.50289729646673
 11
26.27417436208539
 21
6.932038722232345
 72
     1
 10
26.27417436208539
 20
6.932038722232345
 11
26.23806575423704
 21
6.415661572398644
 72
     1
 10
26.23806575423704
 20
6.415661572398644
 11
25.98471481547658
 21
6.50289729646673
 97
        1
330
57E
 75
     0
 76
     1
 98
        1
 10
0.0
 20
0.0
  0
DIMENSION
  5
584
330
A
100
AcDbEntity
  8
Dimension
  6
Continuous
 62
     5
370
    15
390
1D
100
AcDbDimension
  2
*D17
 10
29.07277332082118
 20
16.73491208323634
 30
0.0
 11
21.88976566929134
 21
6.899036755734153
 31
0.0
 70
     3
 71
     5
 42
-1.0
 73
     0
 74
     0
 75
     0
  3
Placid2
100
AcDbDiametricDimension
 15
23.80124242721032
 25
8.42310386912951
 35
0.0
 40
1.804740939457166
1001
ACAD
1000
DSTYLE
1002
{
1070
   172
1070
     0
1070
   289
1070
     0
1070
   342
1005
90
1070
   340
1005
73
1070
    75
1070
     1
1070
    76
1070
     1
1070
     3
1000

1070
   174
1070
     0
1070
   147
1040
0.0625
1002
}
  0
DIMENSION
  5
585
330
A
100
AcDbEntity
  8
Dimension
  6
Continuous
 62
     5
370
    15
390
1D
100
AcDbDimension
  2
*D18
 10
-3.117860435740155
 20
16.40623092312782
 30
0.0
 11
5.098423307086614
 21
7.4108477793562
 31
0.0
 70
     3
 71
     5
 42
-1.0
 73
     0
 74
     0
 75
     0
  3
Placid2
100
AcDbDiametricDimension
 15
3.069598801127711
 25
8.751785029238029
 35
0.0
 40
1.724252997712091
1001
ACAD
1000
DSTYLE
1002
{
1070
   172
1070
     0
1070
   289
1070
     0
1070
   342
1005
90
1070
   340
1005
73
1070
    75
1070
     1
1070
    76
1070
     1
1070
     3
1000

1070
   174
1070
     0
1070
   147
1040
0.0625
1002
}
  0
DIMENSION
  5
586
330
A
100
AcDbEntity
  8
Dimension
  6
Continuous
 62
     5
370
    15
390
1D
100
AcDbDimension
  2
*D19
 10
-2.387561517679782
 20
7.633257608655969
 30
0.0
 11
3.897635905511811
 21
18.80848557463179
 31
0.0
 70
     3
 71
     5
 42
-1.0
 73
     0
 74
     0
 75
     0
  3
Placid2
100
AcDbDiametricDimension
 15
2.339299883067337
 25
17.52475834370988
 35
0.0
 40
1.422773311137034
1001
ACAD
1000
DSTYLE
1002
{
1070
   172
1070
     0
1070
   289
1070
     0
1070
   342
1005
90
1070
   340
1005
73
1070
    75
1070
     1
1070
    76
1070
     1
1070
     3
1000

1070
   174
1070
     0
1070
   147
1040
0.0625
1002
}
  0
MTEXT
  5
587
330
A
100
AcDbEntity
  8
0
 62
     5
390
1D
100
AcDbMText
 10
-2.49606299212596
 20
20.02178881240535
 30
0.0
 40
0.3188128615705982
 41
0.0
 46
0.0
 71
     2
 72
     1
  1
12"\PLEADS
  7
Helvetica
 73
     1
 44
0.9447699750670484
  0
DIMENSION
  5
588
330
A
100
AcDbEntity
  8
Dimension
  6
Continuous
 62
     5
370
    15
390
1D
100
AcDbDimension
  2
*D20
 10
11.20501403700153
 20
5.259679850281701
 30
0.0
 11
13.17351946825681
 21
5.259679850281701
 31
0.0
 70
    32
 71
     5
 42
-1.0
 73
     0
 74
     0
 75
     0
  3
Placid2
100
AcDbAlignedDimension
 13
15.1420248995121
 23
7.736488291143554
 33
0.0
 14
11.20501403700153
 24
7.736488291143549
 34
0.0
100
AcDbRotatedDimension
1001
ACAD
1000
DSTYLE
1002
{
1070
   340
1005
73
1070
   147
1040
0.0625
1002
}
  0
DIMENSION
  5
589
330
A
100
AcDbEntity
  8
Dimension
  6
Continuous
 62
     5
370
    15
390
1D
100
AcDbDimension
  2
*D21
 10
11.83493828533887
 20
6.041230198405147
 30
0.0
 11
13.17352096250423
 21
6.041230198405147
 31
0.0
 70
    32
 71
     5
 42
-1.0
 73
     0
 74
     0
 75
     0
  3
Placid2
100
AcDbAlignedDimension
 13
14.51210363966958
 23
7.215672110017524
 33
0.0
 14
11.83493828533887
 24
7.215672110017527
 34
0.0
100
AcDbRotatedDimension
1001
ACAD
1000
DSTYLE
1002
{
1070
   340
1005
73
1070
   147
1040
0.0625
1002
}
  0
DIMENSION
  5
58A
330
A
100
AcDbEntity
  8
Dimension
  6
Continuous
 62
     5
370
    15
390
1D
100
AcDbDimension
  2
*D22
 10
11.20501403700153
 20
5.259679850281701
 30
0.0
 11
9.806990385085005
 21
5.259679850281701
 31
0.0
 70
   128
 71
     5
 42
-1.0
 73
     0
 74
     0
 75
     0
  3
Placid2
100
AcDbAlignedDimension
 13
10.85068332834009
 23
9.134126086419144
 33
0.0
 14
11.20501403700153
 24
7.736488291143549
 34
0.0
100
AcDbRotatedDimension
1001
ACAD
1000
DSTYLE
1002
{
1070
   340
1005
73
1070
   174
1070
     0
1070
   147
1040
0.0625
1002
}
  0
DIMENSION
  5
58B
330
A
100
AcDbEntity
  8
Dimension
  6
Continuous
 62
     5
370
    15
390
1D
100
AcDbDimension
  2
*D23
 10
11.83493828533887
 20
6.629132993704407
 30
0.0
 11
10.10265403700152
 21
6.629132993704407
 31
0.0
 70
   128
 71
     5
 42
-1.0
 73
     0
 74
     0
 75
     0
  3
Placid2
100
AcDbAlignedDimension
 13
11.20501403700153
 23
7.736488291143549
 33
0.0
 14
11.83493828533887
 24
7.215672110017527
 34
0.0
100
AcDbRotatedDimension
1001
ACAD
1000
DSTYLE
1002
{
1070
   271
1070
     2
1070
   340
1005
73
1070
   174
1070
     0
1070
   147
1040
0.0625
1002
}
  0
DIMENSION
  5
58C
330
A
100
AcDbEntity
  8
Dimension
  6
Continuous
 62
     5
370
    15
390
1D
100
AcDbDimension
  2
*D24
 10
14.51210363966958
 20
6.629132993704407
 30
0.0
 11
16.2443848995121
 21
6.629132993704407
 31
0.0
 70
   128
 71
     5
 42
-1.0
 73
     0
 74
     0
 75
     0
  3
Placid2
100
AcDbAlignedDimension
 13
15.1420248995121
 23
7.736488291143554
 33
0.0
 14
14.51210363966958
 24
7.215672110017524
 34
0.0
100
AcDbRotatedDimension
1001
ACAD
1000
DSTYLE
1002
{
1070
   271
1070
     2
1070
   340
1005
73
1070
   174
1070
     0
1070
   147
1040
0.0625
1002
}
  0
DIMENSION
  5
58D
330
A
100
AcDbEntity
  8
Dimension
  6
Continuous
 62
     5
370
    15
390
1D
100
AcDbDimension
  2
*D25
 10
25.74769367500816
 20
15.95422014276875
 30
0.0
 11
29.07698363966959
 21
4.279007976182923
 31
0.0
 70
     3
 71
     5
 42
-1.0
 73
     0
 74
     0
 75
     0
  3
Placid2
100
AcDbDiametricDimension
 15
27.12632207302333
 25
9.20379580959711
 35
0.0
 40
5.026443251838201
1001
ACAD
1000
DSTYLE
1002
{
1070
   172
1070
     0
1070
   289
1070
     0
1070
   342
1005
90
1070
   340
1005
73
1070
    75
1070
     1
1070
    76
1070
     1
1070
     3
1000

1070
   174
1070
     0
1070
   147
1040
0.0625
1002
}
  0
DIMENSION
  5
58E
330
A
100
AcDbEntity
  8
Dimension
  6
Continuous
 62
     5
370
    15
390
1D
100
AcDbDimension
  2
*D26
 10
10.8506848225875
 20
12.93333868484434
 30
0.0
 11
13.39005564845141
 21
12.93333868484434
 31
0.0
 70
    32
 71
     5
 42
-1.0
 73
     0
 74
     0
 75
     0
  3
Placid2
100
AcDbAlignedDimension
 13
15.92942647431531
 23
12.57900797618293
 33
0.0
 14
10.8506848225875
 24
12.57900797618292
 34
0.0
100
AcDbRotatedDimension
1001
ACAD
1000
DSTYLE
1002
{
1070
   271
1070
     2
1070
   340
1005
73
1070
   147
1040
0.0625
1002
}
  0
DIMENSION
  5
58F
330
A
100
AcDbEntity
  8
Dimension
  6
Continuous
 62
     5
370
    15
390
1D
100
AcDbDimension
  2
*D27
 10
15.1420248995121
 20
5.259679850281701
 30
0.0
 11
16.83493529684411
 21
5.259679850281701
 31
0.0
 70
   128
 71
     5
 42
-1.0
 73
     0
 74
     0
 75
     0
  3
Placid2
100
AcDbAlignedDimension
 13
15.4884815924255
 23
9.134126086419144
 33
0.0
 14
15.1420248995121
 24
7.736488291143554
 34
0.0
100
AcDbRotatedDimension
1001
ACAD
1000
DSTYLE
1002
{
1070
   340
1005
73
1070
   174
1070
     0
1070
   147
1040
0.0625
1002
}
  0
DIMENSION
  5
590
330
A
100
AcDbEntity
  8
Dimension
  6
Continuous
 62
     5
370
    15
390
1D
100
AcDbDimension
  2
*D28
 10
15.1420248995121
 20
20.02320877246375
 30
0.0
 11
17.03401734518182
 21
20.02320877246375
 31
0.0
 70
   128
 71
     5
 42
-1.0
 73
     0
 74
     0
 75
     0
  3
Placid2
100
AcDbAlignedDimension
 13
15.92942498006782
 23
13.95696073208844
 33
0.0
 14
15.1420248995121
 24
17.42152766122229
 34
0.0
100
AcDbRotatedDimension
1001
ACAD
1000
DSTYLE
1002
{
1070
   340
1005
73
1070
   174
1070
     0
1070
   147
1040
0.0625
1002
}
  0
LINE
  5
591
330
A
100
AcDbEntity
  8
DRAWING
  6
Continuous
 62
     5
370
    15
390
1D
100
AcDbLine
 10
26.29527559055119
 20
15.75223632263962
 30
0.0
 11
24.38184645274881
 21
19.85559835056146
 31
0.0
  0
POLYLINE
  5
592
102
{ACAD_REACTORS
330
597
102
}
330
A
100
AcDbEntity
  8
DRAWING
  6
Continuous
 62
     5
370
     5
390
1D
100
AcDb2dPolyline
 66
     1
 10
0.0
 20
0.0
 30
0.0
 70
     1
 75
     5
  0
VERTEX
  5
593
330
592
100
AcDbEntity
  8
DRAWING
  6
Continuous
 62
     5
370
     5
390
1D
100
AcDbVertex
100
AcDb2dVertex
 10
26.2053886794961
 20
16.26201032712797
 30
0.0
  0
VERTEX
  5
594
330
592
100
AcDbEntity
  8
DRAWING
  6
Continuous
 62
     5
370
     5
390
1D
100
AcDbVertex
100
AcDb2dVertex
 10
26.29527559055119
 20
15.75223632263962
 30
0.0
  0
VERTEX
  5
595
330
592
100
AcDbEntity
  8
DRAWING
  6
Continuous
 62
     5
370
     5
390
1D
100
AcDbVertex
100
AcDb2dVertex
 10
25.96254423986559
 20
16.14877010518791
 30
0.0
  0
SEQEND
  5
596
330
592
100
AcDbEntity
  8
DRAWING
  6
Continuous
 62
     5
370
     5
390
1D
  0
HATCH
  5
597
330
A
100
AcDbEntity
  8
DRAWING
  6
Continuous
 62
     5
370
     0
390
1D
100
AcDbHatch
 10
0.0
 20
0.0
 30
0.0
210
0.0
220
0.0
230
1.0
  2
SOLID
 70
     1
 71
     1
 91
        1
 92
        1
 93
        3
 72
     1
 10
26.2053886794961
 20
16.26201032712797
 11
26.29527559055119
 21
15.75223632263962
 72
     1
 10
26.29527559055119
 20
15.75223632263962
 11
25.96254423986559
 21
16.14877010518791
 72
     1
 10
25.96254423986559
 20
16.14877010518791
 11
26.2053886794961
 21
16.26201032712797
 97
        1
330
592
 75
     0
 76
     1
 98
        1
 10
0.0
 20
0.0
  0
LINE
  5
598
330
A
100
AcDbEntity
  8
DRAWING
  6
Continuous
 62
     5
370
    15
390
1D
100
AcDbLine
 10
26.57874015748031
 20
18.11557218880502
 30
0.0
 11
26.98270095668385
 21
19.2254453629616
 31
0.0
  0
POLYLINE
  5
599
102
{ACAD_REACTORS
330
59E
102
}
330
A
100
AcDbEntity
  8
DRAWING
  6
Continuous
 62
     5
370
     5
390
1D
100
AcDb2dPolyline
 66
     1
 10
0.0
 20
0.0
 30
0.0
 70
     1
 75
     5
  0
VERTEX
  5
59A
330
599
100
AcDbEntity
  8
DRAWING
  6
Continuous
 62
     5
370
     5
390
1D
100
AcDbVertex
100
AcDb2dVertex
 10
26.88300019292767
 20
18.53435020071669
 30
0.0
  0
VERTEX
  5
59B
330
599
100
AcDbEntity
  8
DRAWING
  6
Continuous
 62
     5
370
     5
390
1D
100
AcDbVertex
100
AcDb2dVertex
 10
26.57874015748031
 20
18.11557218880502
 30
0.0
  0
VERTEX
  5
59C
330
599
100
AcDbEntity
  8
DRAWING
  6
Continuous
 62
     5
370
     5
390
1D
100
AcDbVertex
100
AcDb2dVertex
 10
26.63284807157824
 20
18.63037460339055
 30
0.0
  0
SEQEND
  5
59D
330
599
100
AcDbEntity
  8
DRAWING
  6
Continuous
 62
     5
370
     5
390
1D
  0
HATCH
  5
59E
330
A
100
AcDbEntity
  8
DRAWING
  6
Continuous
 62
     5
370
     0
390
1D
100
AcDbHatch
 10
0.0
 20
0.0
 30
0.0
210
0.0
220
0.0
230
1.0
  2
SOLID
 70
     1
 71
     1
 91
        1
 92
        1
 93
        3
 72
     1
 10
26.88300019292767
 20
18.53435020071669
 11
26.57874015748031
 21
18.11557218880502
 72
     1
 10
26.57874015748031
 20
18.11557218880502
 11
26.63284807157824
 21
18.63037460339055
 72
     1
 10
26.63284807157824
 20
18.63037460339055
 11
26.88300019292767
 21
18.53435020071669
 97
        1
330
599
 75
     0
 76
     1
 98
        1
 10
0.0
 20
0.0
  0
LINE
  5
59F
330
A
100
AcDbEntity
  8
None
  6
STYLE_16
 62
     7
370
    15
390
1D
100
AcDbLine
 10
14.06497939115458
 20
17.64874297615926
 30
0.0
 11
14.08855245604096
 21
18.03531747591127
 31
0.0
  0
LINE
  5
5A0
330
A
100
AcDbEntity
  8
None
  6
STYLE_16
 62
     7
370
    15
390
1D
100
AcDbLine
 10
13.4590442585915
 20
17.64874297615926
 30
0.0
 11
13.43894616494891
 21
18.03556145013555
 31
0.0
  0
LINE
  5
5A1
330
A
100
AcDbEntity
  8
None
  6
STYLE_16
 62
     7
370
    15
390
1D
100
AcDbLine
 10
13.49814019624702
 20
17.64874297615926
 30
0.0
 11
13.47794204452109
 21
18.03748722059877
 31
0.0
  0
LINE
  5
5A2
330
A
100
AcDbEntity
  8
None
  6
STYLE_16
 62
     7
370
    15
390
1D
100
AcDbLine
 10
14.02156735598738
 20
17.64874297615926
 30
0.0
 11
14.04537715441248
 21
18.03746741337685
 31
0.0
  0
POLYLINE
  5
5A3
330
A
100
AcDbEntity
  8
DRAWING
  6
Continuous
 62
     7
370
    25
390
1D
100
AcDb2dPolyline
 66
     1
 10
0.0
 20
0.0
 30
0.0
 70
     1
 75
     5
  0
VERTEX
  5
5A4
330
5A3
100
AcDbEntity
  8
DRAWING
  6
Continuous
 62
     7
370
    25
390
1D
100
AcDbVertex
100
AcDb2dVertex
 10
13.47768451528892
 20
18.04244376356083
 30
0.0
  0
VERTEX
  5
5A5
330
5A3
100
AcDbEntity
  8
DRAWING
  6
Continuous
 62
     7
370
    25
390
1D
100
AcDbVertex
100
AcDb2dVertex
 10
13.49814019624702
 20
17.64874297615926
 30
0.0
  0
VERTEX
  5
5A6
330
5A3
100
AcDbEntity
  8
DRAWING
  6
Continuous
 62
     7
370
    25
390
1D
100
AcDbVertex
100
AcDb2dVertex
 10
14.02515282037362
 20
17.64874297615926
 30
0.0
  0
VERTEX
  5
5A7
330
5A3
100
AcDbEntity
  8
DRAWING
  6
Continuous
 62
     7
370
    25
390
1D
100
AcDbVertex
100
AcDb2dVertex
 10
14.04563606113091
 20
18.04244376356083
 30
0.0
  0
SEQEND
  5
5A8
330
5A3
100
AcDbEntity
  8
DRAWING
  6
Continuous
 62
     7
370
    25
390
1D
  0
LINE
  5
5AA
330
A
100
AcDbEntity
  8
None
  6
STYLE_17
 62
     5
370
    15
390
1D
100
AcDbLine
 10
13.76139050765158
 20
17.5066480580156
 30
0.0
 11
13.76141524458244
 21
18.21530947490669
 31
0.0
  0
INSERT
  5
5AB
330
A
100
AcDbEntity
  8
DRAWING
 62
     7
390
1D
100
AcDbBlockReference
  2
Group-12
 10
13.9714858141098
 20
10.83550848392538
 30
0.0
  0
INSERT
  5
5AC
330
A
100
AcDbEntity
  8
DRAWING
 62
     7
390
1D
100
AcDbBlockReference
  2
Group-13
 10
13.9714858141098
 20
10.83550848392538
 30
0.0
  0
INSERT
  5
5AD
330
A
100
AcDbEntity
  8
DRAWING
 62
     7
390
1D
100
AcDbBlockReference
  2
Group-15
 10
13.9714858141098
 20
10.83550848392538
 30
0.0
  0
INSERT
  5
5AE
330
A
100
AcDbEntity
  8
DRAWING
 62
     7
390
1D
100
AcDbBlockReference
  2
Group-17
 10
13.9714858141098
 20
10.83550848392538
 30
0.0
  0
INSERT
  5
5AF
330
A
100
AcDbEntity
  8
DRAWING
 62
     7
390
1D
100
AcDbBlockReference
  2
Group-19
 10
13.9714858141098
 20
10.83550848392538
 30
0.0
  0
INSERT
  5
5B0
330
A
100
AcDbEntity
  8
DRAWING
 62
     7
390
1D
100
AcDbBlockReference
  2
Group-21
 10
13.9714858141098
 20
10.83550848392538
 30
0.0
  0
INSERT
  5
5B1
330
A
100
AcDbEntity
  8
DRAWING
 62
     7
390
1D
100
AcDbBlockReference
  2
Group-23
 10
13.9714858141098
 20
10.83550848392538
 30
0.0
  0
INSERT
  5
5B2
330
A
100
AcDbEntity
  8
DRAWING
 62
     7
390
1D
100
AcDbBlockReference
  2
Group-25
 10
13.9714858141098
 20
10.83550848392538
 30
0.0
  0
INSERT
  5
5B3
330
A
100
AcDbEntity
  8
DRAWING
 62
     7
390
1D
100
AcDbBlockReference
  2
Group-26
 10
13.9714858141098
 20
10.83550848392538
 30
0.0
  0
LINE
  5
5B4
330
A
100
AcDbEntity
  8
DRAWING
  6
STYLE_13
 62
     5
370
    13
390
1D
100
AcDbLine
 10
-0.024130817306224
 20
12.57900797618292
 30
0.0
 11
-2.189485148014885
 21
16.32951169335963
 31
0.0
  0
LINE
  5
5B5
330
A
100
AcDbEntity
  8
DRAWING
  6
Continuous
 62
     7
370
    25
390
1D
100
AcDbLine
 10
-2.619168503884264
 20
16.52557169384152
 30
0.0
 11
-2.681609500963578
 21
16.63372267325816
 31
0.0
  0
LINE
  5
5B6
330
A
100
AcDbEntity
  8
DRAWING
  6
Continuous
 62
     7
370
    25
390
1D
100
AcDbLine
 10
-2.158306908451571
 20
16.82668136619904
 30
0.0
 11
-2.205525754406608
 21
16.90846680646793
 31
0.0
  0
ARC
  5
5B7
330
A
100
AcDbEntity
  8
DRAWING
  6
Continuous
 62
     7
370
    25
390
1D
100
AcDbCircle
 10
-2.396178061400711
 20
16.68751432090831
 30
0.0
 40
0.2755905511811023
100
AcDbArc
 50
215.9883250475282
 51
30.32986304568493
  0
ARC
  5
5B8
330
A
100
AcDbEntity
  8
DRAWING
  6
Continuous
 62
     7
370
    25
390
1D
100
AcDbCircle
 10
-2.741276605555086
 20
16.59927385436048
 30
0.0
 40
0.068897637795344
100
AcDbArc
 50
29.99999999999832
 51
124.0532744859418
  0
ARC
  5
5B9
330
A
100
AcDbEntity
  8
DRAWING
  6
Continuous
 62
     7
370
    25
390
1D
100
AcDbCircle
 10
-2.14585864981515
 20
16.94291562536557
 30
0.0
 40
0.0688976377952883
100
AcDbArc
 50
115.928977683447
 51
210.0000000000003
  0
LINE
  5
5BA
330
A
100
AcDbEntity
  8
DRAWING
  6
Continuous
 62
     5
370
     5
390
1D
100
AcDbLine
 10
-2.517217045000503
 20
16.61763243114452
 30
0.0
 11
-2.876787085566512
 21
17.25967070580964
 31
0.0
  0
LINE
  5
5BB
330
A
100
AcDbEntity
  8
DRAWING
  6
Continuous
 62
     5
370
     5
390
1D
100
AcDbLine
 10
-2.445616519490766
 20
16.65897101382169
 30
0.0
 11
-2.805856704702087
 21
17.3021700130609
 31
0.0
  0
LINE
  5
5BC
330
A
100
AcDbEntity
  8
DRAWING
  6
Continuous
 62
     5
370
     5
390
1D
100
AcDbLine
 10
-2.346739603310652
 20
16.71605762799492
 30
0.0
 11
-2.723646183734875
 21
17.34963427947155
 31
0.0
  0
LINE
  5
5BD
330
A
100
AcDbEntity
  8
DRAWING
  6
Continuous
 62
     5
370
     5
390
1D
100
AcDbLine
 10
-2.275139077800915
 20
16.75739621067208
 30
0.0
 11
-2.642755643493334
 21
17.39412678015534
 31
0.0
  0
ARC
  5
5BE
330
A
100
AcDbEntity
  8
DRAWING
  6
Continuous
 62
     5
370
     5
390
1D
100
AcDbCircle
 10
-2.481416782245635
 20
16.63830172248311
 30
0.0
 40
0.0541338582677196
100
AcDbArc
 50
169.03080524988
 51
69.47207525412462
  0
ARC
  5
5BF
330
A
100
AcDbEntity
  8
DRAWING
  6
Continuous
 62
     5
370
     5
390
1D
100
AcDbCircle
 10
-2.481416782245635
 20
16.63830172248311
 30
0.0
 40
0.0413385826771663
100
AcDbArc
 50
208.5015394436178
 51
30.00000000000108
  0
ARC
  5
5C0
330
A
100
AcDbEntity
  8
DRAWING
  6
Continuous
 62
     5
370
     5
390
1D
100
AcDbCircle
 10
-2.310939340555784
 20
16.7367269193335
 30
0.0
 40
0.0541338582677134
100
AcDbArc
 50
170.5279247458714
 51
70.2141710173702
  0
ARC
  5
5C1
330
A
100
AcDbEntity
  8
DRAWING
  6
Continuous
 62
     5
370
     5
390
1D
100
AcDbCircle
 10
-2.310939340555784
 20
16.7367269193335
 30
0.0
 40
0.0413385826771636
100
AcDbArc
 50
211.4957363466103
 51
30.00000000000128
  0
ARC
  5
5C2
330
A
100
AcDbEntity
  8
DRAWING
  6
Continuous
 62
     7
370
    25
390
1D
100
AcDbCircle
 10
-2.396178061400711
 20
16.68751432090831
 30
0.0
 40
0.2165354330708701
100
AcDbArc
 50
159.446394530841
 51
79.80023571536832
  0
ARC
  5
5C3
330
A
100
AcDbEntity
  8
DRAWING
  6
Continuous
 62
     7
370
    25
390
1D
100
AcDbCircle
 10
-2.396178061400711
 20
16.68751432090831
 30
0.0
 40
0.2165354330708647
100
AcDbArc
 50
105.4632610771808
 51
134.5367389228185
  0
POLYLINE
  5
5C4
330
A
100
AcDbEntity
  8
DRAWING
  6
Continuous
 62
     7
370
    25
390
1D
100
AcDb2dPolyline
 66
     1
 10
0.0
 20
0.0
 30
0.0
 70
     1
 75
     5
  0
VERTEX
  5
5C5
330
5C4
100
AcDbEntity
  8
DRAWING
  6
Continuous
 62
     7
370
    25
390
1D
100
AcDbVertex
100
AcDb2dVertex
 10
-3.509650961423525
 20
18.35582309306895
 30
0.0
  0
VERTEX
  5
5C6
330
5C4
100
AcDbEntity
  8
DRAWING
  6
Continuous
 62
     7
370
    25
390
1D
100
AcDbVertex
100
AcDb2dVertex
 10
-2.877601638850876
 20
17.25917417450907
 30
0.0
  0
VERTEX
  5
5C7
330
5C4
100
AcDbEntity
  8
DRAWING
  6
Continuous
 62
     7
370
    25
390
1D
100
AcDbVertex
100
AcDb2dVertex
 10
-2.518577059645093
 20
16.61810986049447
 30
0.0
  0
VERTEX
  5
5C8
330
5C4
100
AcDbEntity
  8
DRAWING
  6
Continuous
 62
     7
370
    25
390
1D
100
AcDbVertex
100
AcDb2dVertex
 10
-2.492713451109523
 20
16.59790353685685
 30
0.0
  0
VERTEX
  5
5C9
330
5C4
100
AcDbEntity
  8
DRAWING
  6
Continuous
 62
     7
370
    25
390
1D
100
AcDbVertex
100
AcDb2dVertex
 10
-2.461217388117397
 20
16.60223424551827
 30
0.0
  0
VERTEX
  5
5CA
330
5C4
100
AcDbEntity
  8
DRAWING
  6
Continuous
 62
     7
370
    25
390
1D
100
AcDbVertex
100
AcDb2dVertex
 10
-2.441532348747316
 20
16.62585629276236
 30
0.0
  0
VERTEX
  5
5CB
330
5C4
100
AcDbEntity
  8
DRAWING
  6
Continuous
 62
     7
370
    25
390
1D
100
AcDbVertex
100
AcDb2dVertex
 10
-2.445616519490766
 20
16.65897101382169
 30
0.0
  0
VERTEX
  5
5CC
330
5C4
100
AcDbEntity
  8
DRAWING
  6
Continuous
 62
     7
370
    25
390
1D
100
AcDbVertex
100
AcDb2dVertex
 10
-2.805856704702087
 20
17.3021700130609
 30
0.0
  0
VERTEX
  5
5CD
330
5C4
100
AcDbEntity
  8
DRAWING
  6
Continuous
 62
     7
370
    25
390
1D
100
AcDbVertex
100
AcDb2dVertex
 10
-3.438050435913791
 20
18.39716167574612
 30
0.0
  0
SEQEND
  5
5CE
330
5C4
100
AcDbEntity
  8
DRAWING
  6
Continuous
 62
     7
370
    25
390
1D
  0
POLYLINE
  5
5D0
330
A
100
AcDbEntity
  8
DRAWING
  6
Continuous
 62
     7
370
    25
390
1D
100
AcDb2dPolyline
 66
     1
 10
0.0
 20
0.0
 30
0.0
 70
     1
 75
     5
  0
VERTEX
  5
5D1
330
5D0
100
AcDbEntity
  8
DRAWING
  6
Continuous
 62
     7
370
    25
390
1D
100
AcDbVertex
100
AcDb2dVertex
 10
-2.723646183734875
 20
17.34963427947155
 30
0.0
  0
VERTEX
  5
5D2
330
5D0
100
AcDbEntity
  8
DRAWING
  6
Continuous
 62
     7
370
    25
390
1D
100
AcDbVertex
100
AcDb2dVertex
 10
-2.535192893522762
 20
17.03284595373323
 30
0.0
  0
VERTEX
  5
5D3
330
5D0
100
AcDbEntity
  8
DRAWING
  6
Continuous
 62
     7
370
    25
390
1D
100
AcDbVertex
100
AcDb2dVertex
 10
-2.346739603310652
 20
16.71605762799492
 30
0.0
  0
VERTEX
  5
5D4
330
5D0
100
AcDbEntity
  8
DRAWING
  6
Continuous
 62
     7
370
    25
390
1D
100
AcDbVertex
100
AcDb2dVertex
 10
-2.323269097842324
 20
16.69726248206855
 30
0.0
  0
VERTEX
  5
5D5
330
5D0
100
AcDbEntity
  8
DRAWING
  6
Continuous
 62
     7
370
    25
390
1D
100
AcDbVertex
100
AcDb2dVertex
 10
-2.289804530913191
 20
16.70119948994256
 30
0.0
  0
VERTEX
  5
5D6
330
5D0
100
AcDbEntity
  8
DRAWING
  6
Continuous
 62
     7
370
    25
390
1D
100
AcDbVertex
100
AcDb2dVertex
 10
-2.270906893117914
 20
16.72679004112367
 30
0.0
  0
VERTEX
  5
5D7
330
5D0
100
AcDbEntity
  8
DRAWING
  6
Continuous
 62
     7
370
    25
390
1D
100
AcDbVertex
100
AcDb2dVertex
 10
-2.275139077800915
 20
16.75739621067208
 30
0.0
  0
VERTEX
  5
5D8
330
5D0
100
AcDbEntity
  8
DRAWING
  6
Continuous
 62
     7
370
    25
390
1D
100
AcDbVertex
100
AcDb2dVertex
 10
-2.651088841099781
 20
17.38931560627405
 30
0.0
  0
VERTEX
  5
5D9
330
5D0
100
AcDbEntity
  8
DRAWING
  6
Continuous
 62
     7
370
    25
390
1D
100
AcDbVertex
100
AcDb2dVertex
 10
-3.284239389436838
 20
18.48596452483392
 30
0.0
  0
VERTEX
  5
5DA
330
5D0
100
AcDbEntity
  8
DRAWING
  6
Continuous
 62
     7
370
    25
390
1D
100
AcDbVertex
100
AcDb2dVertex
 10
-3.355839914946575
 20
18.44462594215676
 30
0.0
  0
SEQEND
  5
5DB
330
5D0
100
AcDbEntity
  8
DRAWING
  6
Continuous
 62
     7
370
    25
390
1D
  0
DIMENSION
  5
5DD
330
A
100
AcDbEntity
  8
Dimension
  6
Continuous
 62
     5
370
    15
390
1D
100
AcDbDimension
  2
*D44
 10
-1.636743799727796
 20
18.59736155952541
 30
0.0
 11
-1.636743799727796
 21
18.59736155952541
 31
0.0
 70
     5
 71
     5
 42
-1.0
 73
     0
 74
     0
 75
     0
  3
Placid2
100
AcDb3PointAngularDimension
 13
-0.024130817306224
 23
18.0604540785688
 33
0.0
 14
-2.189485148014885
 24
16.32951169335963
 34
0.0
 15
-0.024130817306224
 25
12.57900797618292
 35
0.0
1001
ACAD
1000
DSTYLE
1002
{
1070
   179
1070
     0
1070
   342
1005
90
1070
   340
1005
73
1070
   140
1040
0.318812861570598
1070
     3
1000
<> 
1070
   147
1040
0.0625
1002
}
  0
MTEXT
  5
5DE
330
A
100
AcDbEntity
  8
DRAWING
 62
     5
390
1D
100
AcDbMText
 10
31.1448595451814
 20
6.321460382810385
 30
0.0
 40
0.3188128615705982
 41
0.0
 46
0.0
 71
     2
 72
     1
  1
MOUNTING\PPILOT DIAMETER
  7
Helvetica
 73
     1
 44
0.8397955333929318
  0
INSERT
  5
5DF
330
A
100
AcDbEntity
  8
DRAWING
 62
     7
390
1D
100
AcDbBlockReference
  2
Group-27
 10
13.9714858141098
 20
10.83550848392538
 30
0.0
  0
LINE
  5
5E0
330
A
100
AcDbEntity
  8
None
  6
STYLE_16
 62
     7
370
    15
390
1D
100
AcDbLine
 10
0.2770992633534206
 20
17.58222832282238
 30
0.0
 11
0.3006723282398021
 21
18.03531747591127
 31
0.0
  0
LINE
  5
5E1
330
A
100
AcDbEntity
  8
None
  6
STYLE_16
 62
     7
370
    15
390
1D
100
AcDbLine
 10
-0.3251610010654211
 20
17.57801453231284
 30
0.0
 11
-0.3489339628522536
 21
18.03556145013555
 31
0.0
  0
LINE
  5
5E2
330
A
100
AcDbEntity
  8
None
  6
STYLE_16
 62
     7
370
    15
390
1D
100
AcDbLine
 10
-0.2861602341646901
 20
17.57984623868212
 30
0.0
 11
-0.3099380832800662
 21
18.03748722059877
 31
0.0
  0
LINE
  5
5E3
330
A
100
AcDbEntity
  8
None
  6
STYLE_16
 62
     7
370
    15
390
1D
100
AcDbLine
 10
0.2336872281862181
 20
17.57982809258248
 30
0.0
 11
0.2574970266113183
 21
18.03746741337685
 31
0.0
  0
LINE
  5
5E4
330
A
100
AcDbEntity
  8
None
  6
STYLE_17
 62
     7
370
    15
390
1D
100
AcDbLine
 10
-0.0265054242998506
 20
17.13263231025993
 30
0.0
 11
-0.0264669446296253
 21
18.23499451431275
 31
0.0
  0
DIMENSION
  5
5E5
330
A
100
AcDbEntity
  8
Dimension
  6
Continuous
 62
     5
370
    15
390
1D
100
AcDbDimension
  2
*D46
 10
14.51210363966958
 20
18.70105522027741
 30
0.0
 11
14.13675944212601
 21
18.70105522027741
 31
0.0
 70
    32
 71
     5
 42
-1.0
 73
     0
 74
     0
 75
     0
  3
Placid2
100
AcDbAlignedDimension
 13
13.76141524458244
 23
18.21530947490669
 33
0.0
 14
14.51210363966958
 24
17.90623729858329
 34
0.0
100
AcDbRotatedDimension
1001
ACAD
1000
DSTYLE
1002
{
1070
   271
1070
     2
1070
   340
1005
73
1070
   140
1040
0.318812861570598
1070
   147
1040
0.0625
1002
}
  0
INSERT
  5
5E6
330
A
100
AcDbEntity
  8
DRAWING
 62
     7
390
1D
100
AcDbBlockReference
  2
Group-28
 10
13.9714858141098
 20
10.83550848392538
 30
0.0
  0
INSERT
  5
5E7
330
A
100
AcDbEntity
  8
Dimension
 62
     7
390
1D
100
AcDbBlockReference
  2
Group-29
 10
13.9714858141098
 20
10.83550848392538
 30
0.0
  0
DIMENSION
  5
5E8
330
A
100
AcDbEntity
  8
Dimension
  6
Continuous
 62
     5
370
    15
390
1D
100
AcDbDimension
  2
*D49
 10
0.2755905511811019
 20
1.848818897637795
 30
0.0
 11
-1.653543307086617
 21
1.848818897637795
 31
0.0
 70
   128
 71
     5
 42
-1.0
 73
     0
 74
     0
 75
     0
  3
Placid2
100
AcDbAlignedDimension
 13
-0.2755905511811036
 23
1.029921259842519
 33
0.0
 14
0.2755905511811019
 24
1.029921259842521
 34
0.0
100
AcDbRotatedDimension
1001
ACAD
1000
DSTYLE
1002
{
1070
   271
1070
     4
1070
   340
1005
73
1070
    72
1070
     1
1070
    47
1040
0.0015
1070
    48
1040
-0.0003937007874016
1070
   174
1070
     0
1070
   147
1040
0.0625
1002
}
  0
DIMENSION
  5
5E9
330
A
100
AcDbEntity
  8
Dimension
  6
Continuous
 62
     5
370
    15
390
1D
100
AcDbDimension
  2
*D50
 10
2.263779527559054
 20
-0.8858267716535426
 30
0.0
 11
2.263779527559054
 21
0.0688976377952759
 31
0.0
 70
    32
 71
     5
 42
-1.0
 73
     0
 74
     0
 75
     0
  3
Placid2
100
AcDbAlignedDimension
 13
0.2362204724409445
 23
1.023622047244098
 33
0.0
 14
0.0
 24
-0.8858267716535426
 34
0.0
 50
-90.0
100
AcDbRotatedDimension
1001
ACAD
1000
DSTYLE
1002
{
1070
   340
1005
73
1070
    72
1070
     1
1070
    47
1040
0.02
1070
   147
1040
0.0625
1002
}
  0
MTEXT
  5
5EA
330
A
100
AcDbEntity
  8
0
 62
     7
390
1D
100
AcDbMText
 10
-0.8307086614173116
 20
3.159714677138227
 30
0.0
 40
0.3985160769632479
 41
0.0
 46
0.0
 71
     1
 72
     1
  1
SHAFT
  7
Helvetica
 73
     1
 44
0.8397955333929318
  0
DIMENSION
  5
5EB
330
A
100
AcDbEntity
  8
Dimension
  6
Continuous
 62
     5
370
    15
390
1D
100
AcDbDimension
  2
*D51
 10
0.6093289730051445
 20
0.6429675513077076
 30
0.0
 11
-2.48206547600067
 21
-1.622047244094487
 31
0.0
 70
     3
 71
     5
 42
-1.0
 73
     0
 74
     0
 75
     0
  3
Placid2
100
AcDbDiametricDimension
 15
-0.6093289730051499
 25
-0.6429675513077076
 35
0.0
 40
1.348893893150433
1001
ACAD
1000
DSTYLE
1002
{
1070
   172
1070
     0
1070
   289
1070
     0
1070
   342
1005
90
1070
   340
1005
73
1070
   140
1040
0.318812861570598
1070
    75
1070
     1
1070
    76
1070
     1
1070
    72
1070
     1
1070
    47
1040
0.0015748031496063
1070
     3
1000

1070
   174
1070
     0
1070
   147
1040
0.0625
1002
}
  0
CIRCLE
  5
5EC
330
A
100
AcDbEntity
  8
PLB-Tw~
  6
Continuous
 62
   148
370
    35
390
1D
100
AcDbCircle
 10
-0.024130817306224
 20
12.57900797618292
 30
0.0
 40
5.481446102385875
  0
INSERT
  5
5ED
330
A
100
AcDbEntity
  8
DRAWING
 62
     7
390
1D
100
AcDbBlockReference
  2
Group-30
 10
13.9714858141098
 20
10.83550848392538
 30
0.0
  0
INSERT
  5
5EE
330
A
100
AcDbEntity
  8
DRAWING
 62
     7
390
1D
100
AcDbBlockReference
  2
Group-31
 10
13.9714858141098
 20
10.83550848392538
 30
0.0
  0
INSERT
  5
5EF
330
A
100
AcDbEntity
  8
DRAWING
 62
     7
390
1D
100
AcDbBlockReference
  2
Group-32
 10
13.9714858141098
 20
10.83550848392538
 30
0.0
  0
INSERT
  5
5F0
330
A
100
AcDbEntity
  8
DRAWING
 62
     7
390
1D
100
AcDbBlockReference
  2
Group-33
 10
13.9714858141098
 20
10.83550848392538
 30
0.0
  0
INSERT
  5
5F1
330
A
100
AcDbEntity
  8
DRAWING
 62
     7
390
1D
100
AcDbBlockReference
  2
Group-34
 10
13.9714858141098
 20
10.83550848392538
 30
0.0
  0
INSERT
  5
5F2
330
A
100
AcDbEntity
  8
DRAWING
 62
     7
390
1D
100
AcDbBlockReference
  2
Group-35
 10
13.9714858141098
 20
10.83550848392538
 30
0.0
  0
INSERT
  5
5F3
330
A
100
AcDbEntity
  8
DRAWING
 62
     7
390
1D
100
AcDbBlockReference
  2
Group-36
 10
13.9714858141098
 20
10.83550848392538
 30
0.0
  0
INSERT
  5
5F4
330
A
100
AcDbEntity
  8
DRAWING
 62
     7
390
1D
100
AcDbBlockReference
  2
Group-37
 10
13.9714858141098
 20
10.83550848392538
 30
0.0
  0
INSERT
  5
5F5
330
A
100
AcDbEntity
  8
DRAWING
 62
     7
390
1D
100
AcDbBlockReference
  2
Group-38
 10
13.9714858141098
 20
10.83550848392538
 30
0.0
  0
INSERT
  5
5F6
330
A
100
AcDbEntity
  8
DRAWING
 62
     7
390
1D
100
AcDbBlockReference
  2
Group-39
 10
13.9714858141098
 20
10.83550848392538
 30
0.0
  0
INSERT
  5
5F7
330
A
100
AcDbEntity
  8
DRAWING
 62
     7
390
1D
100
AcDbBlockReference
  2
Group-40
 10
13.9714858141098
 20
10.83550848392538
 30
0.0
  0
INSERT
  5
5F8
330
A
100
AcDbEntity
  8
DRAWING
 62
     7
390
1D
100
AcDbBlockReference
  2
Group-41
 10
13.9714858141098
 20
10.83550848392538
 30
0.0
  0
INSERT
  5
5F9
330
A
100
AcDbEntity
  8
DRAWING
 62
     7
390
1D
100
AcDbBlockReference
  2
Group-42
 10
13.9714858141098
 20
10.83550848392538
 30
0.0
  0
INSERT
  5
5FA
330
A
100
AcDbEntity
  8
DRAWING
 62
     7
390
1D
100
AcDbBlockReference
  2
Group-43
 10
13.9714858141098
 20
10.83550848392538
 30
0.0
  0
DIMENSION
  5
5FB
330
A
100
AcDbEntity
  8
Dimension
  6
Continuous
 62
     5
370
    15
390
1D
100
AcDbDimension
  2
*D66
 10
1.698310127575668
 20
15.5623632057553
 30
0.0
 11
-2.625181604455108
 21
6.437275692718359
 31
0.0
 70
     3
 71
     5
 42
-1.0
 73
     0
 74
     0
 75
     0
  3
Placid2
100
AcDbDiametricDimension
 15
-1.746571762188111
 25
9.59565274661055
 35
0.0
 40
3.64697968453399
1001
ACAD
1000
DSTYLE
1002
{
1070
   172
1070
     0
1070
   289
1070
     0
1070
   342
1005
90
1070
   340
1005
73
1070
   140
1040
0.318812861570598
1070
    75
1070
     1
1070
    76
1070
     1
1070
     3
1000

1070
   174
1070
     0
1070
   147
1040
0.0625
1002
}
  0
DIMENSION
  5
5FC
330
A
100
AcDbEntity
  8
Dimension
  6
Continuous
 62
     5
370
    15
390
1D
100
AcDbDimension
  2
*D67
 10
-0.5602718802194389
 20
13.84838048185893
 30
0.0
 11
3.681100472440944
 21
6.043574905316785
 31
0.0
 70
     3
 71
     5
 42
-1.0
 73
     0
 74
     0
 75
     0
  3
Placid2
100
AcDbDiametricDimension
 15
0.5120102456069926
 25
11.30963547050692
 35
0.0
 40
5.71651161193637
1001
ACAD
1000
DSTYLE
1002
{
1070
   172
1070
     0
1070
   289
1070
     0
1070
   342
1005
90
1070
   340
1005
73
1070
   140
1040
0.318812861570598
1070
    75
1070
     1
1070
    76
1070
     1
1070
     3
1000

1070
   174
1070
     0
1070
   147
1040
0.0625
1002
}
  0
MTEXT
  5
5FD
330
A
100
AcDbEntity
  8
DRAWING
 62
     5
390
1D
100
AcDbMText
 10
3.893698897637783
 20
5.750699227954749
 30
0.0
 40
0.318812861570598
 41
0.0
 46
0.0
 71
     1
 72
     1
  1
TYP.
  7
Helvetica
 73
     1
 44
0.8397955333929318
  0
LINE
  5
5FE
330
A
100
AcDbEntity
  8
PLB-Tw~
 62
   148
370
    30
390
1D
100
AcDbLine
 10
0.2755905511811019
 20
1.029921259842521
 30
0.0
 11
-0.2755905511811036
 21
1.029921259842519
 31
0.0
  0
LINE
  5
5FF
330
A
100
AcDbEntity
  8
PLB-Tw~
 62
   148
370
    30
390
1D
100
AcDbLine
 10
0.2755905511811019
 20
1.029921259842521
 30
0.0
 11
0.2755905511811019
 21
0.8418663299347671
 31
0.0
  0
LINE
  5
600
330
A
100
AcDbEntity
  8
PLB-Tw~
 62
   148
370
    30
390
1D
100
AcDbLine
 10
-0.2755905511811036
 20
1.029921259842519
 30
0.0
 11
-0.2755905511811036
 21
0.8418663299347671
 31
0.0
  0
ARC
  5
601
330
A
100
AcDbEntity
  8
DRAWING
  6
Continuous
 62
     7
370
    30
390
1D
100
AcDbCircle
 10
0.0
 20
0.0
 30
0.0
 40
0.885826771653543
100
AcDbArc
 50
108.1262039605568
 51
71.87379603944325
  0
LINE
  5
602
330
A
100
AcDbEntity
  8
PLB-Tw~
 62
   148
370
    35
390
1D
100
AcDbLine
 10
0.2514597338748796
 20
13.60892923602544
 30
0.0
 11
-0.2997213684873259
 21
13.60892923602544
 31
0.0
  0
LINE
  5
603
330
A
100
AcDbEntity
  8
PLB-Tw~
 62
   148
370
    35
390
1D
100
AcDbLine
 10
0.2514597338748796
 20
13.60892923602544
 30
0.0
 11
0.2514597338748796
 21
13.42087430611769
 31
0.0
  0
LINE
  5
604
330
A
100
AcDbEntity
  8
PLB-Tw~
 62
   148
370
    35
390
1D
100
AcDbLine
 10
-0.2997213684873259
 20
13.60892923602544
 30
0.0
 11
-0.2997213684873259
 21
13.42087430611769
 31
0.0
  0
ARC
  5
605
330
A
100
AcDbEntity
  8
DRAWING
  6
Continuous
 62
     7
370
    35
390
1D
100
AcDbCircle
 10
-0.024130817306224
 20
12.57900797618292
 30
0.0
 40
0.885826771653543
100
AcDbArc
 50
108.1262039605568
 51
71.87379603944325
  0
LINE
  5
606
330
A
100
AcDbEntity
  8
PLB-Tw~
 62
   148
370
    35
390
1D
100
AcDbLine
 10
26.71259842519685
 20
13.60892923602544
 30
0.0
 11
26.16141732283464
 21
13.60892923602544
 31
0.0
  0
LINE
  5
607
330
A
100
AcDbEntity
  8
PLB-Tw~
 62
   148
370
    35
390
1D
100
AcDbLine
 10
26.71259842519685
 20
13.60892923602544
 30
0.0
 11
26.71259842519685
 21
13.42087430611769
 31
0.0
  0
LINE
  5
608
330
A
100
AcDbEntity
  8
PLB-Tw~
 62
   148
370
    35
390
1D
100
AcDbLine
 10
26.16141732283464
 20
13.60892923602544
 30
0.0
 11
26.16141732283464
 21
13.42087430611769
 31
0.0
  0
ARC
  5
609
330
A
100
AcDbEntity
  8
DRAWING
  6
Continuous
 62
     7
370
    35
390
1D
100
AcDbCircle
 10
26.43700787401575
 20
12.57900797618292
 30
0.0
 40
0.885826771653543
100
AcDbArc
 50
108.1262039605568
 51
71.87379603944325
  0
INSERT
  5
60A
330
A
100
AcDbEntity
  8
Dimension
 62
     7
390
1D
100
AcDbBlockReference
  2
Group-44
 10
13.9714858141098
 20
10.83550848392538
 30
0.0
  0
INSERT
  5
60B
330
A
100
AcDbEntity
  8
Dimension
 62
     7
390
1D
100
AcDbBlockReference
  2
Group-45
 10
13.9714858141098
 20
10.83550848392538
 30
0.0
  0
INSERT
  5
60C
330
A
100
AcDbEntity
  8
DRAWING
 62
     7
390
1D
100
AcDbBlockReference
  2
Group-46
 10
13.9714858141098
 20
10.83550848392538
 30
0.0
  0
INSERT
  5
60D
330
A
100
AcDbEntity
  8
DRAWING
 62
     7
390
1D
100
AcDbBlockReference
  2
Group-47
 10
13.9714858141098
 20
10.83550848392538
 30
0.0
  0
INSERT
  5
60E
330
A
100
AcDbEntity
  8
DRAWING
 62
     7
390
1D
100
AcDbBlockReference
  2
Group-48
 10
13.9714858141098
 20
10.83550848392538
 30
0.0
  0
INSERT
  5
60F
330
A
100
AcDbEntity
  8
DRAWING
 62
     7
390
1D
100
AcDbBlockReference
  2
Group-49
 10
13.9714858141098
 20
10.83550848392538
 30
0.0
  0
INSERT
  5
610
330
A
100
AcDbEntity
  8
DRAWING
 62
     7
390
1D
100
AcDbBlockReference
  2
Group-50
 10
13.9714858141098
 20
10.83550848392538
 30
0.0
  0
INSERT
  5
611
330
A
100
AcDbEntity
  8
DRAWING
 62
     7
390
1D
100
AcDbBlockReference
  2
Group-51
 10
13.9714858141098
 20
10.83550848392538
 30
0.0
  0
POLYLINE
  5
612
330
A
100
AcDbEntity
  8
DRAWING
  6
Continuous
 62
     7
370
    35
390
1D
100
AcDb2dPolyline
 66
     1
 10
0.0
 20
0.0
 30
0.0
 70
     1
 75
     5
  0
VERTEX
  5
613
330
612
100
AcDbEntity
  8
DRAWING
  6
Continuous
 62
     7
370
    35
390
1D
100
AcDbVertex
100
AcDb2dVertex
 10
14.51210363966958
 20
7.559322936812846
 30
0.0
  0
VERTEX
  5
614
330
612
100
AcDbEntity
  8
DRAWING
  6
Continuous
 62
     7
370
    35
390
1D
100
AcDbVertex
100
AcDb2dVertex
 10
14.78769419085068
 20
7.559322936812846
 30
0.0
  0
VERTEX
  5
615
330
612
100
AcDbEntity
  8
DRAWING
  6
Continuous
 62
     7
370
    35
390
1D
100
AcDbVertex
100
AcDb2dVertex
 10
14.78769419085068
 20
7.165622149411271
 30
0.0
  0
VERTEX
  5
616
330
612
100
AcDbEntity
  8
DRAWING
  6
Continuous
 62
     7
370
    35
390
1D
100
AcDbVertex
100
AcDb2dVertex
 10
14.51210363966958
 20
7.165622149411271
 30
0.0
  0
SEQEND
  5
617
330
612
100
AcDbEntity
  8
DRAWING
  6
Continuous
 62
     7
370
    35
390
1D
  0
INSERT
  5
619
330
A
100
AcDbEntity
  8
DRAWING
 62
     7
390
1D
100
AcDbBlockReference
  2
Group-52
 10
13.9714858141098
 20
10.83550848392538
 30
0.0
  0
MTEXT
  5
61A
330
A
100
AcDbEntity
  8
DRAWING
 62
     5
390
1D
100
AcDbMText
 10
-3.962571547709935
 20
-2.204855726077298
 30
0.0
 40
0.318812861570598
 41
0.0
 46
0.0
 71
     1
 72
     1
  1
Ø45 mm
  7
Helvetica
 73
     1
 44
0.8397955333929318
  0
MTEXT
  5
61B
330
A
100
AcDbEntity
  8
DRAWING
 62
     5
390
1D
100
AcDbMText
 10
-2.810575019932159
 20
1.205834836003733
 30
0.0
 40
0.318812861570598
 41
0.0
 46
0.0
 71
     1
 72
     1
  1
14 mm
  7
Helvetica
 73
     1
 44
0.8397955333929318
  0
MTEXT
  5
61C
330
A
100
AcDbEntity
  8
None
 62
     5
390
1D
100
AcDbMText
 10
5.829424980067843
 20
-2.07896491620718
 30
0.0
 40
0.3188128615705982
 41
0.0
 46
0.0
 71
     2
 72
     1
  1
SHAFT GROOVES\PBOTH ENDS
  7
Helvetica
 73
     1
 44
0.8397955333929318
  0
INSERT
  5
61D
330
A
100
AcDbEntity
  8
DRAWING
 62
     7
390
1D
100
AcDbBlockReference
  2
Group-53
 10
13.9714858141098
 20
10.83550848392538
 30
0.0
  0
DIMENSION
  5
61E
330
A
100
AcDbEntity
  8
Dimension
  6
Continuous
 62
     5
370
     5
390
1D
100
AcDbDimension
  2
*D78
 10
5.649424980067842
 20
-1.06
 30
0.0
 11
4.547064980067841
 21
-1.06
 31
0.0
 70
   128
 71
     5
 42
-1.0
 73
     0
 74
     0
 75
     0
  3
Placid2
100
AcDbAlignedDimension
 13
5.885645452508792
 23
0.0
 33
0.0
 14
5.649424980067842
 24
0.0
 34
0.0
100
AcDbRotatedDimension
1001
ACAD
1000
DSTYLE
1002
{
1070
   340
1005
73
1070
   140
1040
0.318812861570598
1070
   174
1070
     0
1070
   147
1040
0.0625
1002
}
  0
DIMENSION
  5
61F
330
A
100
AcDbEntity
  8
Dimension
  6
Continuous
 62
     5
370
     5
390
1D
100
AcDbDimension
  2
*D79
 10
5.885645452508792
 20
-0.4399999999999995
 30
0.0
 11
7.070682617863118
 21
-0.4399999999999995
 31
0.0
 70
   128
 71
     5
 42
-1.0
 73
     0
 74
     0
 75
     0
  3
Placid2
100
AcDbAlignedDimension
 13
5.968322617863118
 23
0.0
 33
0.0
 14
5.885645452508792
 24
0.0
 34
0.0
100
AcDbRotatedDimension
1001
ACAD
1000
DSTYLE
1002
{
1070
   340
1005
73
1070
   140
1040
0.318812861570598
1070
     3
1000
<> X Ø1.89"
1070
   174
1070
     0
1070
   147
1040
0.0625
1002
}
  0
LINE
  5
620
330
A
100
AcDbEntity
  8
DRAWING
  6
STYLE_03
 62
     5
370
    15
390
1D
100
AcDbLine
 10
5.140000000000001
 20
0.0
 30
0.0
 11
7.140000000000001
 21
0.0
 31
0.0
  0
LINE
  5
621
330
A
100
AcDbEntity
  8
DRAWING
  6
Continuous
 62
     7
370
    25
390
1D
100
AcDbLine
 10
5.747848682670838
 20
1.377952755905616
 30
0.0
 11
5.747848682670838
 21
1.318897637795375
 31
0.0
  0
LINE
  5
622
330
A
100
AcDbEntity
  8
DRAWING
  6
Continuous
 62
     7
370
    25
390
1D
100
AcDbLine
 10
5.968322617863118
 20
0.8858267716535444
 30
0.0
 11
6.799029785033046
 21
0.8858267716535444
 31
0.0
  0
INSERT
  5
623
330
A
100
AcDbEntity
  8
DRAWING
 62
     7
390
1D
100
AcDbBlockReference
  2
Group-54
 10
13.9714858141098
 20
10.83550848392538
 30
0.0
  0
ENDSEC
  0
SECTION
  2
OBJECTS
  0
DICTIONARY
  5
19
330
0
100
AcDbDictionary
281
     1
  3
ACAD_GROUP
350
1A
  3
ACAD_LAYOUT
350
1E
  3
ACAD_MLEADERSTYLE
350
654
  3
ACAD_MLINESTYLE
350
1B
  3
ACAD_PLOTSETTINGS
350
22
  3
ACAD_PLOTSTYLENAME
350
1F
  3
ACAD_SCALELIST
350
624
  3
ACAD_TABLESTYLE
350
653
  3
AcDbVariableDictionary
350
655
  0
DICTIONARY
  5
1A
102
{ACAD_REACTORS
330
19
102
}
330
19
100
AcDbDictionary
281
     1
  0
DICTIONARY
  5
1E
102
{ACAD_REACTORS
330
19
102
}
330
19
100
AcDbDictionary
281
     1
  3
Layout1
350
21
  3
Model
350
20
  0
DICTIONARY
  5
654
102
{ACAD_REACTORS
330
19
102
}
330
19
100
AcDbDictionary
281
     1
  0
DICTIONARY
  5
1B
102
{ACAD_REACTORS
330
19
102
}
330
19
100
AcDbDictionary
281
     1
  3
Standard
350
1C
  0
DICTIONARY
  5
22
102
{ACAD_REACTORS
330
19
102
}
330
19
100
AcDbDictionary
281
     1
  0
ACDBDICTIONARYWDFLT
  5
1F
102
{ACAD_REACTORS
330
19
102
}
330
19
100
AcDbDictionary
281
     1
  3
Normal
350
1D
100
AcDbDictionaryWithDefault
340
1D
  0
DICTIONARY
  5
624
102
{ACAD_REACTORS
330
19
102
}
330
19
100
AcDbDictionary
281
     1
  3
A0
350
646
  3
A1
350
647
  3
A2
350
648
  3
A3
350
649
  3
A4
350
64A
  3
A5
350
64B
  3
A6
350
64C
  3
A7
350
64D
  3
A8
350
64E
  3
A9
350
64F
  3
B0
350
650
  3
B1
350
651
  3
B2
350
652
  0
DICTIONARY
  5
653
102
{ACAD_REACTORS
330
19
102
}
330
19
100
AcDbDictionary
281
     1
  0
DICTIONARY
  5
655
102
{ACAD_REACTORS
330
19
102
}
330
19
100
AcDbDictionary
281
     1
  3
CANNOSCALE
350
656
  0
LAYOUT
  5
21
102
{ACAD_REACTORS
330
1E
102
}
330
1E
100
AcDbPlotSettings
  1

  2

  4

  6

 40
0.0
 41
0.0
 42
0.0
 43
0.0
 44
0.0
 45
0.0
 46
0.0
 47
0.0
 48
0.0
 49
0.0
140
0.0
141
0.0
142
1.0
143
1.0
 70
     0
 72
     0
 73
     0
 74
     0
  7

 75
     0
 76
     0
 77
     2
 78
   300
147
1.0
148
0.0
149
0.0
100
AcDbLayout
  1
Layout1
 70
     0
 71
     0
 10
0.0
 20
0.0
 11
0.0
 21
0.0
 12
0.0
 22
0.0
 32
0.0
 14
0.0
 24
0.0
 34
0.0
 15
0.0
 25
0.0
 35
0.0
146
0.0
 13
0.0
 23
0.0
 33
0.0
 16
0.0
 26
0.0
 36
0.0
 17
0.0
 27
0.0
 37
0.0
 76
     0
330
B
  0
LAYOUT
  5
20
102
{ACAD_REACTORS
330
1E
102
}
330
1E
100
AcDbPlotSettings
  1

  2

  4

  6

 40
0.0
 41
0.0
 42
0.0
 43
0.0
 44
0.0
 45
0.0
 46
0.0
 47
0.0
 48
0.0
 49
0.0
140
0.0
141
0.0
142
1.0
143
1.0
 70
  1024
 72
     0
 73
     0
 74
     0
  7

 75
     0
 76
     0
 77
     2
 78
   300
147
1.0
148
0.0
149
0.0
100
AcDbLayout
  1
Model
 70
     0
 71
     0
 10
0.0
 20
0.0
 11
0.0
 21
0.0
 12
0.0
 22
0.0
 32
0.0
 14
0.0
 24
0.0
 34
0.0
 15
0.0
 25
0.0
 35
0.0
146
0.0
 13
0.0
 23
0.0
 33
0.0
 16
0.0
 26
0.0
 36
0.0
 17
0.0
 27
0.0
 37
0.0
 76
     0
330
A
331
15
  0
MLINESTYLE
  5
1C
102
{ACAD_REACTORS
330
1B
102
}
330
1B
100
AcDbMlineStyle
  2
Standard
 70
     0
  3

 62
     0
 51
90.0
 52
90.0
 71
     2
 49
0.5
 62
   256
  6
BYLAYER
 49
-0.5
 62
   256
  6
BYLAYER
  0
ACDBPLACEHOLDER
  5
1D
102
{ACAD_REACTORS
330
1F
102
}
330
1F
  0
SCALE
  5
646
102
{ACAD_REACTORS
330
624
102
}
330
624
100
AcDbScale
 70
     0
300
1'-0" = 1'-0"
140
12.0
141
12.0
290
     0
  0
SCALE
  5
647
102
{ACAD_REACTORS
330
624
102
}
330
624
100
AcDbScale
 70
     0
300
1/64" = 1'-0"
140
0.015625
141
12.0
290
     0
  0
SCALE
  5
648
102
{ACAD_REACTORS
330
624
102
}
330
624
100
AcDbScale
 70
     0
300
1/32" = 1'-0"
140
0.03125
141
12.0
290
     0
  0
SCALE
  5
649
102
{ACAD_REACTORS
330
624
102
}
330
624
100
AcDbScale
 70
     0
300
1/16" = 1'-0"
140
0.0625
141
12.0
290
     0
  0
SCALE
  5
64A
102
{ACAD_REACTORS
330
624
102
}
330
624
100
AcDbScale
 70
     0
300
3/32" = 1'-0"
140
0.09375
141
12.0
290
     0
  0
SCALE
  5
64B
102
{ACAD_REACTORS
330
624
102
}
330
624
100
AcDbScale
 70
     0
300
1/8" = 1'-0"
140
0.125
141
12.0
290
     0
  0
SCALE
  5
64C
102
{ACAD_REACTORS
330
624
102
}
330
624
100
AcDbScale
 70
     0
300
3/16" = 1'-0"
140
0.1875
141
12.0
290
     0
  0
SCALE
  5
64D
102
{ACAD_REACTORS
330
624
102
}
330
624
100
AcDbScale
 70
     0
300
1/4" = 1'-0"
140
0.25
141
12.0
290
     0
  0
SCALE
  5
64E
102
{ACAD_REACTORS
330
624
102
}
330
624
100
AcDbScale
 70
     0
300
3/8" = 1'-0"
140
0.375
141
12.0
290
     0
  0
SCALE
  5
64F
102
{ACAD_REACTORS
330
624
102
}
330
624
100
AcDbScale
 70
     0
300
1" = 1'-0"
140
1.0
141
12.0
290
     0
  0
SCALE
  5
650
102
{ACAD_REACTORS
330
624
102
}
330
624
100
AcDbScale
 70
     0
300
1 1/2" = 1'-0"
140
1.5
141
12.0
290
     0
  0
SCALE
  5
651
102
{ACAD_REACTORS
330
624
102
}
330
624
100
AcDbScale
 70
     0
300
3" = 1'-0"
140
3.0
141
12.0
290
     0
  0
SCALE
  5
652
102
{ACAD_REACTORS
330
624
102
}
330
624
100
AcDbScale
 70
     0
300
6" = 1'-0"
140
6.0
141
12.0
290
     0
  0
DICTIONARYVAR
  5
656
102
{ACAD_REACTORS
330
655
102
}
330
655
100
DictionaryVariables
280
     0
  1
1'-0" = 1'-0"
  0
ENDSEC
  0
EOF
