  0
SECTION
  2
HEADER
  9
$ACADVER
  1
AC1015
  9
$ACADMAINTVER
 70
               6
  9
$DWGCODEPAGE
  3
ANSI_1252
  9
$INSBASE
 10
0.0
 20
0.0
 30
0.0
  9
$EXTMIN
 10
-9.1052235693755499
 20
-2.0839901574803008
 30
-0.0507
  9
$EXTMAX
 10
0.2469999999999999
 20
2.9130536
 30
0.0507
  9
$LIMMIN
 10
0.0
 20
0.0
  9
$LIMMAX
 10
0.0
 20
0.0
  9
$ORTHOMODE
 70
               0
  9
$REGENMODE
 70
               1
  9
$FILLMODE
 70
               1
  9
$QTEXTMODE
 70
               0
  9
$MIRRTEXT
 70
               1
  9
$LTSCALE
 40
0.2
  9
$ATTMODE
 70
               1
  9
$TEXTSIZE
 40
0.2
  9
$TRACEWID
 40
1.0
  9
$TEXTSTYLE
  7
Standard
  9
$CLAYER
  8
None
  9
$CELTYPE
  6
Continuous
  9
$CECOLOR
 62
             256
  9
$CELTSCALE
 40
1.0
  9
$DISPSILH
 70
               0
  9
$DIMSCALE
 40
1.0
  9
$DIMASZ
 40
0.125
  9
$DIMEXO
 40
0.0
  9
$DIMDLI
 40
0.2755905511811
  9
$DIMRND
 40
0.0
  9
$DIMDLE
 40
0.0
  9
$DIMEXE
 40
0.0787401574803
  9
$DIMTP
 40
0.0
  9
$DIMTM
 40
0.0
  9
$DIMTXT
 40
0.0996290272111335
  9
$DIMCEN
 40
0.0
  9
$DIMTSZ
 40
0.0
  9
$DIMTOL
 70
               0
  9
$DIMLIM
 70
               0
  9
$DIMTIH
 70
               0
  9
$DIMTOH
 70
               0
  9
$DIMSE1
 70
               0
  9
$DIMSE2
 70
               0
  9
$DIMTAD
 70
               1
  9
$DIMZIN
 70
               7
  9
$DIMBLK
  1
VW_FILLEDARROW
  9
$DIMASO
 70
               1
  9
$DIMSHO
 70
               1
  9
$DIMPOST
  1
<>
  9
$DIMAPOST
  1
[]
  9
$DIMALT
 70
               0
  9
$DIMALTD
 70
               2
  9
$DIMALTF
 40
25.3999999999999986
  9
$DIMLFAC
 40
1.0
  9
$DIMTOFL
 70
               1
  9
$DIMTVP
 40
0.0
  9
$DIMTIX
 70
               1
  9
$DIMSOXD
 70
               0
  9
$DIMSAH
 70
               0
  9
$DIMBLK1
  1

  9
$DIMBLK2
  1

  9
$DIMSTYLE
  2
ISO
  9
$DIMCLRD
 70
               0
  9
$DIMCLRE
 70
               0
  9
$DIMCLRT
 70
               0
  9
$DIMTFAC
 40
1.0
  9
$DIMGAP
 40
0.0393700787402
  9
$DIMJUST
 70
               0
  9
$DIMSD1
 70
               0
  9
$DIMSD2
 70
               0
  9
$DIMTOLJ
 70
               1
  9
$DIMTZIN
 70
               7
  9
$DIMALTZ
 70
              11
  9
$DIMALTTZ
 70
              11
  9
$DIMUPT
 70
               0
  9
$DIMDEC
 70
               4
  9
$DIMTDEC
 70
               4
  9
$DIMALTU
 70
               2
  9
$DIMALTTD
 70
               2
  9
$DIMTXSTY
  7
Helvetica
  9
$DIMAUNIT
 70
               0
  9
$DIMADEC
 70
               0
  9
$DIMALTRND
 40
0.0
  9
$DIMAZIN
 70
               0
  9
$DIMDSEP
 70
              46
  9
$DIMATFIT
 70
               0
  9
$DIMFRAC
 70
               2
  9
$DIMLDRBLK
  1

  9
$DIMLUNIT
 70
               2
  9
$DIMLWD
 70
              -2
  9
$DIMLWE
 70
              -2
  9
$DIMTMOVE
 70
               0
  9
$LUNITS
 70
               2
  9
$LUPREC
 70
               4
  9
$SKETCHINC
 40
0.1
  9
$FILLETRAD
 40
0.0
  9
$AUNITS
 70
               0
  9
$AUPREC
 70
               0
  9
$MENU
  1
acad
  9
$ELEVATION
 40
0.0
  9
$PELEVATION
 40
0.0
  9
$THICKNESS
 40
0.0
  9
$LIMCHECK
 70
               0
  9
$CHAMFERA
 40
0.0
  9
$CHAMFERB
 40
0.0
  9
$CHAMFERC
 40
0.0
  9
$CHAMFERD
 40
0.0
  9
$SKPOLY
 70
               0
  9
$TDCREATE
 40
2454995.362418981
  9
$TDUCREATE
 40
0.000000000
  9
$TDUPDATE
 40
2454995.362418981
  9
$TDUUPDATE
 40
0.000000000
  9
$TDINDWG
 40
0.0000000000
  9
$TDUSRTIMER
 40
0.0000000000
  9
$USRTIMER
 70
               1
  9
$ANGBASE
 50
0.0
  9
$ANGDIR
 70
               0
  9
$PDMODE
 70
               1
  9
$PDSIZE
 40
-2.0
  9
$PLINEWID
 40
0.0
  9
$SPLFRAME
 70
               0
  9
$SPLINETYPE
 70
               6
  9
$SPLINESEGS
 70
               8
  9
$HANDSEED
  5
210
  9
$SURFTAB1
 70
               6
  9
$SURFTAB2
 70
               6
  9
$SURFTYPE
 70
               6
  9
$SURFU
 70
               6
  9
$SURFV
 70
               6
  9
$UCSBASE
  2

  9
$UCSNAME
  2

  9
$UCSORG
 10
0.0
 20
0.0
 30
0.0
  9
$UCSXDIR
 10
1.0
 20
0.0
 30
0.0
  9
$UCSYDIR
 10
0.0
 20
1.0
 30
0.0
  9
$UCSORTHOREF
  2

  9
$UCSORTHOVIEW
 70
               0
  9
$UCSORGTOP
 10
0.0
 20
0.0
 30
0.0
  9
$UCSORGBOTTOM
 10
0.0
 20
0.0
 30
0.0
  9
$UCSORGLEFT
 10
0.0
 20
0.0
 30
0.0
  9
$UCSORGRIGHT
 10
0.0
 20
0.0
 30
0.0
  9
$UCSORGFRONT
 10
0.0
 20
0.0
 30
0.0
  9
$UCSORGBACK
 10
0.0
 20
0.0
 30
0.0
  9
$PUCSBASE
  2

  9
$PUCSNAME
  2

  9
$PUCSORG
 10
0.0
 20
0.0
 30
0.0
  9
$PUCSXDIR
 10
1.0
 20
0.0
 30
0.0
  9
$PUCSYDIR
 10
0.0
 20
1.0
 30
0.0
  9
$PUCSORTHOREF
  2

  9
$PUCSORTHOVIEW
 70
               0
  9
$PUCSORGTOP
 10
0.0
 20
0.0
 30
0.0
  9
$PUCSORGBOTTOM
 10
0.0
 20
0.0
 30
0.0
  9
$PUCSORGLEFT
 10
0.0
 20
0.0
 30
0.0
  9
$PUCSORGRIGHT
 10
0.0
 20
0.0
 30
0.0
  9
$PUCSORGFRONT
 10
0.0
 20
0.0
 30
0.0
  9
$PUCSORGBACK
 10
0.0
 20
0.0
 30
0.0
  9
$USERI1
 70
               0
  9
$USERI2
 70
               0
  9
$USERI3
 70
               0
  9
$USERI4
 70
               0
  9
$USERI5
 70
               0
  9
$USERR1
 40
0.0
  9
$USERR2
 40
0.0
  9
$USERR3
 40
0.0
  9
$USERR4
 40
0.0
  9
$USERR5
 40
0.0
  9
$WORLDVIEW
 70
               1
  9
$SHADEDGE
 70
               3
  9
$SHADEDIF
 70
              70
  9
$TILEMODE
 70
               1
  9
$MAXACTVP
 70
              64
  9
$PINSBASE
 10
0.0
 20
0.0
 30
0.0
  9
$PLIMCHECK
 70
               0
  9
$PEXTMIN
 10
1.0000000000000000E+20
 20
1.0000000000000000E+20
 30
1.0000000000000000E+20
  9
$PEXTMAX
 10
-1.0000000000000000E+20
 20
-1.0000000000000000E+20
 30
-1.0000000000000000E+20
  9
$PLIMMIN
 10
0.0
 20
0.0
  9
$PLIMMAX
 10
12.0
 20
9.0
  9
$UNITMODE
 70
               0
  9
$VISRETAIN
 70
               0
  9
$PLINEGEN
 70
               1
  9
$PSLTSCALE
 70
               0
  9
$TREEDEPTH
 70
            3020
  9
$CMLSTYLE
  2
Standard
  9
$CMLJUST
 70
               0
  9
$CMLSCALE
 40
1.0
  9
$PROXYGRAPHICS
 70
               0
  9
$MEASUREMENT
 70
               0
  9
$CELWEIGHT
370
               0
  9
$ENDCAPS
280
               0
  9
$JOINSTYLE
280
               0
  9
$LWDISPLAY
290
               1
  9
$INSUNITS
 70
               1
  9
$HYPERLINKBASE
  1

  9
$STYLESHEET
  1

  9
$XEDIT
290
               1
  9
$CEPSNTYPE
380
               0
  9
$PSTYLEMODE
290
               1
  9
$FINGERPRINTGUID
  2

  9
$VERSIONGUID
  2

  9
$EXTNAMES
290
               1
  9
$PSVPSCALE
 40
0.0
  0
ENDSEC
  0
SECTION
  2
CLASSES
  0
CLASS
  1
LWPOLYLINE
  2
AcDbPolyline
  3
AutoCAD 2000
 90
        0
280
               0
281
               1
  0
CLASS
  1
IMAGE
  2
AcDbRasterImage
  3
ISM
 90
      127
280
               0
281
               1
  0
CLASS
  1
OLE2FRAME
  2
AcDbOle2Frame
  3
AutoCAD 2000
 90
        0
280
               0
281
               1
  0
CLASS
  1
HATCH
  2
AcDbHatch
  3
AutoCAD 2000
 90
        0
280
               0
281
               1
  0
CLASS
  1
DICTIONARYVAR
  2
AcDbDictionaryVar
  3
AutoCAD 2000
 90
        0
280
               0
281
               0
  0
CLASS
  1
RASTERVARIABLES
  2
AcDbRasterVariables
  3
ISM
 90
        0
280
               0
281
               0
  0
CLASS
  1
IMAGEDEF
  2
AcDbRasterImageDef
  3
ISM
 90
        0
280
               0
281
               0
  0
CLASS
  1
IMAGEDEF_REACTOR
  2
AcDbRasterImageDefReactor
  3
ISM
 90
        1
280
               0
281
               0
  0
CLASS
  1
IDBUFFER
  2
AcDbIdBuffer
  3
AutoCAD 2000
 90
        0
280
               0
281
               0
  0
CLASS
  1
SPATIAL_FILTER
  2
AcDbSpatialFilter
  3
AutoCAD 2000
 90
        0
280
               0
281
               0
  0
CLASS
  1
XRECORD
  2
AcDbXrecord
  3
AutoCAD 2000
 90
        0
280
               0
281
               0
  0
CLASS
  1
SORTENTSTABLE
  2
AcDbSortentsTable
  3
AutoCAD 2000
 90
        0
280
               0
281
               0
  0
CLASS
  1
LAYER_INDEX
  2
AcDbLayerIndex
  3
AutoCAD 2000
 90
        0
280
               0
281
               0
  0
CLASS
  1
SPATIAL_INDEX
  2
AcDbSpatialIndex
  3
AutoCAD 2000
 90
        0
280
               0
281
               0
  0
CLASS
  1
OBJECT_PTR
  2
CAseDLPNTableRecord
  3
"ASE-LPNTableRecord"
 90
        1
280
               0
281
               0
  0
CLASS
  1
LAYOUT
  2
AcDbLayout
  3
AutoCAD 2000
 90
        0
280
               0
281
               0
  0
CLASS
  1
PLOTSETTINGS
  2
AcDbPlotSettings
  3
AutoCAD 2000
 90
        0
280
               0
281
               0
  0
CLASS
  1
ACDBDICTIONARYWDFLT
  2
AcDbDictionaryWithDefault
  3
AutoCAD 2000
 90
        0
280
               0
281
               0
  0
CLASS
  1
ACDBPLACEHOLDER
  2
AcDbPlaceHolder
  3
AutoCAD 2000
 90
        0
280
               0
281
               0
  0
CLASS
  1
VBA_PROJECT
  2
AcDbVbaProject
  3
acadvba
 90
        0
280
               0
281
               0
  0
CLASS
  1
WIPEOUT
  2
AcDbWipeout
  3
WipeOut|AutoCAD Express Tool|expresstools@autodesk.com
 90
      127
280
               0
281
               1
  0
CLASS
  1
WIPEOUTVARIABLES
  2
AcDbWipeoutVariables
  3
WipeOut|AutoCAD Express Tool|expresstools@autodesk.com
 90
        0
280
               0
281
               0
  0
CLASS
  1
RTEXT
  2
RText
  3
RText|AutoCAD Express Tool|expresstools@autodesk.com
 90
        0
280
               0
281
               1
  0
CLASS
  1
ARCALIGNEDTEXT
  2
AcDbArcAlignedText
  3
ATEXT|AutoCAD Express Tool|expresstools@autodesk.com
 90
        0
280
               0
281
               1
  0
ENDSEC
  0
SECTION
  2
TABLES
  0
TABLE
  2
VPORT
  5
7
100
AcDbSymbolTable
 70
               1
  0
VPORT
  5
15
100
AcDbSymbolTableRecord
100
AcDbViewportTableRecord
  2
*ACTIVE
 70
               0
 10
0.0
 20
0.0
 11
1.0
 21
1.0
 12
-4.429111784687775
 22
0.4145317212598494
 13
0.0
 23
0.0
 14
1.0
 24
1.0
 15
0.0
 25
0.0
 16
0.0
 26
0.0
 36
1.0
 17
0.0
 27
0.0
 37
0.0
 40
4.9970437574803004
 41
0.688564
 42
50.0
 43
0.0
 44
0.0
 50
0.0
 51
0.0
 71
               0
 72
            2000
 73
               1
 74
               1
 75
               0
 76
               0
 77
               0
 78
               0
281
               0
 65
               0
110
0.0
120
0.0
130
0.0
111
1.0
121
0.0
131
0.0
112
0.0
122
1.0
132
0.0
345
0
346
0
 79
               0
146
0.0
  0
ENDTAB
  0
TABLE
  2
LTYPE
  5
4
100
AcDbSymbolTable
 70
              16
  0
LTYPE
  5
11
100
AcDbSymbolTableRecord
100
AcDbLinetypeTableRecord
  2
ByBlock
 70
              64
  3

 72
              65
 73
               0
 40
0.0
  0
LTYPE
  5
12
100
AcDbSymbolTableRecord
100
AcDbLinetypeTableRecord
  2
ByLayer
 70
              64
  3

 72
              65
 73
               0
 40
0.0
  0
LTYPE
  5
13
100
AcDbSymbolTableRecord
100
AcDbLinetypeTableRecord
  2
Continuous
 70
              64
  3
Solid line
 72
              65
 73
               0
 40
0.0
  0
LTYPE
  5
3E
100
AcDbSymbolTableRecord
100
AcDbLinetypeTableRecord
  2
STYLE_01
 70
               0
  3

 72
              65
 73
               2
 40
0.4166412353515625
 49
0.208282470703125
 74
               0
 49
-0.2083587646484375
 74
               0
  0
LTYPE
  5
3F
100
AcDbSymbolTableRecord
100
AcDbLinetypeTableRecord
  2
STYLE_02
 70
               0
  3

 72
              65
 73
               2
 40
0.694427490234375
 49
0.4860687255859375
 74
               0
 49
-0.2083587646484375
 74
               0
  0
LTYPE
  5
40
100
AcDbSymbolTableRecord
100
AcDbLinetypeTableRecord
  2
STYLE_03
 70
               0
  3

 72
              65
 73
               2
 40
1.25
 49
1.0416412353515625
 74
               0
 49
-0.2083587646484375
 74
               0
  0
LTYPE
  5
41
100
AcDbSymbolTableRecord
100
AcDbLinetypeTableRecord
  2
STYLE_04
 70
               0
  3

 72
              65
 73
               2
 40
1.5277099609375
 49
1.319427490234375
 74
               0
 49
-0.208282470703125
 74
               0
  0
LTYPE
  5
42
100
AcDbSymbolTableRecord
100
AcDbLinetypeTableRecord
  2
STYLE_05
 70
               0
  3

 72
              65
 73
               2
 40
0.208282470703125
 49
0.069427490234375
 74
               0
 49
-0.13885498046875
 74
               0
  0
LTYPE
  5
43
100
AcDbSymbolTableRecord
100
AcDbLinetypeTableRecord
  2
STYLE_06
 70
               0
  3

 72
              65
 73
               4
 40
1.0416412353515625
 49
0.625
 74
               0
 49
-0.208282470703125
 74
               0
 49
0.069427490234375
 74
               0
 49
-0.1389312744140625
 74
               0
  0
LTYPE
  5
44
100
AcDbSymbolTableRecord
100
AcDbLinetypeTableRecord
  2
STYLE_07
 70
               0
  3

 72
              65
 73
               6
 40
1.875
 49
0.625
 74
               0
 49
-0.208282470703125
 74
               0
 49
0.625
 74
               0
 49
-0.2083587646484375
 74
               0
 49
0.069427490234375
 74
               0
 49
-0.1389312744140625
 74
               0
  0
LTYPE
  5
45
100
AcDbSymbolTableRecord
100
AcDbLinetypeTableRecord
  2
STYLE_08
 70
               0
  3

 72
              65
 73
               6
 40
1.25
 49
0.625
 74
               0
 49
-0.208282470703125
 74
               0
 49
0.069427490234375
 74
               0
 49
-0.1389312744140625
 74
               0
 49
0.069427490234375
 74
               0
 49
-0.1389312744140625
 74
               0
  0
LTYPE
  5
46
100
AcDbSymbolTableRecord
100
AcDbLinetypeTableRecord
  2
STYLE_09
 70
               0
  3

 72
              65
 73
               4
 40
5.0
 49
3.75
 74
               0
 49
-0.2777862548828125
 74
               0
 49
0.694427490234375
 74
               0
 49
-0.2777862548828125
 74
               0
  0
LTYPE
  5
47
100
AcDbSymbolTableRecord
100
AcDbLinetypeTableRecord
  2
STYLE_10
 70
               0
  3

 72
              65
 73
               6
 40
5.9375
 49
3.75
 74
               0
 49
-0.2777862548828125
 74
               0
 49
0.694427490234375
 74
               0
 49
-0.2777862548828125
 74
               0
 49
0.625
 74
               0
 49
-0.3125
 74
               0
  0
LTYPE
  5
48
100
AcDbSymbolTableRecord
100
AcDbLinetypeTableRecord
  2
STYLE_11
 70
               0
  3

 72
              65
 73
               2
 40
0.3472137451171875
 49
0.2083587646484375
 74
               0
 49
-0.13885498046875
 74
               0
  0
LTYPE
  5
49
100
AcDbSymbolTableRecord
100
AcDbLinetypeTableRecord
  2
STYLE_12
 70
               0
  3

 72
              65
 73
               2
 40
0.2777862548828125
 49
0.2083587646484375
 74
               0
 49
-0.069427490234375
 74
               0
  0
LTYPE
  5
4A
100
AcDbSymbolTableRecord
100
AcDbLinetypeTableRecord
  2
STYLE_13
 70
               0
  3

 72
              65
 73
               2
 40
0.208282470703125
 49
0.13885498046875
 74
               0
 49
-0.069427490234375
 74
               0
  0
ENDTAB
  0
TABLE
  2
LAYER
  5
2
100
AcDbSymbolTable
 70
               4
  0
LAYER
  5
14
100
AcDbSymbolTableRecord
100
AcDbLayerTableRecord
  2
0
 70
               0
 62
               7
  6
Continuous
290
               1
370
              -3
390
1D
  0
LAYER
  5
4B
100
AcDbSymbolTableRecord
100
AcDbLayerTableRecord
  2
None
 70
               0
 62
               7
  6
Continuous
290
               1
370
               5
390
1D
  0
LAYER
  5
4C
100
AcDbSymbolTableRecord
100
AcDbLayerTableRecord
  2
Dimension
 70
               0
 62
               7
  6
Continuous
290
               1
370
               5
390
1D
  0
LAYER
  5
4D
100
AcDbSymbolTableRecord
100
AcDbLayerTableRecord
  2
Defpoints
 70
               0
 62
               7
  6
Continuous
290
               0
370
              -3
390
1D
  0
ENDTAB
  0
TABLE
  2
STYLE
  5
3
100
AcDbSymbolTable
 70
               2
  0
STYLE
  5
17
100
AcDbSymbolTableRecord
100
AcDbTextStyleTableRecord
  2
Standard
 70
               0
 40
0.0
 41
1.0
 50
0.0
 71
               0
 42
0.0
  3
txt
  4

  0
STYLE
  5
3D
100
AcDbSymbolTableRecord
100
AcDbTextStyleTableRecord
  2
Helvetica
 70
               0
 40
0.0
 41
1.0
 50
0.0
 71
               0
 42
0.0
  3
Helvetica
  4

1001
ACAD
1000
Helvetica
1071
        0
  0
ENDTAB
  0
TABLE
  2
VIEW
  5
5
100
AcDbSymbolTable
 70
               0
  0
ENDTAB
  0
TABLE
  2
UCS
  5
6
100
AcDbSymbolTable
 70
               0
  0
ENDTAB
  0
TABLE
  2
APPID
  5
8
100
AcDbSymbolTable
 70
               1
  0
APPID
  5
16
100
AcDbSymbolTableRecord
100
AcDbRegAppTableRecord
  2
ACAD
 70
               0
  0
ENDTAB
  0
TABLE
  2
DIMSTYLE
  5
9
100
AcDbSymbolTable
 70
               2
100
AcDbDimStyleTable
 71
               0
  0
DIMSTYLE
105
18
100
AcDbSymbolTableRecord
100
AcDbDimStyleTableRecord
  2
Standard
 70
               0
  3

  4

 40
1.0
 41
0.18
 42
0.0625
 43
0.38
 44
0.18
 45
0.0
 46
0.0
 47
0.0
 48
0.0
 71
               0
 72
               0
 73
               1
 74
               1
 75
               0
 76
               0
 77
               0
 78
               0
 79
               0
140
0.18
141
0.09
142
0.0
143
25.3999999999999986
144
1.0
145
0.0
146
1.0
147
0.09
148
0.0
170
               0
171
               2
172
               0
173
               0
174
               0
175
               0
176
               0
177
               0
178
               0
179
               0
271
               4
272
               4
273
               2
274
               2
275
               0
276
               0
277
               2
278
              46
279
               0
280
               0
281
               0
282
               0
283
               1
284
               0
285
               0
286
               0
288
               0
289
               3
340
17
341
0
342
0
343
0
344
0
371
              -2
372
              -2
  0
DIMSTYLE
105
57
100
AcDbSymbolTableRecord
100
AcDbDimStyleTableRecord
  2
ISO
 70
               0
  3
<>
  4
[]
 40
1.0
 41
0.125
 42
0.0
 43
0.2755905511811
 44
0.0787401574803
 45
0.0
 46
0.0
 47
0.0
 48
0.0
 71
               0
 72
               0
 73
               0
 74
               0
 75
               0
 76
               0
 77
               1
 78
               7
 79
               0
140
0.0996290272111335
141
0.0
142
0.0
143
25.3999999999999986
144
1.0
145
0.0
146
1.0
147
0.0393700787402
148
0.0
170
               0
171
               2
172
               1
173
               0
174
               1
175
               0
176
               0
177
               0
178
               0
179
               0
271
               4
272
               4
273
               2
274
               2
275
               0
276
               2
277
               2
278
              46
279
               0
280
               0
281
               0
282
               0
283
               1
284
               7
285
              11
286
              11
288
               0
289
               0
340
3D
341
4E
342
4E
343
0
344
0
371
              -2
372
              -2
  0
ENDTAB
  0
TABLE
  2
BLOCK_RECORD
  5
1
100
AcDbSymbolTable
 70
              26
  0
BLOCK_RECORD
  5
A
100
AcDbSymbolTableRecord
100
AcDbBlockTableRecord
  2
*MODEL_SPACE
340
20
  0
BLOCK_RECORD
  5
B
100
AcDbSymbolTableRecord
100
AcDbBlockTableRecord
  2
*PAPER_SPACE
340
21
  0
BLOCK_RECORD
  5
4E
100
AcDbSymbolTableRecord
100
AcDbBlockTableRecord
  2
VW_FILLEDARROW
340
0
  0
BLOCK_RECORD
  5
24
100
AcDbSymbolTableRecord
100
AcDbBlockTableRecord
  2
Group
340
0
102
{BLKREFS
331
72
102
}
  0
BLOCK_RECORD
  5
25
100
AcDbSymbolTableRecord
100
AcDbBlockTableRecord
  2
Group-1
340
0
102
{BLKREFS
331
73
102
}
  0
BLOCK_RECORD
  5
26
100
AcDbSymbolTableRecord
100
AcDbBlockTableRecord
  2
Group-2
340
0
102
{BLKREFS
331
1BE
102
}
  0
BLOCK_RECORD
  5
27
100
AcDbSymbolTableRecord
100
AcDbBlockTableRecord
  2
*D4
340
0
  0
BLOCK_RECORD
  5
28
100
AcDbSymbolTableRecord
100
AcDbBlockTableRecord
  2
*D5
340
0
  0
BLOCK_RECORD
  5
29
100
AcDbSymbolTableRecord
100
AcDbBlockTableRecord
  2
*D6
340
0
  0
BLOCK_RECORD
  5
2A
100
AcDbSymbolTableRecord
100
AcDbBlockTableRecord
  2
*D7
340
0
  0
BLOCK_RECORD
  5
2B
100
AcDbSymbolTableRecord
100
AcDbBlockTableRecord
  2
*D8
340
0
  0
BLOCK_RECORD
  5
2C
100
AcDbSymbolTableRecord
100
AcDbBlockTableRecord
  2
Group-3
340
0
102
{BLKREFS
331
DB
102
}
  0
BLOCK_RECORD
  5
2D
100
AcDbSymbolTableRecord
100
AcDbBlockTableRecord
  2
Group-4
340
0
102
{BLKREFS
331
1D6
102
}
  0
BLOCK_RECORD
  5
2E
100
AcDbSymbolTableRecord
100
AcDbBlockTableRecord
  2
Group-5
340
0
102
{BLKREFS
331
EB
102
}
  0
BLOCK_RECORD
  5
2F
100
AcDbSymbolTableRecord
100
AcDbBlockTableRecord
  2
Group-6
340
0
102
{BLKREFS
331
1D7
102
}
  0
BLOCK_RECORD
  5
30
100
AcDbSymbolTableRecord
100
AcDbBlockTableRecord
  2
Group-7
340
0
102
{BLKREFS
331
FB
102
}
  0
BLOCK_RECORD
  5
31
100
AcDbSymbolTableRecord
100
AcDbBlockTableRecord
  2
Group-8
340
0
102
{BLKREFS
331
1D8
102
}
  0
BLOCK_RECORD
  5
32
100
AcDbSymbolTableRecord
100
AcDbBlockTableRecord
  2
Group-9
340
0
102
{BLKREFS
331
10B
102
}
  0
BLOCK_RECORD
  5
33
100
AcDbSymbolTableRecord
100
AcDbBlockTableRecord
  2
Group-10
340
0
102
{BLKREFS
331
1D9
102
}
  0
BLOCK_RECORD
  5
34
100
AcDbSymbolTableRecord
100
AcDbBlockTableRecord
  2
Group-11
340
0
102
{BLKREFS
331
127
102
}
  0
BLOCK_RECORD
  5
35
100
AcDbSymbolTableRecord
100
AcDbBlockTableRecord
  2
Group-12
340
0
102
{BLKREFS
331
1DA
102
}
  0
BLOCK_RECORD
  5
36
100
AcDbSymbolTableRecord
100
AcDbBlockTableRecord
  2
Group-13
340
0
102
{BLKREFS
331
1DB
102
}
  0
BLOCK_RECORD
  5
37
100
AcDbSymbolTableRecord
100
AcDbBlockTableRecord
  2
Group-14
340
0
102
{BLKREFS
331
1F8
102
}
  0
BLOCK_RECORD
  5
38
100
AcDbSymbolTableRecord
100
AcDbBlockTableRecord
  2
*D21
340
0
  0
BLOCK_RECORD
  5
39
100
AcDbSymbolTableRecord
100
AcDbBlockTableRecord
  2
Group-15
340
0
102
{BLKREFS
331
17C
102
}
  0
BLOCK_RECORD
  5
3A
100
AcDbSymbolTableRecord
100
AcDbBlockTableRecord
  2
Group-16
340
0
102
{BLKREFS
331
17D
102
}
  0
BLOCK_RECORD
  5
3B
100
AcDbSymbolTableRecord
100
AcDbBlockTableRecord
  2
Group-17
340
0
102
{BLKREFS
331
20D
102
}
  0
BLOCK_RECORD
  5
3C
100
AcDbSymbolTableRecord
100
AcDbBlockTableRecord
  2
*D25
340
0
  0
ENDTAB
  0
ENDSEC
  0
SECTION
  2
BLOCKS
  0
BLOCK
  5
D
100
AcDbEntity
  8
0
390
0
100
AcDbBlockBegin
  2
*MODEL_SPACE
 70
               0
 10
0.0
 20
0.0
 30
0.0
  3
*MODEL_SPACE
  1

  0
ENDBLK
  5
E
100
AcDbEntity
  8
0
390
0
100
AcDbBlockEnd
  0
BLOCK
  5
F
100
AcDbEntity
 67
               1
  8
0
390
0
100
AcDbBlockBegin
  2
*PAPER_SPACE
 70
               0
 10
0.0
 20
0.0
 30
0.0
  3
*PAPER_SPACE
  1

  0
ENDBLK
  5
10
100
AcDbEntity
 67
               1
  8
0
390
0
100
AcDbBlockEnd
  0
BLOCK
  5
4F
100
AcDbEntity
  8
0
370
              -2
390
0
  6
ByBlock
 62
               0
100
AcDbBlockBegin
  2
VW_FILLEDARROW
 70
               0
 10
0.0
 20
0.0
 30
0.0
  3
VW_FILLEDARROW
  1

  0
POLYLINE
  5
50
102
{ACAD_REACTORS
330
55
102
}
100
AcDbEntity
  8
None
370
               5
390
0
  6
Continuous
 62
               0
100
AcDb2dPolyline
 66
               1
 10
0.0
 20
0.0
 30
0.0
 70
               1
 75
               5
  0
VERTEX
  5
51
100
AcDbEntity
  8
None
370
               5
390
0
  6
Continuous
 62
               0
100
AcDbVertex
100
AcDb2dVertex
 10
-1.0
 20
0.2679491924311228
 30
0.0
  0
VERTEX
  5
52
100
AcDbEntity
  8
None
370
               5
390
0
  6
Continuous
 62
               0
100
AcDbVertex
100
AcDb2dVertex
 10
0.0
 20
0.0
 30
0.0
  0
VERTEX
  5
53
100
AcDbEntity
  8
None
370
               5
390
0
  6
Continuous
 62
               0
100
AcDbVertex
100
AcDb2dVertex
 10
-0.9999999999999999
 20
-0.267949192431123
 30
0.0
  0
SEQEND
  5
54
100
AcDbEntity
  8
None
370
               5
390
0
  6
Continuous
 62
               0
  0
HATCH
  5
55
100
AcDbEntity
  8
0
370
               0
390
0
  6
ByBlock
 62
               0
100
AcDbHatch
 10
0.0
 20
0.0
 30
0.0
210
0.0
220
0.0
230
1.0
  2
SOLID
 70
               1
 71
               1
 91
        1
 92
        1
 93
        3
 72
               1
 10
-1.0
 20
0.2679491924311228
 11
0.0
 21
0.0
 72
               1
 10
0.0
 20
0.0
 11
-0.9999999999999999
 21
-0.267949192431123
 72
               1
 10
-0.9999999999999999
 20
-0.267949192431123
 11
-1.0
 21
0.2679491924311228
 97
        1
330
50
 75
               0
 76
               1
 98
        1
 10
0.0
 20
0.0
  0
ENDBLK
  5
56
100
AcDbEntity
  8
0
390
0
100
AcDbBlockEnd
  0
BLOCK
  5
58
100
AcDbEntity
  8
None
390
0
100
AcDbBlockBegin
  2
Group
 70
               0
 10
0.0
 20
0.0
 30
0.0
  3
Group
  1

  0
LINE
  5
59
100
AcDbEntity
  8
None
370
               5
390
0
  6
Continuous
 62
               7
100
AcDbLine
 10
2.7996780000000001
 20
1.2357290000000001
 30
0.0
 11
2.7994238999999999
 21
1.4808504999999998
 31
0.0
  0
LINE
  5
5A
100
AcDbEntity
  8
None
370
               5
390
0
  6
Continuous
 62
               7
100
AcDbLine
 10
2.6794237999999999
 20
1.4808193999999999
 30
0.0
 11
2.6796779000000002
 21
1.2356978999999999
 31
0.0
  0
LINE
  5
5B
100
AcDbEntity
  8
None
370
               5
390
0
  6
Continuous
 62
               7
100
AcDbLine
 10
2.6794237999999999
 20
1.4808193999999999
 30
0.0
 11
2.7994238999999999
 21
1.4808504999999998
 31
0.0
  0
ENDBLK
  5
5C
100
AcDbEntity
  8
None
390
0
100
AcDbBlockEnd
  0
BLOCK
  5
5D
100
AcDbEntity
  8
None
390
0
100
AcDbBlockBegin
  2
Group-1
 70
               0
 10
0.0
 20
0.0
 30
0.0
  3
Group-1
  1

  0
LINE
  5
5E
100
AcDbEntity
  8
None
370
               5
390
0
  6
Continuous
 62
               7
100
AcDbLine
 10
2.6790299000000002
 20
1.9331480999999999
 30
0.0
 11
2.7990298
 21
1.9331837999999999
 31
0.0
  0
LINE
  5
5F
100
AcDbEntity
  8
None
370
               5
390
0
  6
Continuous
 62
               7
100
AcDbLine
 10
2.7990298
 20
1.9331837999999999
 30
0.0
 11
2.7993926999999998
 21
1.5332193999999999
 31
0.0
  0
LINE
  5
60
100
AcDbEntity
  8
None
370
               5
390
0
  6
Continuous
 62
               7
100
AcDbLine
 10
2.6790299000000002
 20
1.9331480999999999
 30
0.0
 11
2.6793928
 21
1.5331838
 31
0.0
  0
LINE
  5
61
100
AcDbEntity
  8
None
370
               5
390
0
  6
Continuous
 62
               7
100
AcDbLine
 10
2.6793928
 20
1.5331838
 30
0.0
 11
2.7993926999999998
 21
1.5332193999999999
 31
0.0
  0
ENDBLK
  5
62
100
AcDbEntity
  8
None
390
0
100
AcDbBlockEnd
  0
BLOCK
  5
63
100
AcDbEntity
  8
None
390
0
100
AcDbBlockBegin
  2
Group-2
 70
               0
 10
0.0
 20
0.0
 30
0.0
  3
Group-2
  1

  0
LINE
  5
64
100
AcDbEntity
  8
None
370
               5
390
0
  6
Continuous
 62
               7
100
AcDbLine
 10
2.7390298999999998
 20
1.9331526999999999
 30
0.0
 11
2.9233715
 21
2.6601451000000003
 31
0.0
  0
LINE
  5
65
100
AcDbEntity
  8
None
370
               5
390
0
  6
Continuous
 62
               7
100
AcDbLine
 10
2.7906192999999999
 20
1.9331794
 30
0.0
 11
2.9718377999999999
 21
2.6478556999999996
 31
0.0
  0
LINE
  5
66
100
AcDbEntity
  8
None
370
               5
390
0
  6
Continuous
 62
               7
100
AcDbLine
 10
2.7390298999999998
 20
1.9331526999999999
 30
0.0
 11
2.5965920999999996
 21
2.6695025999999999
 31
0.0
  0
LINE
  5
67
100
AcDbEntity
  8
None
370
               5
390
0
  6
Continuous
 62
               7
100
AcDbLine
 10
2.6881081999999998
 20
1.9331261000000002
 30
0.0
 11
2.5475020000000002
 21
2.6600069
 31
0.0
  0
LINE
  5
68
100
AcDbEntity
  8
None
370
               5
390
0
  6
Continuous
 62
               7
100
AcDbLine
 10
2.9233715
 20
2.6601451000000003
 30
0.0
 11
2.9718377999999999
 21
2.6478556999999996
 31
0.0
  0
LINE
  5
69
100
AcDbEntity
  8
None
370
               5
390
0
  6
Continuous
 62
               7
100
AcDbLine
 10
2.5965920999999996
 20
2.6695025999999999
 30
0.0
 11
2.5475020000000002
 21
2.6600069
 31
0.0
  0
LINE
  5
6A
100
AcDbEntity
  8
None
370
               5
390
0
  6
Continuous
 62
               7
100
AcDbLine
 10
3.0090523
 20
2.8963312999999999
 30
0.0
 11
3.0235919999999998
 21
2.8926443000000002
 31
0.0
  0
LINE
  5
6B
100
AcDbEntity
  8
None
370
               5
390
0
  6
Continuous
 62
               7
100
AcDbLine
 10
3.0235919999999998
 20
2.8926443000000002
 30
0.0
 11
2.9621447000000001
 21
2.6503135000000002
 31
0.0
  0
LINE
  5
6C
100
AcDbEntity
  8
None
370
               5
390
0
  6
Continuous
 62
               7
100
AcDbLine
 10
3.0235919999999998
 20
2.8926443000000002
 30
0.0
 11
2.9945124000000001
 21
2.9000180000000002
 31
0.0
  0
LINE
  5
6D
100
AcDbEntity
  8
None
370
               5
390
0
  6
Continuous
 62
               7
100
AcDbLine
 10
2.9945124000000001
 20
2.9000180000000002
 30
0.0
 11
2.9330649000000002
 21
2.6576871999999998
 31
0.0
  0
LINE
  5
6E
100
AcDbEntity
  8
None
370
               5
390
0
  6
Continuous
 62
               7
100
AcDbLine
 10
2.5245680000000004
 20
2.9102047999999998
 30
0.0
 11
2.5392949000000002
 21
2.9130536
 31
0.0
  0
LINE
  5
6F
100
AcDbEntity
  8
None
370
               5
390
0
  6
Continuous
 62
               7
100
AcDbLine
 10
2.5392949000000002
 20
2.9130536
 30
0.0
 11
2.5867749
 21
2.6676036999999999
 31
0.0
  0
LINE
  5
70
100
AcDbEntity
  8
None
370
               5
390
0
  6
Continuous
 62
               7
100
AcDbLine
 10
2.5392949000000002
 20
2.9130536
 30
0.0
 11
2.5098410000000002
 21
2.9073560000000001
 31
0.0
  0
LINE
  5
71
100
AcDbEntity
  8
None
370
               5
390
0
  6
Continuous
 62
               7
100
AcDbLine
 10
2.5098410000000002
 20
2.9073560000000001
 30
0.0
 11
2.5573209000000001
 21
2.6619063000000001
 31
0.0
  0
INSERT
  5
72
100
AcDbEntity
  8
None
390
0
 62
               7
100
AcDbBlockReference
  2
Group
 10
0.0
 20
0.0
 30
0.0
  0
INSERT
  5
73
100
AcDbEntity
  8
None
390
0
 62
               7
100
AcDbBlockReference
  2
Group-1
 10
0.0
 20
0.0
 30
0.0
  0
ENDBLK
  5
74
100
AcDbEntity
  8
None
390
0
100
AcDbBlockEnd
  0
BLOCK
  5
75
100
AcDbEntity
  8
Dimension
390
0
100
AcDbBlockBegin
  2
*D4
 70
               1
 10
0.0
 20
0.0
 30
0.0
  3
*D4
  1

  0
LINE
  5
76
100
AcDbEntity
  8
Dimension
370
              -2
390
0
  6
Continuous
 62
               0
100
AcDbLine
 10
-7.3205942552228258
 20
-0.132405744777174
 30
0.0
 11
-6.2129999746504625
 21
-1.2400000253495373
 31
0.0
  0
POLYLINE
  5
77
102
{ACAD_REACTORS
330
7C
102
}
100
AcDbEntity
  8
None
370
               5
390
0
  6
Continuous
 62
               0
100
AcDb2dPolyline
 66
               1
 10
0.0
 20
0.0
 30
0.0
 70
               1
 75
               5
  0
VERTEX
  5
78
100
AcDbEntity
  8
None
370
               5
390
0
  6
Continuous
 62
               0
100
AcDbVertex
100
AcDb2dVertex
 10
-7.2558894939471958
 20
-0.2444776787981807
 30
0.0
  0
VERTEX
  5
79
100
AcDbEntity
  8
None
370
               5
390
0
  6
Continuous
 62
               0
100
AcDbVertex
100
AcDb2dVertex
 10
-7.3205942552228258
 20
-0.132405744777174
 30
0.0
  0
VERTEX
  5
7A
100
AcDbEntity
  8
None
370
               5
390
0
  6
Continuous
 62
               0
100
AcDbVertex
100
AcDb2dVertex
 10
-7.2085223212018192
 20
-0.1971105060528042
 30
0.0
  0
SEQEND
  5
7B
100
AcDbEntity
  8
None
370
               5
390
0
  6
Continuous
 62
               0
  0
HATCH
  5
7C
100
AcDbEntity
  8
Dimension
370
               0
390
0
  6
Continuous
 62
               0
100
AcDbHatch
 10
0.0
 20
0.0
 30
0.0
210
0.0
220
0.0
230
1.0
  2
SOLID
 70
               1
 71
               1
 91
        1
 92
        1
 93
        3
 72
               1
 10
-7.2558894939471958
 20
-0.2444776787981807
 11
-7.3205942552228258
 21
-0.132405744777174
 72
               1
 10
-7.3205942552228258
 20
-0.132405744777174
 11
-7.2085223212018192
 21
-0.1971105060528042
 72
               1
 10
-7.2085223212018192
 20
-0.1971105060528042
 11
-7.2558894939471958
 21
-0.2444776787981807
 97
        1
330
77
 75
               0
 76
               1
 98
        1
 10
0.0
 20
0.0
  0
LINE
  5
7D
100
AcDbEntity
  8
Dimension
370
              -2
390
0
  6
Continuous
 62
               0
100
AcDbLine
 10
-6.2129999746504625
 20
-1.2400000253495373
 30
0.0
 11
-5.9767795022095624
 21
-1.2400000253495373
 31
0.0
  0
MTEXT
  5
7E
100
AcDbEntity
  8
Dimension
390
0
 62
               0
100
AcDbMText
 10
-5.9767795022095624
 20
-1.2125932178050707
 30
0.0
 40
0.0996290272111335
 41
0.0
 71
               1
 72
               1
  1
Ø 
  7
Helvetica
 73
               1
 44
0.8397955333929318
  0
MTEXT
  5
7F
100
AcDbEntity
  8
Dimension
390
0
 62
               0
100
AcDbMText
 10
-5.8301594802835304
 20
-1.0945376622495151
 30
0.0
 40
0.0996290272111335
 41
0.0
 71
               1
 72
               1
  1
.3747
  7
Helvetica
 73
               1
 44
0.8397955333929318
  0
MTEXT
  5
80
100
AcDbEntity
  8
Dimension
390
0
 62
               0
100
AcDbMText
 10
-5.8301594802835304
 20
-1.261204340027293
 30
0.0
 40
0.0996290272111335
 41
0.0
 71
               1
 72
               1
  1
.3743
  7
Helvetica
 73
               1
 44
0.8397955333929318
  0
MTEXT
  5
81
100
AcDbEntity
  8
Dimension
390
0
 62
               0
100
AcDbMText
 10
-5.4825981440575973
 20
-1.2118616746994735
 30
0.0
 40
0.0896661173167308
 41
0.0
 71
               1
 72
               1
  1
 
  7
Helvetica
 73
               1
 44
0.8397955333929319
  0
POINT
  5
82
100
AcDbEntity
  8
Defpoints
370
               0
390
0
 62
               0
100
AcDbPoint
 10
-7.5854057447771739
 20
0.132405744777174
 30
0.0
  0
POINT
  5
83
100
AcDbEntity
  8
Defpoints
370
               0
390
0
 62
               0
100
AcDbPoint
 10
-7.3205942552228258
 20
-0.132405744777174
 30
0.0
  0
ENDBLK
  5
84
100
AcDbEntity
  8
Dimension
390
0
100
AcDbBlockEnd
  0
BLOCK
  5
85
100
AcDbEntity
  8
Dimension
390
0
100
AcDbBlockBegin
  2
*D5
 70
               1
 10
0.0
 20
0.0
 30
0.0
  3
*D5
  1

  0
LINE
  5
86
100
AcDbEntity
  8
Dimension
370
              -2
390
0
  6
Continuous
 62
               0
100
AcDbLine
 10
-2.4530000000000003
 20
-1.3175000000000001
 30
0.0
 11
-2.4530000000000003
 21
-1.6587401574803002
 31
0.0
  0
LINE
  5
87
100
AcDbEntity
  8
Dimension
370
              -2
390
0
  6
Continuous
 62
               0
100
AcDbLine
 10
-1.0830000000000002
 20
-1.3175000000000001
 30
0.0
 11
-1.0830000000000002
 21
-1.6587401574803002
 31
0.0
  0
LINE
  5
88
100
AcDbEntity
  8
Dimension
370
              -2
390
0
  6
Continuous
 62
               0
100
AcDbLine
 10
-2.4530000000000003
 20
-1.5800000000000001
 30
0.0
 11
-1.0830000000000002
 21
-1.5800000000000001
 31
0.0
  0
POLYLINE
  5
89
102
{ACAD_REACTORS
330
8E
102
}
100
AcDbEntity
  8
None
370
               5
390
0
  6
Continuous
 62
               0
100
AcDb2dPolyline
 66
               1
 10
0.0
 20
0.0
 30
0.0
 70
               1
 75
               5
  0
VERTEX
  5
8A
100
AcDbEntity
  8
None
370
               5
390
0
  6
Continuous
 62
               0
100
AcDbVertex
100
AcDb2dVertex
 10
-2.3280000000000003
 20
-1.6134936490538903
 30
0.0
  0
VERTEX
  5
8B
100
AcDbEntity
  8
None
370
               5
390
0
  6
Continuous
 62
               0
100
AcDbVertex
100
AcDb2dVertex
 10
-2.4530000000000003
 20
-1.5800000000000001
 30
0.0
  0
VERTEX
  5
8C
100
AcDbEntity
  8
None
370
               5
390
0
  6
Continuous
 62
               0
100
AcDbVertex
100
AcDb2dVertex
 10
-2.3280000000000003
 20
-1.5465063509461097
 30
0.0
  0
SEQEND
  5
8D
100
AcDbEntity
  8
None
370
               5
390
0
  6
Continuous
 62
               0
  0
HATCH
  5
8E
100
AcDbEntity
  8
Dimension
370
               0
390
0
  6
Continuous
 62
               0
100
AcDbHatch
 10
0.0
 20
0.0
 30
0.0
210
0.0
220
0.0
230
1.0
  2
SOLID
 70
               1
 71
               1
 91
        1
 92
        1
 93
        3
 72
               1
 10
-2.3280000000000003
 20
-1.6134936490538903
 11
-2.4530000000000003
 21
-1.5800000000000001
 72
               1
 10
-2.4530000000000003
 20
-1.5800000000000001
 11
-2.3280000000000003
 21
-1.5465063509461097
 72
               1
 10
-2.3280000000000003
 20
-1.5465063509461097
 11
-2.3280000000000003
 21
-1.6134936490538903
 97
        1
330
89
 75
               0
 76
               1
 98
        1
 10
0.0
 20
0.0
  0
POLYLINE
  5
8F
102
{ACAD_REACTORS
330
94
102
}
100
AcDbEntity
  8
None
370
               5
390
0
  6
Continuous
 62
               0
100
AcDb2dPolyline
 66
               1
 10
0.0
 20
0.0
 30
0.0
 70
               1
 75
               5
  0
VERTEX
  5
90
100
AcDbEntity
  8
None
370
               5
390
0
  6
Continuous
 62
               0
100
AcDbVertex
100
AcDb2dVertex
 10
-1.2080000000000002
 20
-1.5465063509461097
 30
0.0
  0
VERTEX
  5
91
100
AcDbEntity
  8
None
370
               5
390
0
  6
Continuous
 62
               0
100
AcDbVertex
100
AcDb2dVertex
 10
-1.0830000000000002
 20
-1.5800000000000001
 30
0.0
  0
VERTEX
  5
92
100
AcDbEntity
  8
None
370
               5
390
0
  6
Continuous
 62
               0
100
AcDbVertex
100
AcDb2dVertex
 10
-1.2080000000000002
 20
-1.6134936490538903
 30
0.0
  0
SEQEND
  5
93
100
AcDbEntity
  8
None
370
               5
390
0
  6
Continuous
 62
               0
  0
HATCH
  5
94
100
AcDbEntity
  8
Dimension
370
               0
390
0
  6
Continuous
 62
               0
100
AcDbHatch
 10
0.0
 20
0.0
 30
0.0
210
0.0
220
0.0
230
1.0
  2
SOLID
 70
               1
 71
               1
 91
        1
 92
        1
 93
        3
 72
               1
 10
-1.2080000000000002
 20
-1.5465063509461097
 11
-1.0830000000000002
 21
-1.5800000000000001
 72
               1
 10
-1.0830000000000002
 20
-1.5800000000000001
 11
-1.2080000000000002
 21
-1.6134936490538903
 72
               1
 10
-1.2080000000000002
 20
-1.6134936490538903
 11
-1.2080000000000002
 21
-1.5465063509461097
 97
        1
330
8F
 75
               0
 76
               1
 98
        1
 10
0.0
 20
0.0
  0
MTEXT
  5
95
100
AcDbEntity
  8
Dimension
390
0
 62
               0
100
AcDbMText
 10
-1.9031589759190877
 20
-1.4090565257888665
 30
0.0
 40
0.0996290272111335
 41
0.0
 71
               1
 72
               1
  1
1.37
  7
Helvetica
 73
               1
 44
0.8397955333929318
  0
POINT
  5
96
100
AcDbEntity
  8
Defpoints
370
               0
390
0
 62
               0
100
AcDbPoint
 10
-1.0830000000000002
 20
-1.3175000000000001
 30
0.0
  0
POINT
  5
97
100
AcDbEntity
  8
Defpoints
370
               0
390
0
 62
               0
100
AcDbPoint
 10
-2.4530000000000003
 20
-1.3175000000000001
 30
0.0
  0
POINT
  5
98
100
AcDbEntity
  8
Defpoints
370
               0
390
0
 62
               0
100
AcDbPoint
 10
-2.4530000000000003
 20
-1.5800000000000001
 30
0.0
  0
ENDBLK
  5
99
100
AcDbEntity
  8
Dimension
390
0
100
AcDbBlockEnd
  0
BLOCK
  5
9A
100
AcDbEntity
  8
Dimension
390
0
100
AcDbBlockBegin
  2
*D6
 70
               1
 10
0.0
 20
0.0
 30
0.0
  3
*D6
  1

  0
LINE
  5
9B
100
AcDbEntity
  8
Dimension
370
              -2
390
0
  6
Continuous
 62
               0
100
AcDbLine
 10
-6.8714129003612268
 20
1.0894867807980815
 30
0.0
 11
-6.7590372704768473
 21
1.2999999839260952
 31
0.0
  0
POLYLINE
  5
9C
102
{ACAD_REACTORS
330
A1
102
}
100
AcDbEntity
  8
None
370
               5
390
0
  6
Continuous
 62
               0
100
AcDb2dPolyline
 66
               1
 10
0.0
 20
0.0
 30
0.0
 70
               1
 75
               5
  0
VERTEX
  5
9D
100
AcDbEntity
  8
None
370
               5
390
0
  6
Continuous
 62
               0
100
AcDbVertex
100
AcDb2dVertex
 10
-6.781517492303891
 20
1.1825762009120253
 30
0.0
  0
VERTEX
  5
9E
100
AcDbEntity
  8
None
370
               5
390
0
  6
Continuous
 62
               0
100
AcDbVertex
100
AcDb2dVertex
 10
-6.8714129003612268
 20
1.0894867807980815
 30
0.0
  0
VERTEX
  5
9F
100
AcDbEntity
  8
None
370
               5
390
0
  6
Continuous
 62
               0
100
AcDbVertex
100
AcDb2dVertex
 10
-6.840105903356978
 20
1.2150522874689866
 30
0.0
  0
SEQEND
  5
A0
100
AcDbEntity
  8
None
370
               5
390
0
  6
Continuous
 62
               0
  0
HATCH
  5
A1
100
AcDbEntity
  8
Dimension
370
               0
390
0
  6
Continuous
 62
               0
100
AcDbHatch
 10
0.0
 20
0.0
 30
0.0
210
0.0
220
0.0
230
1.0
  2
SOLID
 70
               1
 71
               1
 91
        1
 92
        1
 93
        3
 72
               1
 10
-6.781517492303891
 20
1.1825762009120253
 11
-6.8714129003612268
 21
1.0894867807980815
 72
               1
 10
-6.8714129003612268
 20
1.0894867807980815
 11
-6.840105903356978
 21
1.2150522874689866
 72
               1
 10
-6.840105903356978
 20
1.2150522874689866
 11
-6.781517492303891
 21
1.1825762009120253
 97
        1
330
9C
 75
               0
 76
               1
 98
        1
 10
0.0
 20
0.0
  0
LINE
  5
A2
100
AcDbEntity
  8
Dimension
370
              -2
390
0
  6
Continuous
 62
               0
100
AcDbLine
 10
-6.7590372704768473
 20
1.2999999839260952
 30
0.0
 11
-6.5228167980359473
 21
1.2999999839260952
 31
0.0
  0
MTEXT
  5
A3
100
AcDbEntity
  8
Dimension
390
0
 62
               0
100
AcDbMText
 10
-6.5228167980359473
 20
1.3621290081372286
 30
0.0
 40
0.0996290272111335
 41
0.0
 71
               1
 72
               1
  1
Ø 2.47
  7
Helvetica
 73
               1
 44
0.8397955333929318
  0
POINT
  5
A4
100
AcDbEntity
  8
Defpoints
370
               0
390
0
 62
               0
100
AcDbPoint
 10
-8.0345870996387738
 20
-1.089486780798083
 30
0.0
  0
POINT
  5
A5
100
AcDbEntity
  8
Defpoints
370
               0
390
0
 62
               0
100
AcDbPoint
 10
-6.8714129003612268
 20
1.0894867807980815
 30
0.0
  0
ENDBLK
  5
A6
100
AcDbEntity
  8
Dimension
390
0
100
AcDbBlockEnd
  0
BLOCK
  5
A7
100
AcDbEntity
  8
Dimension
390
0
100
AcDbBlockBegin
  2
*D7
 70
               1
 10
0.0
 20
0.0
 30
0.0
  3
*D7
  1

  0
LINE
  5
A8
100
AcDbEntity
  8
Dimension
370
              -2
390
0
  6
Continuous
 62
               0
100
AcDbLine
 10
-6.9987471123238816
 20
0.3811867180764642
 30
0.0
 11
-6.3929999736249803
 21
0.8894999727617616
 31
0.0
  0
POLYLINE
  5
A9
102
{ACAD_REACTORS
330
AE
102
}
100
AcDbEntity
  8
None
370
               5
390
0
  6
Continuous
 62
               0
100
AcDb2dPolyline
 66
               1
 10
0.0
 20
0.0
 30
0.0
 70
               1
 75
               5
  0
VERTEX
  5
AA
100
AcDbEntity
  8
None
370
               5
390
0
  6
Continuous
 62
               0
100
AcDbVertex
100
AcDb2dVertex
 10
-6.8814622543189792
 20
0.4358775455497717
 30
0.0
  0
VERTEX
  5
AB
100
AcDbEntity
  8
None
370
               5
390
0
  6
Continuous
 62
               0
100
AcDbVertex
100
AcDb2dVertex
 10
-6.9987471123238816
 20
0.3811867180764642
 30
0.0
  0
VERTEX
  5
AC
100
AcDbEntity
  8
None
370
               5
390
0
  6
Continuous
 62
               0
100
AcDbVertex
100
AcDb2dVertex
 10
-6.9245208595490393
 20
0.4871927930247915
 30
0.0
  0
SEQEND
  5
AD
100
AcDbEntity
  8
None
370
               5
390
0
  6
Continuous
 62
               0
  0
HATCH
  5
AE
100
AcDbEntity
  8
Dimension
370
               0
390
0
  6
Continuous
 62
               0
100
AcDbHatch
 10
0.0
 20
0.0
 30
0.0
210
0.0
220
0.0
230
1.0
  2
SOLID
 70
               1
 71
               1
 91
        1
 92
        1
 93
        3
 72
               1
 10
-6.8814622543189792
 20
0.4358775455497717
 11
-6.9987471123238816
 21
0.3811867180764642
 72
               1
 10
-6.9987471123238816
 20
0.3811867180764642
 11
-6.9245208595490393
 21
0.4871927930247915
 72
               1
 10
-6.9245208595490393
 20
0.4871927930247915
 11
-6.8814622543189792
 21
0.4358775455497717
 97
        1
330
A9
 75
               0
 76
               1
 98
        1
 10
0.0
 20
0.0
  0
LINE
  5
AF
100
AcDbEntity
  8
Dimension
370
              -2
390
0
  6
Continuous
 62
               0
100
AcDbLine
 10
-6.3929999736249803
 20
0.8894999727617616
 30
0.0
 11
-6.1567795011840802
 21
0.8894999727617616
 31
0.0
  0
MTEXT
  5
B0
100
AcDbEntity
  8
Dimension
390
0
 62
               0
100
AcDbMText
 10
-6.1567795011840802
 20
0.9169067803062285
 30
0.0
 40
0.0996290272111335
 41
0.0
 71
               1
 72
               1
  1
Ø 
  7
Helvetica
 73
               1
 44
0.8397955333929318
  0
MTEXT
  5
B1
100
AcDbEntity
  8
Dimension
390
0
 62
               0
100
AcDbMText
 10
-6.0101594792580482
 20
1.0349623358617841
 30
0.0
 40
0.0996290272111335
 41
0.0
 71
               1
 72
               1
  1
1.186
  7
Helvetica
 73
               1
 44
0.8397955333929318
  0
MTEXT
  5
B2
100
AcDbEntity
  8
Dimension
390
0
 62
               0
100
AcDbMText
 10
-6.0101594792580482
 20
0.8682956580840062
 30
0.0
 40
0.0996290272111335
 41
0.0
 71
               1
 72
               1
  1
1.184
  7
Helvetica
 73
               1
 44
0.8397955333929318
  0
POINT
  5
B3
100
AcDbEntity
  8
Defpoints
370
               0
390
0
 62
               0
100
AcDbPoint
 10
-7.907252887676119
 20
-0.3811867180764642
 30
0.0
  0
POINT
  5
B4
100
AcDbEntity
  8
Defpoints
370
               0
390
0
 62
               0
100
AcDbPoint
 10
-6.9987471123238816
 20
0.3811867180764642
 30
0.0
  0
ENDBLK
  5
B5
100
AcDbEntity
  8
Dimension
390
0
100
AcDbBlockEnd
  0
BLOCK
  5
B6
100
AcDbEntity
  8
Dimension
390
0
100
AcDbBlockBegin
  2
*D8
 70
               1
 10
0.0
 20
0.0
 30
0.0
  3
*D8
  1

  0
LINE
  5
B7
100
AcDbEntity
  8
Dimension
370
              -2
390
0
  6
Continuous
 62
               0
100
AcDbLine
 10
-2.5280000000000005
 20
0.6325000000000001
 30
0.0
 11
-2.5280000000000005
 21
1.5487401574802999
 31
0.0
  0
LINE
  5
B8
100
AcDbEntity
  8
Dimension
370
              -2
390
0
  6
Continuous
 62
               0
100
AcDbLine
 10
-2.4530000000000003
 20
1.3049999999999999
 30
0.0
 11
-2.4530000000000003
 21
1.5487401574802997
 31
0.0
  0
LINE
  5
B9
100
AcDbEntity
  8
Dimension
370
              -2
390
0
  6
Continuous
 62
               0
100
AcDbLine
 10
-2.4530000000000003
 20
1.4699999999999998
 30
0.0
 11
-2.5280000000000005
 21
1.4699999999999998
 31
0.0
  0
LINE
  5
BA
100
AcDbEntity
  8
Dimension
370
              -2
390
0
  6
Continuous
 62
               0
100
AcDbLine
 10
-2.5280000000000005
 20
1.4699999999999998
 30
0.0
 11
-3.0333179551495446
 21
1.4699999999999998
 31
0.0
  0
POLYLINE
  5
BB
102
{ACAD_REACTORS
330
C0
102
}
100
AcDbEntity
  8
None
370
               5
390
0
  6
Continuous
 62
               0
100
AcDb2dPolyline
 66
               1
 10
0.0
 20
0.0
 30
0.0
 70
               1
 75
               5
  0
VERTEX
  5
BC
100
AcDbEntity
  8
None
370
               5
390
0
  6
Continuous
 62
               0
100
AcDbVertex
100
AcDb2dVertex
 10
-2.6530000000000005
 20
1.5034936490538902
 30
0.0
  0
VERTEX
  5
BD
100
AcDbEntity
  8
None
370
               5
390
0
  6
Continuous
 62
               0
100
AcDbVertex
100
AcDb2dVertex
 10
-2.5280000000000005
 20
1.4699999999999998
 30
0.0
  0
VERTEX
  5
BE
100
AcDbEntity
  8
None
370
               5
390
0
  6
Continuous
 62
               0
100
AcDbVertex
100
AcDb2dVertex
 10
-2.6530000000000005
 20
1.4365063509461096
 30
0.0
  0
SEQEND
  5
BF
100
AcDbEntity
  8
None
370
               5
390
0
  6
Continuous
 62
               0
  0
HATCH
  5
C0
100
AcDbEntity
  8
Dimension
370
               0
390
0
  6
Continuous
 62
               0
100
AcDbHatch
 10
0.0
 20
0.0
 30
0.0
210
0.0
220
0.0
230
1.0
  2
SOLID
 70
               1
 71
               1
 91
        1
 92
        1
 93
        3
 72
               1
 10
-2.6530000000000005
 20
1.5034936490538902
 11
-2.5280000000000005
 21
1.4699999999999998
 72
               1
 10
-2.5280000000000005
 20
1.4699999999999998
 11
-2.6530000000000005
 21
1.4365063509461096
 72
               1
 10
-2.6530000000000005
 20
1.4365063509461096
 11
-2.6530000000000005
 21
1.5034936490538902
 97
        1
330
BB
 75
               0
 76
               1
 98
        1
 10
0.0
 20
0.0
  0
LINE
  5
C1
100
AcDbEntity
  8
Dimension
370
              -2
390
0
  6
Continuous
 62
               0
100
AcDbLine
 10
-2.4530000000000003
 20
1.4699999999999998
 30
0.0
 11
-2.1774094488189002
 21
1.4699999999999998
 31
0.0
  0
POLYLINE
  5
C2
102
{ACAD_REACTORS
330
C7
102
}
100
AcDbEntity
  8
None
370
               5
390
0
  6
Continuous
 62
               0
100
AcDb2dPolyline
 66
               1
 10
0.0
 20
0.0
 30
0.0
 70
               1
 75
               5
  0
VERTEX
  5
C3
100
AcDbEntity
  8
None
370
               5
390
0
  6
Continuous
 62
               0
100
AcDbVertex
100
AcDb2dVertex
 10
-2.3280000000000003
 20
1.4365063509461096
 30
0.0
  0
VERTEX
  5
C4
100
AcDbEntity
  8
None
370
               5
390
0
  6
Continuous
 62
               0
100
AcDbVertex
100
AcDb2dVertex
 10
-2.4530000000000003
 20
1.4699999999999998
 30
0.0
  0
VERTEX
  5
C5
100
AcDbEntity
  8
None
370
               5
390
0
  6
Continuous
 62
               0
100
AcDbVertex
100
AcDb2dVertex
 10
-2.3280000000000003
 20
1.5034936490538902
 30
0.0
  0
SEQEND
  5
C6
100
AcDbEntity
  8
None
370
               5
390
0
  6
Continuous
 62
               0
  0
HATCH
  5
C7
100
AcDbEntity
  8
Dimension
370
               0
390
0
  6
Continuous
 62
               0
100
AcDbHatch
 10
0.0
 20
0.0
 30
0.0
210
0.0
220
0.0
230
1.0
  2
SOLID
 70
               1
 71
               1
 91
        1
 92
        1
 93
        3
 72
               1
 10
-2.3280000000000003
 20
1.4365063509461096
 11
-2.4530000000000003
 21
1.4699999999999998
 72
               1
 10
-2.4530000000000003
 20
1.4699999999999998
 11
-2.3280000000000003
 21
1.5034936490538902
 72
               1
 10
-2.3280000000000003
 20
1.5034936490538902
 11
-2.3280000000000003
 21
1.4365063509461096
 97
        1
330
C2
 75
               0
 76
               1
 98
        1
 10
0.0
 20
0.0
  0
MTEXT
  5
C8
100
AcDbEntity
  8
Dimension
390
0
 62
               0
100
AcDbMText
 10
-3.0333179551495446
 20
1.6409434742111333
 30
0.0
 40
0.0996290272111335
 41
0.0
 71
               1
 72
               1
  1
.075
  7
Helvetica
 73
               1
 44
0.8397955333929318
  0
POINT
  5
C9
100
AcDbEntity
  8
Defpoints
370
               0
390
0
 62
               0
100
AcDbPoint
 10
-2.4530000000000003
 20
1.3049999999999999
 30
0.0
  0
POINT
  5
CA
100
AcDbEntity
  8
Defpoints
370
               0
390
0
 62
               0
100
AcDbPoint
 10
-2.5280000000000005
 20
0.6325000000000001
 30
0.0
  0
POINT
  5
CB
100
AcDbEntity
  8
Defpoints
370
               0
390
0
 62
               0
100
AcDbPoint
 10
-2.5280000000000005
 20
1.4699999999999998
 30
0.0
  0
ENDBLK
  5
CC
100
AcDbEntity
  8
Dimension
390
0
100
AcDbBlockEnd
  0
BLOCK
  5
CD
100
AcDbEntity
  8
None
390
0
100
AcDbBlockBegin
  2
Group-3
 70
               0
 10
0.0
 20
0.0
 30
0.0
  3
Group-3
  1

  0
WIPEOUT
  5
CE
100
AcDbEntity
  8
None
370
               5
390
0
  6
Continuous
 62
               7
 92
        0
100
AcDbWipeout
 90
        0
 10
-3.1989999999999998
 20
1.1014999999999999
 30
0.0
 11
0.3980000000000001
 21
0.0
 31
0.0
 12
0.0
 22
0.3980000000000001
 32
0.0
 13
1.0
 23
1.0
340
0
 70
               7
280
               1
281
              50
282
              50
283
               0
360
0
 71
               2
 91
        7
 14
-0.5
 24
0.5
 14
-0.3128140703517588
 24
0.5
 14
-0.0866834170854264
 24
0.5
 14
0.0866834170854277
 24
0.5
 14
0.3128140703517578
 24
0.5
 14
0.499999999999999
 24
0.5
 14
-0.5
 24
0.5
  0
LINE
  5
CF
100
AcDbEntity
  8
None
370
               5
390
0
  6
Continuous
 62
               7
100
AcDbLine
 10
-3.1989999999999998
 20
1.1014999999999999
 30
0.0
 11
-3.1244999999999998
 21
1.1014999999999999
 31
0.0
  0
LINE
  5
D0
100
AcDbEntity
  8
None
370
               5
390
0
  6
Continuous
 62
               7
100
AcDbLine
 10
-2.8755000000000002
 20
1.1014999999999999
 30
0.0
 11
-2.8010000000000002
 21
1.1014999999999999
 31
0.0
  0
LINE
  5
D1
100
AcDbEntity
  8
None
370
               5
390
0
  6
Continuous
 62
               7
100
AcDbLine
 10
-3.0344999999999995
 20
1.1014999999999999
 30
0.0
 11
-2.9654999999999996
 21
1.1014999999999999
 31
0.0
  0
WIPEOUT
  5
D2
100
AcDbEntity
  8
None
370
               5
390
0
  6
Continuous
 62
               7
 92
        0
100
AcDbWipeout
 90
        0
 10
-2.9999999999999996
 20
0.9025
 30
0.0
 11
0.3980000000000001
 21
0.0
 31
0.0
 12
0.0
 22
0.3980000000000001
 32
0.0
 13
1.0
 23
1.0
340
0
 70
               7
280
               1
281
              50
282
              50
283
               0
360
0
 71
               2
 91
        7
 14
-0.5
 24
0.5
 14
-0.5
 24
0.3128140703517588
 14
-0.5
 24
0.0866834170854273
 14
-0.5
 24
-0.0866834170854268
 14
-0.5
 24
-0.3128140703517587
 14
-0.5
 24
-0.4999999999999999
 14
-0.5
 24
0.5
  0
LINE
  5
D3
100
AcDbEntity
  8
None
370
               5
390
0
  6
Continuous
 62
               7
100
AcDbLine
 10
-2.9999999999999996
 20
0.9025
 30
0.0
 11
-2.9999999999999996
 21
0.977
 31
0.0
  0
LINE
  5
D4
100
AcDbEntity
  8
None
370
               5
390
0
  6
Continuous
 62
               7
100
AcDbLine
 10
-2.9999999999999996
 20
1.226
 30
0.0
 11
-2.9999999999999996
 21
1.3005
 31
0.0
  0
LINE
  5
D5
100
AcDbEntity
  8
None
370
               5
390
0
  6
Continuous
 62
               7
100
AcDbLine
 10
-2.9999999999999996
 20
1.0669999999999999
 30
0.0
 11
-2.9999999999999996
 21
1.1359999999999999
 31
0.0
  0
ENDBLK
  5
D6
100
AcDbEntity
  8
None
390
0
100
AcDbBlockEnd
  0
BLOCK
  5
D7
100
AcDbEntity
  8
None
390
0
100
AcDbBlockBegin
  2
Group-4
 70
               0
 10
0.0
 20
0.0
 30
0.0
  3
Group-4
  1

  0
WIPEOUT
  5
D8
100
AcDbEntity
  8
None
370
               5
390
0
  6
Continuous
 62
               7
 92
        0
100
AcDbWipeout
 90
        0
 10
-3.0551999999999997
 20
1.0463
 30
0.0
 11
0.1103999999999998
 21
0.0
 31
0.0
 12
0.0
 22
0.1103999999999998
 32
0.0
 13
1.0
 23
1.0
340
0
 70
               7
280
               1
281
              50
282
              50
283
               0
360
0
 71
               2
 91
       65
 14
0.4999999999999999
 24
0.0000000000000001
 14
0.4975923633361021
 24
0.0490085701647804
 14
0.4903926402016179
 24
0.0975451610080634
 14
0.4784701678661042
 24
0.1451423386272319
 14
0.4619397662556483
 24
0.1913417161825442
 14
0.4409606321741778
 24
0.2356983684129985
 14
0.4157348061512732
 24
0.2777851165098013
 14
0.3865052266813686
 24
0.3171966420818216
 14
0.3535533905932735
 24
0.3535533905932737
 14
0.3171966420818235
 24
0.3865052266813687
 14
0.2777851165097991
 24
0.4157348061512713
 14
0.2356983684130004
 24
0.4409606321741779
 14
0.1913417161825481
 24
0.4619397662556424
 14
0.1451423386272297
 24
0.4784701678661044
 14
0.0975451610080632
 24
0.490392640201614
 14
0.0490085701647782
 24
0.4975923633360983
 14
0.000000000000002
 24
0.5
 14
-0.0490085701647784
 24
0.4975923633360983
 14
-0.0975451610080634
 24
0.490392640201614
 14
-0.1451423386272299
 24
0.4784701678661044
 14
-0.1913417161825482
 24
0.4619397662556424
 14
-0.2356983684129965
 24
0.4409606321741779
 14
-0.2777851165097992
 24
0.4157348061512713
 14
-0.3171966420818236
 24
0.3865052266813687
 14
-0.3535533905932737
 24
0.3535533905932737
 14
-0.3865052266813687
 24
0.3171966420818216
 14
-0.4157348061512693
 24
0.2777851165098013
 14
-0.4409606321741779
 24
0.2356983684129985
 14
-0.4619397662556444
 24
0.1913417161825442
 14
-0.4784701678661044
 24
0.1451423386272319
 14
-0.490392640201618
 24
0.0975451610080634
 14
-0.4975923633360983
 24
0.0490085701647804
 14
-0.5
 24
0.0000000000000001
 14
-0.4975923633360983
 24
-0.0490085701647802
 14
-0.490392640201618
 24
-0.0975451610080652
 14
-0.4784701678661044
 24
-0.1451423386272317
 14
-0.4619397662556444
 24
-0.1913417161825441
 14
-0.4409606321741779
 24
-0.2356983684129984
 14
-0.4157348061512693
 24
-0.2777851165098011
 14
-0.3865052266813687
 24
-0.3171966420818235
 14
-0.3535533905932737
 24
-0.3535533905932735
 14
-0.3171966420818236
 24
-0.3865052266813686
 14
-0.2777851165097992
 24
-0.4157348061512732
 14
-0.2356983684129965
 24
-0.4409606321741778
 14
-0.1913417161825482
 24
-0.4619397662556443
 14
-0.1451423386272299
 24
-0.4784701678661042
 14
-0.0975451610080634
 24
-0.4903926402016159
 14
-0.0490085701647784
 24
-0.4975923633360981
 14
0.000000000000002
 24
-0.4999999999999999
 14
0.0490085701647782
 24
-0.4975923633360981
 14
0.0975451610080632
 24
-0.4903926402016159
 14
0.1451423386272297
 24
-0.4784701678661042
 14
0.1913417161825481
 24
-0.4619397662556443
 14
0.2356983684130004
 24
-0.4409606321741778
 14
0.2777851165097991
 24
-0.4157348061512732
 14
0.3171966420818235
 24
-0.3865052266813686
 14
0.3535533905932735
 24
-0.3535533905932735
 14
0.3865052266813686
 24
-0.3171966420818235
 14
0.4157348061512732
 24
-0.2777851165098011
 14
0.4409606321741778
 24
-0.2356983684129984
 14
0.4619397662556483
 24
-0.1913417161825441
 14
0.4784701678661042
 24
-0.1451423386272317
 14
0.4903926402016179
 24
-0.0975451610080652
 14
0.4975923633361021
 24
-0.0490085701647802
 14
0.4999999999999999
 24
0.0000000000000001
  0
CIRCLE
  5
D9
100
AcDbEntity
  8
None
370
               5
390
0
  6
Continuous
 62
               7
100
AcDbCircle
 10
-2.9999999999999996
 20
1.1014999999999999
 30
0.0
 40
0.0551999999999999
  0
CIRCLE
  5
DA
100
AcDbEntity
  8
None
370
               5
390
0
  6
STYLE_02
 62
               7
100
AcDbCircle
 10
-2.9999999999999996
 20
1.1014999999999999
 30
0.0
 40
0.0689999999999995
  0
INSERT
  5
DB
100
AcDbEntity
  8
None
390
0
 62
               7
100
AcDbBlockReference
  2
Group-3
 10
0.0
 20
0.0
 30
0.0
  0
ENDBLK
  5
DC
100
AcDbEntity
  8
None
390
0
100
AcDbBlockEnd
  0
BLOCK
  5
DD
100
AcDbEntity
  8
None
390
0
100
AcDbBlockBegin
  2
Group-5
 70
               0
 10
0.0
 20
0.0
 30
0.0
  3
Group-5
  1

  0
WIPEOUT
  5
DE
100
AcDbEntity
  8
None
370
               5
390
0
  6
Continuous
 62
               7
 92
        0
100
AcDbWipeout
 90
        0
 10
-4.0534270000000001
 20
-0.7230891
 30
0.0
 11
0.3446781
 21
0.0
 31
0.0
 12
0.0
 22
0.3446781
 32
0.0
 13
1.0
 23
1.0
340
0
 70
               7
280
               1
281
              50
282
              50
283
               0
360
0
 71
               2
 91
        7
 14
0.0773502871229714
 24
0.5
 14
-0.0307215631048214
 24
0.3128140430157876
 14
-0.1612781606954428
 24
0.0866833430960655
 14
-0.2613715521815871
 24
-0.0866836332218381
 14
-0.3919281497722071
 24
-0.3128143331415603
 14
-0.5
 24
-0.5
 14
0.0773502871229714
 24
0.5
  0
LINE
  5
DF
100
AcDbEntity
  8
None
370
               5
390
0
  6
Continuous
 62
               7
100
AcDbLine
 10
-3.8544269999999998
 20
-0.7230891
 30
0.0
 11
-3.8916770000000001
 21
-0.6585702
 31
0.0
  0
LINE
  5
E0
100
AcDbEntity
  8
None
370
               5
390
0
  6
Continuous
 62
               7
100
AcDbLine
 10
-4.0161769999999999
 20
-0.4429298
 30
0.0
 11
-4.0534270000000001
 21
-0.378411
 31
0.0
  0
LINE
  5
E1
100
AcDbEntity
  8
None
370
               5
390
0
  6
Continuous
 62
               7
100
AcDbLine
 10
-3.936677
 20
-0.5806279
 30
0.0
 11
-3.9711770000000004
 21
-0.5208720999999999
 31
0.0
  0
WIPEOUT
  5
E2
100
AcDbEntity
  8
None
370
               5
390
0
  6
Continuous
 62
               7
 92
        0
100
AcDbWipeout
 90
        0
 10
-4.1262660000000002
 20
-0.65025
 30
0.0
 11
0.3446781000000003
 21
0.0
 31
0.0
 12
0.0
 22
0.3446781000000003
 32
0.0
 13
1.0
 23
1.0
340
0
 70
               7
280
               1
281
              50
282
              50
283
               0
360
0
 71
               2
 91
        7
 14
0.5000000000000002
 24
-0.0773502871229703
 14
0.3128140430157883
 24
0.0307215631048219
 14
0.0866833430960658
 24
0.1612781606954433
 14
-0.0866836332218376
 24
0.2613715521815863
 14
-0.3128140430157869
 24
0.3919281497722078
 14
-0.5
 24
0.5
 14
0.5000000000000002
 24
-0.0773502871229703
  0
LINE
  5
E3
100
AcDbEntity
  8
None
370
               5
390
0
  6
Continuous
 62
               7
100
AcDbLine
 10
-3.7815878999999999
 20
-0.45125
 30
0.0
 11
-3.8461067999999998
 21
-0.4885
 31
0.0
  0
LINE
  5
E4
100
AcDbEntity
  8
None
370
               5
390
0
  6
Continuous
 62
               7
100
AcDbLine
 10
-4.0617470999999998
 20
-0.613
 30
0.0
 11
-4.1262660000000002
 21
-0.65025
 31
0.0
  0
LINE
  5
E5
100
AcDbEntity
  8
None
370
               5
390
0
  6
Continuous
 62
               7
100
AcDbLine
 10
-3.9240491
 20
-0.5335
 30
0.0
 11
-3.9838049
 21
-0.5679999999999999
 31
0.0
  0
ENDBLK
  5
E6
100
AcDbEntity
  8
None
390
0
100
AcDbBlockEnd
  0
BLOCK
  5
E7
100
AcDbEntity
  8
None
390
0
100
AcDbBlockBegin
  2
Group-6
 70
               0
 10
0.0
 20
0.0
 30
0.0
  3
Group-6
  1

  0
WIPEOUT
  5
E8
100
AcDbEntity
  8
None
370
               5
390
0
  6
Continuous
 62
               7
 92
        0
100
AcDbWipeout
 90
        0
 10
-4.0091269980177531
 20
-0.6059499980177536
 30
0.0
 11
0.1103999960355073
 21
0.0
 31
0.0
 12
0.0
 22
0.1103999960355073
 32
0.0
 13
1.0
 23
1.0
340
0
 70
               7
280
               1
281
              50
282
              50
283
               0
360
0
 71
               2
 91
       65
 14
-0.250000008977573
 24
-0.4330126967090182
 14
-0.2063535243445836
 24
-0.4554319081823008
 14
-0.1607197424678429
 24
-0.473465061415382
 14
-0.1135381416127901
 24
-0.4869384872847025
 14
-0.065263106387744
 24
-0.4957224293338177
 14
-0.016359551771741
 24
-0.4997322933990038
 14
0.0327015542708591
 24
-0.4989294622972966
 14
0.0814477264693492
 24
-0.4933216677310792
 14
0.1294095125380814
 24
-0.4829629158275566
 14
0.1761250142586364
 24
-0.4679529670302278
 14
0.2211443358121528
 24
-0.4484363753512861
 14
0.2640339165220088
 24
-0.4246010962374526
 14
0.3043807062801368
 24
-0.3966766764562832
 14
0.3417961434453661
 24
-0.36493204343531
 14
0.3759198969044412
 24
-0.3296729153439081
 14
0.406423336257606
 24
-0.2912388568601966
 14
0.4330126967090122
 24
-0.2500000089775667
 14
0.4554319081822927
 24
-0.2063535243445773
 14
0.4734650614153785
 24
-0.1607197424678386
 14
0.4869384872846969
 24
-0.1135381416127859
 14
0.4957224293338137
 24
-0.0652631063877407
 14
0.4997322933989968
 24
-0.0163595517717388
 14
0.4989294622972935
 24
0.0327015542708654
 14
0.4933216677310758
 24
0.0814477264693544
 14
0.482962915827551
 24
0.1294095125380857
 14
0.4679529670302227
 24
0.1761250142586407
 14
0.4484363753512831
 24
0.221144335812158
 14
0.4246010962374496
 24
0.2640339165220141
 14
0.3966766764562791
 24
0.3043807062801411
 14
0.3649320434353081
 24
0.3417961434453723
 14
0.3296729153439
 24
0.3759198969044454
 14
0.2912388568601916
 24
0.4064233362576103
 14
0.2500000089775627
 24
0.4330126967090185
 14
0.2063535243445733
 24
0.4554319081823021
 14
0.1607197424678326
 24
0.4734650614153827
 14
0.1135381416127839
 24
0.4869384872847032
 14
0.0652631063877337
 24
0.4957224293338189
 14
0.0163595517717346
 24
0.4997322933990041
 14
-0.0327015542708654
 24
0.4989294622972968
 14
-0.0814477264693595
 24
0.49332166773108
 14
-0.1294095125380917
 24
0.4829629158275563
 14
-0.1761250142586467
 24
0.467952967030229
 14
-0.221144335812163
 24
0.4484363753512864
 14
-0.2640339165220191
 24
0.4246010962374538
 14
-0.3043807062801431
 24
0.3966766764562835
 14
-0.3417961434453764
 24
0.3649320434353103
 14
-0.3759198969044514
 24
0.3296729153439083
 14
-0.4064233362576163
 24
0.2912388568601968
 14
-0.4330126967090265
 24
0.250000008977568
 14
-0.4554319081823031
 24
0.2063535243445775
 14
-0.4734650614153888
 24
0.1607197424678388
 14
-0.4869384872847072
 24
0.1135381416127861
 14
-0.495722429333824
 24
0.065263106387742
 14
-0.4997322933990072
 24
0.016359551771739
 14
-0.4989294622972998
 24
-0.0327015542708651
 14
-0.493321667731086
 24
-0.0814477264693532
 14
-0.4829629158275613
 24
-0.1294095125380854
 14
-0.467952967030233
 24
-0.1761250142586395
 14
-0.4484363753512934
 24
-0.2211443358121578
 14
-0.4246010962374559
 24
-0.2640339165220128
 14
-0.3966766764562895
 24
-0.3043807062801409
 14
-0.3649320434353144
 24
-0.3417961434453721
 14
-0.3296729153439103
 24
-0.3759198969044452
 14
-0.2912388568602018
 24
-0.4064233362576101
 14
-0.250000008977573
 24
-0.4330126967090182
  0
CIRCLE
  5
E9
100
AcDbEntity
  8
None
370
               5
390
0
  6
Continuous
 62
               7
100
AcDbCircle
 10
-3.9539269999999997
 20
-0.55075
 30
0.0
 40
0.0551999980177537
  0
CIRCLE
  5
EA
100
AcDbEntity
  8
None
370
               5
390
0
  6
STYLE_02
 62
               7
100
AcDbCircle
 10
-3.9539269999999997
 20
-0.55075
 30
0.0
 40
0.0689999542209268
  0
INSERT
  5
EB
100
AcDbEntity
  8
None
390
0
 62
               7
100
AcDbBlockReference
  2
Group-5
 10
0.0
 20
0.0
 30
0.0
  0
ENDBLK
  5
EC
100
AcDbEntity
  8
None
390
0
100
AcDbBlockEnd
  0
BLOCK
  5
ED
100
AcDbEntity
  8
None
390
0
100
AcDbBlockBegin
  2
Group-7
 70
               0
 10
0.0
 20
0.0
 30
0.0
  3
Group-7
  1

  0
WIPEOUT
  5
EE
100
AcDbEntity
  8
None
370
               5
390
0
  6
Continuous
 62
               7
 92
        0
100
AcDbWipeout
 90
        0
 10
-2.1455730000000002
 20
-0.723089
 30
0.0
 11
0.3446781
 21
0.0
 31
0.0
 12
0.0
 22
0.3446781
 32
0.0
 13
1.0
 23
1.0
340
0
 70
               7
280
               1
281
              50
282
              50
283
               0
360
0
 71
               2
 91
        7
 14
0.0773502871229714
 24
-0.4999999999999999
 14
-0.0307215631048214
 24
-0.3128140430157876
 14
-0.1612781606954428
 24
-0.0866833430960656
 14
-0.2613715521815858
 24
0.086683633221838
 14
-0.3919281497722071
 24
0.3128143331415603
 14
-0.5
 24
0.5
 14
0.0773502871229714
 24
-0.4999999999999999
  0
LINE
  5
EF
100
AcDbEntity
  8
None
370
               5
390
0
  6
Continuous
 62
               7
100
AcDbLine
 10
-1.9465729999999999
 20
-0.3784109
 30
0.0
 11
-1.9838230000000001
 21
-0.4429298
 31
0.0
  0
LINE
  5
F0
100
AcDbEntity
  8
None
370
               5
390
0
  6
Continuous
 62
               7
100
AcDbLine
 10
-2.1083229999999999
 20
-0.6585702
 30
0.0
 11
-2.1455730000000002
 21
-0.723089
 31
0.0
  0
LINE
  5
F1
100
AcDbEntity
  8
None
370
               5
390
0
  6
Continuous
 62
               7
100
AcDbLine
 10
-2.028823
 20
-0.5208720999999999
 30
0.0
 11
-2.063323
 21
-0.5806279
 31
0.0
  0
WIPEOUT
  5
F2
100
AcDbEntity
  8
None
370
               5
390
0
  6
Continuous
 62
               7
 92
        0
100
AcDbWipeout
 90
        0
 10
-2.2184120999999997
 20
-0.65025
 30
0.0
 11
0.3446781
 21
0.0
 31
0.0
 12
0.0
 22
0.3446781
 32
0.0
 13
1.0
 23
1.0
340
0
 70
               7
280
               1
281
              50
282
              50
283
               0
360
0
 71
               2
 91
        7
 14
-0.5
 24
-0.0773502871229708
 14
-0.3128140430157892
 24
0.0307215631048215
 14
-0.0866833430960667
 24
0.161278160695443
 14
0.086683633221837
 24
0.2613715521815861
 14
0.312814043015787
 24
0.3919281497722077
 14
0.499999999999999
 24
0.5
 14
-0.5
 24
-0.0773502871229708
  0
LINE
  5
F3
100
AcDbEntity
  8
None
370
               5
390
0
  6
Continuous
 62
               7
100
AcDbLine
 10
-2.2184120999999997
 20
-0.45125
 30
0.0
 11
-2.1538932000000002
 21
-0.4885
 31
0.0
  0
LINE
  5
F4
100
AcDbEntity
  8
None
370
               5
390
0
  6
Continuous
 62
               7
100
AcDbLine
 10
-1.9382528999999999
 20
-0.613
 30
0.0
 11
-1.873734
 21
-0.65025
 31
0.0
  0
LINE
  5
F5
100
AcDbEntity
  8
None
370
               5
390
0
  6
Continuous
 62
               7
100
AcDbLine
 10
-2.0759509
 20
-0.5335
 30
0.0
 11
-2.0161951
 21
-0.5679999999999999
 31
0.0
  0
ENDBLK
  5
F6
100
AcDbEntity
  8
None
390
0
100
AcDbBlockEnd
  0
BLOCK
  5
F7
100
AcDbEntity
  8
None
390
0
100
AcDbBlockBegin
  2
Group-8
 70
               0
 10
0.0
 20
0.0
 30
0.0
  3
Group-8
  1

  0
WIPEOUT
  5
F8
100
AcDbEntity
  8
None
370
               5
390
0
  6
Continuous
 62
               7
 92
        0
100
AcDbWipeout
 90
        0
 10
-2.1012729980177536
 20
-0.6059499980177535
 30
0.0
 11
0.1103999960355071
 21
0.0
 31
0.0
 12
0.0
 22
0.1103999960355071
 32
0.0
 13
1.0
 23
1.0
340
0
 70
               7
280
               1
281
              50
282
              50
283
               0
360
0
 71
               2
 91
       65
 14
-0.2500000089775644
 24
0.4330126967090193
 14
-0.2912388568601973
 24
0.4064233362576111
 14
-0.3296729153439059
 24
0.3759198969044471
 14
-0.3649320434353099
 24
0.341796143445374
 14
-0.3966766764562812
 24
0.3043807062801426
 14
-0.4246010962374517
 24
0.2640339165220145
 14
-0.4484363753512852
 24
0.2211443358121593
 14
-0.4679529670302289
 24
0.1761250142586419
 14
-0.4829629158275572
 24
0.1294095125380877
 14
-0.4933216677310779
 24
0.0814477264693554
 14
-0.4989294622972958
 24
0.0327015542708672
 14
-0.4997322933990031
 24
-0.016359551771737
 14
-0.4957224293338199
 24
-0.0652631063877391
 14
-0.4869384872847072
 24
-0.1135381416127844
 14
-0.4734650614153847
 24
-0.1607197424678373
 14
-0.4554319081823029
 24
-0.206353524344575
 14
-0.4330126967090183
 24
-0.2500000089775656
 14
-0.4064233362576121
 24
-0.2912388568601946
 14
-0.3759198969044471
 24
-0.3296729153439061
 14
-0.341796143445372
 24
-0.3649320434353082
 14
-0.3043807062801426
 24
-0.3966766764562815
 14
-0.2640339165220145
 24
-0.4246010962374519
 14
-0.2211443358121583
 24
-0.4484363753512854
 14
-0.1761250142586419
 24
-0.4679529670302277
 14
-0.1294095125380867
 24
-0.482962915827556
 14
-0.0814477264693584
 24
-0.4933216677310788
 14
-0.0327015542708682
 24
-0.4989294622972966
 14
0.016359551771736
 24
-0.4997322933990038
 14
0.0652631063877391
 24
-0.4957224293338187
 14
0.1135381416127854
 24
-0.4869384872847035
 14
0.1607197424678343
 24
-0.4734650614153829
 14
0.206353524344575
 24
-0.4554319081823022
 14
0.2500000089775646
 24
-0.4330126967090197
 14
0.2912388568601936
 24
-0.4064233362576113
 14
0.3296729153439061
 24
-0.3759198969044464
 14
0.3649320434353103
 24
-0.3417961434453732
 14
0.3966766764562815
 24
-0.3043807062801429
 14
0.4246010962374519
 24
-0.2640339165220147
 14
0.4484363753512854
 24
-0.2211443358121596
 14
0.4679529670302272
 24
-0.1761250142586421
 14
0.4829629158275555
 24
-0.129409512538087
 14
0.4933216677310782
 24
-0.0814477264693546
 14
0.4989294622972961
 24
-0.0327015542708674
 14
0.4997322933990034
 24
0.0163595517717378
 14
0.4957224293338182
 24
0.0652631063877399
 14
0.4869384872847055
 24
0.1135381416127851
 14
0.4734650614153829
 24
0.160719742467837
 14
0.4554319081823012
 24
0.2063535243445758
 14
0.4330126967090185
 24
0.2500000089775654
 14
0.4064233362576123
 24
0.2912388568601942
 14
0.3759198969044433
 24
0.3296729153439069
 14
0.3417961434453722
 24
0.3649320434353089
 14
0.3043807062801429
 24
0.3966766764562822
 14
0.2640339165220147
 24
0.4246010962374517
 14
0.2211443358121585
 24
0.4484363753512852
 14
0.1761250142586421
 24
0.4679529670302279
 14
0.129409512538087
 24
0.4829629158275562
 14
0.0814477264693546
 24
0.493321667731079
 14
0.0327015542708684
 24
0.4989294622972968
 14
-0.0163595517717398
 24
0.4997322933990041
 14
-0.0652631063877389
 24
0.4957224293338189
 14
-0.1135381416127851
 24
0.4869384872847042
 14
-0.160719742467838
 24
0.4734650614153827
 14
-0.2063535243445748
 24
0.4554319081823019
 14
-0.2500000089775644
 24
0.4330126967090193
  0
CIRCLE
  5
F9
100
AcDbEntity
  8
None
370
               5
390
0
  6
Continuous
 62
               7
100
AcDbCircle
 10
-2.0460730000000003
 20
-0.55075
 30
0.0
 40
0.0551999980177536
  0
CIRCLE
  5
FA
100
AcDbEntity
  8
None
370
               5
390
0
  6
STYLE_02
 62
               7
100
AcDbCircle
 10
-2.0460730000000003
 20
-0.55075
 30
0.0
 40
0.0689999542209268
  0
INSERT
  5
FB
100
AcDbEntity
  8
None
390
0
 62
               7
100
AcDbBlockReference
  2
Group-7
 10
0.0
 20
0.0
 30
0.0
  0
ENDBLK
  5
FC
100
AcDbEntity
  8
None
390
0
100
AcDbBlockEnd
  0
BLOCK
  5
FD
100
AcDbEntity
  8
None
390
0
100
AcDbBlockBegin
  2
Group-9
 70
               0
 10
0.0
 20
0.0
 30
0.0
  3
Group-9
  1

  0
WIPEOUT
  5
FE
100
AcDbEntity
  8
None
370
               5
390
0
  6
Continuous
 62
               7
 92
        0
100
AcDbWipeout
 90
        0
 10
-3.1989999999999998
 20
1.1014999999999999
 30
0.0
 11
0.3980000000000001
 21
0.0
 31
0.0
 12
0.0
 22
0.3980000000000001
 32
0.0
 13
1.0
 23
1.0
340
0
 70
               7
280
               1
281
              50
282
              50
283
               0
360
0
 71
               2
 91
        7
 14
-0.5
 24
0.5
 14
-0.3128140703517588
 24
0.5
 14
-0.0866834170854264
 24
0.5
 14
0.0866834170854277
 24
0.5
 14
0.3128140703517578
 24
0.5
 14
0.499999999999999
 24
0.5
 14
-0.5
 24
0.5
  0
LINE
  5
FF
100
AcDbEntity
  8
None
370
               5
390
0
  6
Continuous
 62
               7
100
AcDbLine
 10
-3.1989999999999998
 20
1.1014999999999999
 30
0.0
 11
-3.1244999999999998
 21
1.1014999999999999
 31
0.0
  0
LINE
  5
100
100
AcDbEntity
  8
None
370
               5
390
0
  6
Continuous
 62
               7
100
AcDbLine
 10
-2.8755000000000002
 20
1.1014999999999999
 30
0.0
 11
-2.8010000000000002
 21
1.1014999999999999
 31
0.0
  0
LINE
  5
101
100
AcDbEntity
  8
None
370
               5
390
0
  6
Continuous
 62
               7
100
AcDbLine
 10
-3.0344999999999995
 20
1.1014999999999999
 30
0.0
 11
-2.9654999999999996
 21
1.1014999999999999
 31
0.0
  0
WIPEOUT
  5
102
100
AcDbEntity
  8
None
370
               5
390
0
  6
Continuous
 62
               7
 92
        0
100
AcDbWipeout
 90
        0
 10
-2.9999999999999996
 20
0.9025
 30
0.0
 11
0.3980000000000001
 21
0.0
 31
0.0
 12
0.0
 22
0.3980000000000001
 32
0.0
 13
1.0
 23
1.0
340
0
 70
               7
280
               1
281
              50
282
              50
283
               0
360
0
 71
               2
 91
        7
 14
-0.5
 24
0.5
 14
-0.5
 24
0.3128140703517588
 14
-0.5
 24
0.0866834170854273
 14
-0.5
 24
-0.0866834170854268
 14
-0.5
 24
-0.3128140703517587
 14
-0.5
 24
-0.4999999999999999
 14
-0.5
 24
0.5
  0
LINE
  5
103
100
AcDbEntity
  8
None
370
               5
390
0
  6
Continuous
 62
               7
100
AcDbLine
 10
-2.9999999999999996
 20
0.9025
 30
0.0
 11
-2.9999999999999996
 21
0.977
 31
0.0
  0
LINE
  5
104
100
AcDbEntity
  8
None
370
               5
390
0
  6
Continuous
 62
               7
100
AcDbLine
 10
-2.9999999999999996
 20
1.226
 30
0.0
 11
-2.9999999999999996
 21
1.3005
 31
0.0
  0
LINE
  5
105
100
AcDbEntity
  8
None
370
               5
390
0
  6
Continuous
 62
               7
100
AcDbLine
 10
-2.9999999999999996
 20
1.0669999999999999
 30
0.0
 11
-2.9999999999999996
 21
1.1359999999999999
 31
0.0
  0
ENDBLK
  5
106
100
AcDbEntity
  8
None
390
0
100
AcDbBlockEnd
  0
BLOCK
  5
107
100
AcDbEntity
  8
None
390
0
100
AcDbBlockBegin
  2
Group-10
 70
               0
 10
0.0
 20
0.0
 30
0.0
  3
Group-10
  1

  0
WIPEOUT
  5
108
100
AcDbEntity
  8
None
370
               5
390
0
  6
Continuous
 62
               7
 92
        0
100
AcDbWipeout
 90
        0
 10
-3.0551999999999997
 20
1.0463
 30
0.0
 11
0.1103999999999998
 21
0.0
 31
0.0
 12
0.0
 22
0.1103999999999998
 32
0.0
 13
1.0
 23
1.0
340
0
 70
               7
280
               1
281
              50
282
              50
283
               0
360
0
 71
               2
 91
       65
 14
0.4999999999999999
 24
0.0000000000000001
 14
0.4975923633361021
 24
0.0490085701647804
 14
0.4903926402016179
 24
0.0975451610080634
 14
0.4784701678661042
 24
0.1451423386272319
 14
0.4619397662556483
 24
0.1913417161825442
 14
0.4409606321741778
 24
0.2356983684129985
 14
0.4157348061512732
 24
0.2777851165098013
 14
0.3865052266813686
 24
0.3171966420818216
 14
0.3535533905932735
 24
0.3535533905932737
 14
0.3171966420818235
 24
0.3865052266813687
 14
0.2777851165097991
 24
0.4157348061512713
 14
0.2356983684130004
 24
0.4409606321741779
 14
0.1913417161825481
 24
0.4619397662556424
 14
0.1451423386272297
 24
0.4784701678661044
 14
0.0975451610080632
 24
0.490392640201614
 14
0.0490085701647782
 24
0.4975923633360983
 14
0.000000000000002
 24
0.5
 14
-0.0490085701647784
 24
0.4975923633360983
 14
-0.0975451610080634
 24
0.490392640201614
 14
-0.1451423386272299
 24
0.4784701678661044
 14
-0.1913417161825482
 24
0.4619397662556424
 14
-0.2356983684129965
 24
0.4409606321741779
 14
-0.2777851165097992
 24
0.4157348061512713
 14
-0.3171966420818236
 24
0.3865052266813687
 14
-0.3535533905932737
 24
0.3535533905932737
 14
-0.3865052266813687
 24
0.3171966420818216
 14
-0.4157348061512693
 24
0.2777851165098013
 14
-0.4409606321741779
 24
0.2356983684129985
 14
-0.4619397662556444
 24
0.1913417161825442
 14
-0.4784701678661044
 24
0.1451423386272319
 14
-0.490392640201618
 24
0.0975451610080634
 14
-0.4975923633360983
 24
0.0490085701647804
 14
-0.5
 24
0.0000000000000001
 14
-0.4975923633360983
 24
-0.0490085701647802
 14
-0.490392640201618
 24
-0.0975451610080652
 14
-0.4784701678661044
 24
-0.1451423386272317
 14
-0.4619397662556444
 24
-0.1913417161825441
 14
-0.4409606321741779
 24
-0.2356983684129984
 14
-0.4157348061512693
 24
-0.2777851165098011
 14
-0.3865052266813687
 24
-0.3171966420818235
 14
-0.3535533905932737
 24
-0.3535533905932735
 14
-0.3171966420818236
 24
-0.3865052266813686
 14
-0.2777851165097992
 24
-0.4157348061512732
 14
-0.2356983684129965
 24
-0.4409606321741778
 14
-0.1913417161825482
 24
-0.4619397662556443
 14
-0.1451423386272299
 24
-0.4784701678661042
 14
-0.0975451610080634
 24
-0.4903926402016159
 14
-0.0490085701647784
 24
-0.4975923633360981
 14
0.000000000000002
 24
-0.4999999999999999
 14
0.0490085701647782
 24
-0.4975923633360981
 14
0.0975451610080632
 24
-0.4903926402016159
 14
0.1451423386272297
 24
-0.4784701678661042
 14
0.1913417161825481
 24
-0.4619397662556443
 14
0.2356983684130004
 24
-0.4409606321741778
 14
0.2777851165097991
 24
-0.4157348061512732
 14
0.3171966420818235
 24
-0.3865052266813686
 14
0.3535533905932735
 24
-0.3535533905932735
 14
0.3865052266813686
 24
-0.3171966420818235
 14
0.4157348061512732
 24
-0.2777851165098011
 14
0.4409606321741778
 24
-0.2356983684129984
 14
0.4619397662556483
 24
-0.1913417161825441
 14
0.4784701678661042
 24
-0.1451423386272317
 14
0.4903926402016179
 24
-0.0975451610080652
 14
0.4975923633361021
 24
-0.0490085701647802
 14
0.4999999999999999
 24
0.0000000000000001
  0
CIRCLE
  5
109
100
AcDbEntity
  8
None
370
               5
390
0
  6
Continuous
 62
               7
100
AcDbCircle
 10
-2.9999999999999996
 20
1.1014999999999999
 30
0.0
 40
0.0551999999999999
  0
CIRCLE
  5
10A
100
AcDbEntity
  8
None
370
               5
390
0
  6
STYLE_02
 62
               7
100
AcDbCircle
 10
-2.9999999999999996
 20
1.1014999999999999
 30
0.0
 40
0.0689999999999995
  0
INSERT
  5
10B
100
AcDbEntity
  8
None
390
0
 62
               7
100
AcDbBlockReference
  2
Group-9
 10
0.0
 20
0.0
 30
0.0
  0
ENDBLK
  5
10C
100
AcDbEntity
  8
None
390
0
100
AcDbBlockEnd
  0
BLOCK
  5
10D
100
AcDbEntity
  8
None
390
0
100
AcDbBlockBegin
  2
Group-11
 70
               0
 10
0.0
 20
0.0
 30
0.0
  3
Group-11
  1

  0
WIPEOUT
  5
10E
100
AcDbEntity
  8
None
370
               5
390
0
  6
Continuous
 62
               7
 92
        0
100
AcDbWipeout
 90
        0
 10
2.0
 20
1.0463
 30
0.0
 11
0.3327552
 21
0.0
 31
0.0
 12
0.0
 22
0.3327552
 32
0.0
 13
1.0
 23
1.0
340
0
 70
               7
280
               1
281
              50
282
              50
283
               0
360
0
 71
               2
 91
        5
 14
-0.5
 24
0.5
 14
-0.5
 24
0.1682245686919392
 14
0.5000000000000007
 24
0.1682245686919392
 14
0.5000000000000007
 24
0.5
 14
-0.5
 24
0.5
  0
POLYLINE
  5
10F
100
AcDbEntity
  8
None
370
               5
390
0
  6
Continuous
 62
               7
100
AcDb2dPolyline
 66
               1
 10
0.0
 20
0.0
 30
0.0
 70
               1
 75
               5
  0
VERTEX
  5
110
100
AcDbEntity
  8
None
370
               5
390
0
  6
Continuous
 62
               7
100
AcDbVertex
100
AcDb2dVertex
 10
2.0
 20
1.0463
 30
0.0
  0
VERTEX
  5
111
100
AcDbEntity
  8
None
370
               5
390
0
  6
Continuous
 62
               7
100
AcDbVertex
100
AcDb2dVertex
 10
2.0
 20
1.1567000000000001
 30
0.0
  0
VERTEX
  5
112
100
AcDbEntity
  8
None
370
               5
390
0
  6
Continuous
 62
               7
100
AcDbVertex
100
AcDb2dVertex
 10
2.3327552000000003
 20
1.1567000000000001
 30
0.0
  0
VERTEX
  5
113
100
AcDbEntity
  8
None
370
               5
390
0
  6
Continuous
 62
               7
100
AcDbVertex
100
AcDb2dVertex
 10
2.3327552000000003
 20
1.0463
 30
0.0
  0
SEQEND
  5
114
100
AcDbEntity
  8
None
370
               5
390
0
  6
Continuous
 62
               7
  0
WIPEOUT
  5
116
100
AcDbEntity
  8
None
370
               5
390
0
  6
Continuous
 62
               7
 92
        0
100
AcDbWipeout
 90
        0
 10
2.3327552000000003
 20
1.0463
 30
0.0
 11
0.1104
 21
0.0
 31
0.0
 12
0.0
 22
0.1104
 32
0.0
 13
1.0
 23
1.0
340
0
 70
               7
280
               1
281
              50
282
              50
283
               0
360
0
 71
               2
 91
        5
 14
-0.5
 24
0.5
 14
-0.5
 24
0.5
 14
-0.2113251811594233
 24
0.0000000000000007
 14
-0.5
 24
-0.5000000000000007
 14
-0.5
 24
0.5
  0
POLYLINE
  5
117
100
AcDbEntity
  8
None
370
               5
390
0
  6
Continuous
 62
               7
100
AcDb2dPolyline
 66
               1
 10
0.0
 20
0.0
 30
0.0
 70
               1
 75
               5
  0
VERTEX
  5
118
100
AcDbEntity
  8
None
370
               5
390
0
  6
Continuous
 62
               7
100
AcDbVertex
100
AcDb2dVertex
 10
2.3327552000000003
 20
1.0463
 30
0.0
  0
VERTEX
  5
119
100
AcDbEntity
  8
None
370
               5
390
0
  6
Continuous
 62
               7
100
AcDbVertex
100
AcDb2dVertex
 10
2.3327552000000003
 20
1.0463
 30
0.0
  0
VERTEX
  5
11A
100
AcDbEntity
  8
None
370
               5
390
0
  6
Continuous
 62
               7
100
AcDbVertex
100
AcDb2dVertex
 10
2.3646248999999999
 20
1.1014999999999999
 30
0.0
  0
VERTEX
  5
11B
100
AcDbEntity
  8
None
370
               5
390
0
  6
Continuous
 62
               7
100
AcDbVertex
100
AcDb2dVertex
 10
2.3327552000000003
 20
1.1567000000000001
 30
0.0
  0
SEQEND
  5
11C
100
AcDbEntity
  8
None
370
               5
390
0
  6
Continuous
 62
               7
  0
POLYLINE
  5
11E
100
AcDbEntity
  8
None
370
               5
390
0
  6
STYLE_02
 62
               7
100
AcDb2dPolyline
 66
               1
 10
0.0
 20
0.0
 30
0.0
 75
               5
  0
VERTEX
  5
11F
100
AcDbEntity
  8
None
370
               5
390
0
  6
STYLE_02
 62
               7
100
AcDbVertex
100
AcDb2dVertex
 10
2.0
 20
1.0325
 30
0.0
  0
VERTEX
  5
120
100
AcDbEntity
  8
None
370
               5
390
0
  6
STYLE_02
 62
               7
100
AcDbVertex
100
AcDb2dVertex
 10
2.3119999999999998
 20
1.0325
 30
0.0
  0
VERTEX
  5
121
100
AcDbEntity
  8
None
370
               5
390
0
  6
STYLE_02
 62
               7
100
AcDbVertex
100
AcDb2dVertex
 10
2.3119999999999998
 20
1.1705000000000001
 30
0.0
  0
VERTEX
  5
122
100
AcDbEntity
  8
None
370
               5
390
0
  6
STYLE_02
 62
               7
100
AcDbVertex
100
AcDb2dVertex
 10
2.0
 20
1.1705000000000001
 30
0.0
  0
SEQEND
  5
123
100
AcDbEntity
  8
None
370
               5
390
0
  6
STYLE_02
 62
               7
  0
ENDBLK
  5
125
100
AcDbEntity
  8
None
390
0
100
AcDbBlockEnd
  0
BLOCK
  5
126
100
AcDbEntity
  8
None
390
0
100
AcDbBlockBegin
  2
Group-12
 70
               0
 10
0.0
 20
0.0
 30
0.0
  3
Group-12
  1

  0
INSERT
  5
127
100
AcDbEntity
  8
None
390
0
 62
               7
100
AcDbBlockReference
  2
Group-11
 10
0.0
 20
0.0
 30
0.0
  0
LINE
  5
128
100
AcDbEntity
  8
None
370
               5
390
0
  6
STYLE_09
 62
               7
100
AcDbLine
 10
1.9651875000000001
 20
1.1014999999999999
 30
0.0
 11
2.3988123999999997
 21
1.1014999999999999
 31
0.0
  0
ENDBLK
  5
129
100
AcDbEntity
  8
None
390
0
100
AcDbBlockEnd
  0
BLOCK
  5
12A
100
AcDbEntity
  8
None
390
0
100
AcDbBlockBegin
  2
Group-13
 70
               0
 10
0.0
 20
0.0
 30
0.0
  3
Group-13
  1

  0
WIPEOUT
  5
12B
100
AcDbEntity
  8
None
370
               5
390
0
  6
Continuous
 62
               7
 92
        0
100
AcDbWipeout
 90
        0
 10
3.0372447999999999
 20
1.0463
 30
0.0
 11
0.3327552000000003
 21
0.0
 31
0.0
 12
0.0
 22
0.3327552000000003
 32
0.0
 13
1.0
 23
1.0
340
0
 70
               7
280
               1
281
              50
282
              50
283
               0
360
0
 71
               2
 91
        5
 14
0.4999999999999998
 24
0.5
 14
0.4999999999999998
 24
0.1682245686919395
 14
-0.5
 24
0.1682245686919395
 14
-0.5
 24
0.5
 14
0.4999999999999998
 24
0.5
  0
POLYLINE
  5
12C
100
AcDbEntity
  8
None
370
               5
390
0
  6
Continuous
 62
               7
100
AcDb2dPolyline
 66
               1
 10
0.0
 20
0.0
 30
0.0
 70
               1
 75
               5
  0
VERTEX
  5
12D
100
AcDbEntity
  8
None
370
               5
390
0
  6
Continuous
 62
               7
100
AcDbVertex
100
AcDb2dVertex
 10
3.3700000000000001
 20
1.0463
 30
0.0
  0
VERTEX
  5
12E
100
AcDbEntity
  8
None
370
               5
390
0
  6
Continuous
 62
               7
100
AcDbVertex
100
AcDb2dVertex
 10
3.3700000000000001
 20
1.1567000000000001
 30
0.0
  0
VERTEX
  5
12F
100
AcDbEntity
  8
None
370
               5
390
0
  6
Continuous
 62
               7
100
AcDbVertex
100
AcDb2dVertex
 10
3.0372447999999999
 20
1.1567000000000001
 30
0.0
  0
VERTEX
  5
130
100
AcDbEntity
  8
None
370
               5
390
0
  6
Continuous
 62
               7
100
AcDbVertex
100
AcDb2dVertex
 10
3.0372447999999999
 20
1.0463
 30
0.0
  0
SEQEND
  5
131
100
AcDbEntity
  8
None
370
               5
390
0
  6
Continuous
 62
               7
  0
WIPEOUT
  5
133
100
AcDbEntity
  8
None
370
               5
390
0
  6
Continuous
 62
               7
 92
        0
100
AcDbWipeout
 90
        0
 10
3.0053750999999997
 20
1.0463
 30
0.0
 11
0.1104
 21
0.0
 31
0.0
 12
0.0
 22
0.1104
 32
0.0
 13
1.0
 23
1.0
340
0
 70
               7
280
               1
281
              50
282
              50
283
               0
360
0
 71
               2
 91
        5
 14
-0.2113251811594192
 24
0.5
 14
-0.2113251811594192
 24
0.5
 14
-0.5
 24
0.0000000000000007
 14
-0.2113251811594192
 24
-0.5000000000000007
 14
-0.2113251811594192
 24
0.5
  0
POLYLINE
  5
134
100
AcDbEntity
  8
None
370
               5
390
0
  6
Continuous
 62
               7
100
AcDb2dPolyline
 66
               1
 10
0.0
 20
0.0
 30
0.0
 70
               1
 75
               5
  0
VERTEX
  5
135
100
AcDbEntity
  8
None
370
               5
390
0
  6
Continuous
 62
               7
100
AcDbVertex
100
AcDb2dVertex
 10
3.0372447999999999
 20
1.0463
 30
0.0
  0
VERTEX
  5
136
100
AcDbEntity
  8
None
370
               5
390
0
  6
Continuous
 62
               7
100
AcDbVertex
100
AcDb2dVertex
 10
3.0372447999999999
 20
1.0463
 30
0.0
  0
VERTEX
  5
137
100
AcDbEntity
  8
None
370
               5
390
0
  6
Continuous
 62
               7
100
AcDbVertex
100
AcDb2dVertex
 10
3.0053750999999997
 20
1.1014999999999999
 30
0.0
  0
VERTEX
  5
138
100
AcDbEntity
  8
None
370
               5
390
0
  6
Continuous
 62
               7
100
AcDbVertex
100
AcDb2dVertex
 10
3.0372447999999999
 20
1.1567000000000001
 30
0.0
  0
SEQEND
  5
139
100
AcDbEntity
  8
None
370
               5
390
0
  6
Continuous
 62
               7
  0
POLYLINE
  5
13B
100
AcDbEntity
  8
None
370
               5
390
0
  6
STYLE_02
 62
               7
100
AcDb2dPolyline
 66
               1
 10
0.0
 20
0.0
 30
0.0
 75
               5
  0
VERTEX
  5
13C
100
AcDbEntity
  8
None
370
               5
390
0
  6
STYLE_02
 62
               7
100
AcDbVertex
100
AcDb2dVertex
 10
3.3700000000000001
 20
1.0325
 30
0.0
  0
VERTEX
  5
13D
100
AcDbEntity
  8
None
370
               5
390
0
  6
STYLE_02
 62
               7
100
AcDbVertex
100
AcDb2dVertex
 10
3.0579999999999998
 20
1.0325
 30
0.0
  0
VERTEX
  5
13E
100
AcDbEntity
  8
None
370
               5
390
0
  6
STYLE_02
 62
               7
100
AcDbVertex
100
AcDb2dVertex
 10
3.0579999999999998
 20
1.1705000000000001
 30
0.0
  0
VERTEX
  5
13F
100
AcDbEntity
  8
None
370
               5
390
0
  6
STYLE_02
 62
               7
100
AcDbVertex
100
AcDb2dVertex
 10
3.3700000000000001
 20
1.1705000000000001
 30
0.0
  0
SEQEND
  5
140
100
AcDbEntity
  8
None
370
               5
390
0
  6
STYLE_02
 62
               7
  0
LINE
  5
142
100
AcDbEntity
  8
None
370
               5
390
0
  6
STYLE_09
 62
               7
100
AcDbLine
 10
3.4076247
 20
1.1014999999999999
 30
0.0
 11
2.9739998000000001
 21
1.1014999999999999
 31
0.0
  0
ENDBLK
  5
143
100
AcDbEntity
  8
None
390
0
100
AcDbBlockEnd
  0
BLOCK
  5
144
100
AcDbEntity
  8
Dimension
390
0
100
AcDbBlockBegin
  2
Group-14
 70
               0
 10
0.0
 20
0.0
 30
0.0
  3
Group-14
  1

  0
LINE
  5
145
100
AcDbEntity
  8
None
370
               5
390
0
  6
Continuous
 62
               7
100
AcDbLine
 10
-3.0984250000000002
 20
0.0
 30
0.0
 11
-2.9015749999999998
 21
0.0
 31
0.0
  0
LINE
  5
146
100
AcDbEntity
  8
None
370
               5
390
0
  6
Continuous
 62
               7
100
AcDbLine
 10
-2.9999999999999996
 20
-0.098425
 30
0.0
 11
-2.9999999999999996
 21
0.098425
 31
0.0
  0
LINE
  5
147
100
AcDbEntity
  8
None
370
               5
390
0
  6
Continuous
 62
               7
100
AcDbLine
 10
-4.35311
 20
0.0
 30
0.0
 11
-3.177165
 21
0.0
 31
0.0
  0
LINE
  5
148
100
AcDbEntity
  8
None
370
               5
390
0
  6
Continuous
 62
               7
100
AcDbLine
 10
-2.822835
 20
0.0
 30
0.0
 11
-1.64689
 21
0.0
 31
0.0
  0
LINE
  5
149
100
AcDbEntity
  8
None
370
               5
390
0
  6
Continuous
 62
               7
100
AcDbLine
 10
-2.9999999999999996
 20
1.35311
 30
0.0
 11
-2.9999999999999996
 21
0.177165
 31
0.0
  0
LINE
  5
14A
100
AcDbEntity
  8
None
370
               5
390
0
  6
Continuous
 62
               7
100
AcDbLine
 10
-2.9999999999999996
 20
-0.177165
 30
0.0
 11
-2.9999999999999996
 21
-1.35311
 31
0.0
  0
ENDBLK
  5
14B
100
AcDbEntity
  8
Dimension
390
0
100
AcDbBlockEnd
  0
BLOCK
  5
14C
100
AcDbEntity
  8
Dimension
390
0
100
AcDbBlockBegin
  2
*D21
 70
               1
 10
0.0
 20
0.0
 30
0.0
  3
*D21
  1

  0
LINE
  5
14D
100
AcDbEntity
  8
Dimension
370
              -2
390
0
  6
Continuous
 62
               0
100
AcDbLine
 10
-3.5360000000000005
 20
-0.23725
 30
0.0
 11
-3.5360000000000005
 21
-2.0839901574803008
 31
0.0
  0
LINE
  5
14E
100
AcDbEntity
  8
Dimension
370
              -2
390
0
  6
Continuous
 62
               0
100
AcDbLine
 10
0.0
 20
-0.23725
 30
0.0
 11
0.0
 21
-2.0839901574803008
 31
0.0
  0
LINE
  5
14F
100
AcDbEntity
  8
Dimension
370
              -2
390
0
  6
Continuous
 62
               0
100
AcDbLine
 10
-3.5360000000000005
 20
-2.0052500000000006
 30
0.0
 11
0.0
 21
-2.0052500000000006
 31
0.0
  0
POLYLINE
  5
150
102
{ACAD_REACTORS
330
155
102
}
100
AcDbEntity
  8
None
370
               5
390
0
  6
Continuous
 62
               0
100
AcDb2dPolyline
 66
               1
 10
0.0
 20
0.0
 30
0.0
 70
               1
 75
               5
  0
VERTEX
  5
151
100
AcDbEntity
  8
None
370
               5
390
0
  6
Continuous
 62
               0
100
AcDbVertex
100
AcDb2dVertex
 10
-3.4110000000000005
 20
-2.0387436490538908
 30
0.0
  0
VERTEX
  5
152
100
AcDbEntity
  8
None
370
               5
390
0
  6
Continuous
 62
               0
100
AcDbVertex
100
AcDb2dVertex
 10
-3.5360000000000005
 20
-2.0052500000000006
 30
0.0
  0
VERTEX
  5
153
100
AcDbEntity
  8
None
370
               5
390
0
  6
Continuous
 62
               0
100
AcDbVertex
100
AcDb2dVertex
 10
-3.4110000000000005
 20
-1.9717563509461102
 30
0.0
  0
SEQEND
  5
154
100
AcDbEntity
  8
None
370
               5
390
0
  6
Continuous
 62
               0
  0
HATCH
  5
155
100
AcDbEntity
  8
Dimension
370
               0
390
0
  6
Continuous
 62
               0
100
AcDbHatch
 10
0.0
 20
0.0
 30
0.0
210
0.0
220
0.0
230
1.0
  2
SOLID
 70
               1
 71
               1
 91
        1
 92
        1
 93
        3
 72
               1
 10
-3.4110000000000005
 20
-2.0387436490538908
 11
-3.5360000000000005
 21
-2.0052500000000006
 72
               1
 10
-3.5360000000000005
 20
-2.0052500000000006
 11
-3.4110000000000005
 21
-1.9717563509461102
 72
               1
 10
-3.4110000000000005
 20
-1.9717563509461102
 11
-3.4110000000000005
 21
-2.0387436490538908
 97
        1
330
150
 75
               0
 76
               1
 98
        1
 10
0.0
 20
0.0
  0
POLYLINE
  5
156
102
{ACAD_REACTORS
330
15B
102
}
100
AcDbEntity
  8
None
370
               5
390
0
  6
Continuous
 62
               0
100
AcDb2dPolyline
 66
               1
 10
0.0
 20
0.0
 30
0.0
 70
               1
 75
               5
  0
VERTEX
  5
157
100
AcDbEntity
  8
None
370
               5
390
0
  6
Continuous
 62
               0
100
AcDbVertex
100
AcDb2dVertex
 10
-0.125
 20
-1.9717563509461102
 30
0.0
  0
VERTEX
  5
158
100
AcDbEntity
  8
None
370
               5
390
0
  6
Continuous
 62
               0
100
AcDbVertex
100
AcDb2dVertex
 10
0.0
 20
-2.0052500000000006
 30
0.0
  0
VERTEX
  5
159
100
AcDbEntity
  8
None
370
               5
390
0
  6
Continuous
 62
               0
100
AcDbVertex
100
AcDb2dVertex
 10
-0.125
 20
-2.0387436490538908
 30
0.0
  0
SEQEND
  5
15A
100
AcDbEntity
  8
None
370
               5
390
0
  6
Continuous
 62
               0
  0
HATCH
  5
15B
100
AcDbEntity
  8
Dimension
370
               0
390
0
  6
Continuous
 62
               0
100
AcDbHatch
 10
0.0
 20
0.0
 30
0.0
210
0.0
220
0.0
230
1.0
  2
SOLID
 70
               1
 71
               1
 91
        1
 92
        1
 93
        3
 72
               1
 10
-0.125
 20
-1.9717563509461102
 11
0.0
 21
-2.0052500000000006
 72
               1
 10
0.0
 20
-2.0052500000000006
 11
-0.125
 21
-2.0387436490538908
 72
               1
 10
-0.125
 20
-2.0387436490538908
 11
-0.125
 21
-1.9717563509461102
 97
        1
330
156
 75
               0
 76
               1
 98
        1
 10
0.0
 20
0.0
  0
WIPEOUT
  5
15C
100
AcDbEntity
  8
Dimension
370
              -2
390
0
  6
Continuous
 62
               0
 92
        0
100
AcDbWipeout
 90
        0
 10
-1.9031589626736114
 20
-6.4188800000000006
 30
0.0
 11
0.2703179253472222
 21
0.0
 31
0.0
 12
0.0
 22
0.2703179253472222
 32
0.0
 13
1.0
 23
1.0
340
0
 70
               7
280
               1
281
              50
282
              50
283
               0
360
0
 71
               2
 91
        5
 14
-0.5
 24
-15.9731953838434571
 14
0.499999999999999
 24
-15.9731953838434571
 14
0.499999999999999
 24
-16.4869936778725581
 14
-0.5
 24
-16.4869936778725581
 14
-0.5
 24
-15.9731953838434571
  0
MTEXT
  5
15D
100
AcDbEntity
  8
Dimension
390
0
 62
               0
100
AcDbMText
 10
-1.9031589626736114
 20
-1.8343065363147439
 30
0.0
 40
0.099629019240812
 41
0.0
 71
               1
 72
               1
  1
3.54
  7
Helvetica
 73
               1
 44
0.8397955333929318
  0
POINT
  5
15E
100
AcDbEntity
  8
Defpoints
370
               0
390
0
 62
               0
100
AcDbPoint
 10
0.0
 20
-0.23725
 30
0.0
  0
POINT
  5
15F
100
AcDbEntity
  8
Defpoints
370
               0
390
0
 62
               0
100
AcDbPoint
 10
-3.5360000000000005
 20
-0.23725
 30
0.0
  0
POINT
  5
160
100
AcDbEntity
  8
Defpoints
370
               0
390
0
 62
               0
100
AcDbPoint
 10
-3.5360000000000005
 20
-2.0052500000000006
 30
0.0
  0
ENDBLK
  5
161
100
AcDbEntity
  8
Dimension
390
0
100
AcDbBlockEnd
  0
BLOCK
  5
162
100
AcDbEntity
  8
None
390
0
100
AcDbBlockBegin
  2
Group-15
 70
               0
 10
0.0
 20
0.0
 30
0.0
  3
Group-15
  1

  0
LINE
  5
163
100
AcDbEntity
  8
None
370
               5
390
0
  6
Continuous
 62
               7
100
AcDbLine
 10
-3.5654038644188799
 20
1.0992416199692845
 30
0.0
 11
-3.688184671473981
 21
1.3113960159830318
 31
0.0
  0
LINE
  5
164
100
AcDbEntity
  8
None
370
               5
390
0
  6
Continuous
 62
               7
100
AcDbLine
 10
-3.7920922565306547
 20
1.2513690325929743
 30
0.0
 11
-3.6693114494755523
 21
1.039214636579227
 31
0.0
  0
LINE
  5
165
100
AcDbEntity
  8
None
370
               5
390
0
  6
Continuous
 62
               7
100
AcDbLine
 10
-3.7920922565306547
 20
1.2513690325929743
 30
0.0
 11
-3.688184671473981
 21
1.3113960159830318
 31
0.0
  0
ENDBLK
  5
166
100
AcDbEntity
  8
None
390
0
100
AcDbBlockEnd
  0
BLOCK
  5
167
100
AcDbEntity
  8
None
390
0
100
AcDbBlockBegin
  2
Group-16
 70
               0
 10
0.0
 20
0.0
 30
0.0
  3
Group-16
  1

  0
LINE
  5
168
100
AcDbEntity
  8
None
370
               5
390
0
  6
Continuous
 62
               7
100
AcDbLine
 10
-4.018597733937205
 20
1.6429002276537643
 30
0.0
 11
-3.9146926220856124
 21
1.7029310947606795
 31
0.0
  0
LINE
  5
169
100
AcDbEntity
  8
None
370
               5
390
0
  6
Continuous
 62
               7
100
AcDbLine
 10
-3.9146926220856124
 20
1.7029310947606795
 30
0.0
 11
-3.7143961414665796
 21
1.3567332137512784
 31
0.0
  0
LINE
  5
16A
100
AcDbEntity
  8
None
370
               5
390
0
  6
Continuous
 62
               7
100
AcDbLine
 10
-4.018597733937205
 20
1.6429002276537643
 30
0.0
 11
-3.818301303318171
 21
1.2967024332469039
 31
0.0
  0
LINE
  5
16B
100
AcDbEntity
  8
None
370
               5
390
0
  6
Continuous
 62
               7
100
AcDbLine
 10
-3.818301303318171
 20
1.2967024332469039
 30
0.0
 11
-3.7143961414665796
 21
1.3567332137512784
 31
0.0
  0
ENDBLK
  5
16C
100
AcDbEntity
  8
None
390
0
100
AcDbBlockEnd
  0
BLOCK
  5
16D
100
AcDbEntity
  8
None
390
0
100
AcDbBlockBegin
  2
Group-17
 70
               0
 10
0.0
 20
0.0
 30
0.0
  3
Group-17
  1

  0
LINE
  5
16E
100
AcDbEntity
  8
None
370
               5
390
0
  6
Continuous
 62
               7
100
AcDbLine
 10
-3.9666385097101386
 20
1.6729042113706216
 30
0.0
 11
-4.1704902011358689
 21
2.3946688981288404
 31
0.0
  0
LINE
  5
16F
100
AcDbEntity
  8
None
370
               5
390
0
  6
Continuous
 62
               7
100
AcDbLine
 10
-3.9219741287441416
 20
1.6987220342489027
 30
0.0
 11
-4.1223724541084312
 21
2.408259115531572
 31
0.0
  0
LINE
  5
170
100
AcDbEntity
  8
None
370
               5
390
0
  6
Continuous
 62
               7
100
AcDbLine
 10
-3.9666385097101386
 20
1.6729042113706216
 30
0.0
 11
-4.458168212969305
 21
2.2393830308447531
 31
0.0
  0
LINE
  5
171
100
AcDbEntity
  8
None
370
               5
390
0
  6
Continuous
 62
               7
100
AcDbLine
 10
-4.0107246955140292
 20
1.6474203250948809
 30
0.0
 11
-4.4959336366436231
 21
2.2066144634180374
 31
0.0
  0
LINE
  5
172
100
AcDbEntity
  8
None
370
               5
390
0
  6
Continuous
 62
               7
100
AcDbLine
 10
-4.1704902011358689
 20
2.3946688981288404
 30
0.0
 11
-4.1223724541084312
 21
2.408259115531572
 31
0.0
  0
LINE
  5
173
100
AcDbEntity
  8
None
370
               5
390
0
  6
Continuous
 62
               7
100
AcDbLine
 10
-4.458168212969305
 20
2.2393830308447531
 30
0.0
 11
-4.4959336366436231
 21
2.2066144634180374
 31
0.0
  0
LINE
  5
174
100
AcDbEntity
  8
None
370
               5
390
0
  6
Continuous
 62
               7
100
AcDbLine
 10
-4.2143815517192946
 20
2.6420525473521521
 30
0.0
 11
-4.1999463021558903
 21
2.646129361688399
 31
0.0
  0
LINE
  5
175
100
AcDbEntity
  8
None
370
               5
390
0
  6
Continuous
 62
               7
100
AcDbLine
 10
-4.1999463021558903
 20
2.646129361688399
 30
0.0
 11
-4.1319958249498541
 21
2.4055410827689925
 31
0.0
  0
LINE
  5
176
100
AcDbEntity
  8
None
370
               5
390
0
  6
Continuous
 62
               7
100
AcDbLine
 10
-4.1999463021558903
 20
2.646129361688399
 30
0.0
 11
-4.2288168244877804
 21
2.6379753732082842
 31
0.0
  0
LINE
  5
177
100
AcDbEntity
  8
None
370
               5
390
0
  6
Continuous
 62
               7
100
AcDbLine
 10
-4.2288168244877804
 20
2.6379753732082842
 30
0.0
 11
-4.1608665204868247
 21
2.3973869942888779
 31
0.0
  0
LINE
  5
178
100
AcDbEntity
  8
None
370
               5
390
0
  6
Continuous
 62
               7
100
AcDbLine
 10
-4.640894013254016
 20
2.4118252007915553
 30
0.0
 11
-4.6295645437350235
 21
2.4216557839618567
 31
0.0
  0
LINE
  5
179
100
AcDbEntity
  8
None
370
               5
390
0
  6
Continuous
 62
               7
100
AcDbLine
 10
-4.6295645437350235
 20
2.4216557839618567
 30
0.0
 11
-4.4657207075633378
 21
2.2328299352055065
 31
0.0
  0
LINE
  5
17A
100
AcDbEntity
  8
None
370
               5
390
0
  6
Continuous
 62
               7
100
AcDbLine
 10
-4.6295645437350235
 20
2.4216557839618567
 30
0.0
 11
-4.6522235693755496
 21
2.4019945676212546
 31
0.0
  0
LINE
  5
17B
100
AcDbEntity
  8
None
370
               5
390
0
  6
Continuous
 62
               7
100
AcDbLine
 10
-4.6522235693755496
 20
2.4019945676212546
 30
0.0
 11
-4.4883799198064045
 21
2.2131688420699853
 31
0.0
  0
INSERT
  5
17C
100
AcDbEntity
  8
None
390
0
 62
               7
100
AcDbBlockReference
  2
Group-15
 10
0.0
 20
0.0
 30
0.0
  0
INSERT
  5
17D
100
AcDbEntity
  8
None
390
0
 62
               7
100
AcDbBlockReference
  2
Group-16
 10
0.0
 20
0.0
 30
0.0
  0
ENDBLK
  5
17E
100
AcDbEntity
  8
None
390
0
100
AcDbBlockEnd
  0
BLOCK
  5
17F
100
AcDbEntity
  8
Dimension
390
0
100
AcDbBlockBegin
  2
*D25
 70
               1
 10
0.0
 20
0.0
 30
0.0
  3
*D25
  1

  0
LINE
  5
180
100
AcDbEntity
  8
Dimension
370
              -2
390
0
  6
Continuous
 62
               0
100
AcDbLine
 10
-7.4529999999999994
 20
-0.0000000000000021
 30
0.0
 11
-7.4529999999999994
 21
1.7305662024960893
 31
0.0
  0
ARC
  5
181
100
AcDbEntity
  8
Dimension
370
              -2
390
0
  6
Continuous
 62
               0
100
AcDbCircle
 10
-7.4529999999999994
 20
-0.0000000000000021
 30
0.0
 40
1.6518260450157918
100
AcDbArc
 50
90.0
 51
119.9999999999999716
  0
POLYLINE
  5
182
102
{ACAD_REACTORS
330
187
102
}
100
AcDbEntity
  8
None
370
               5
390
0
  6
Continuous
 62
               0
100
AcDb2dPolyline
 66
               1
 10
0.0
 20
0.0
 30
0.0
 70
               1
 75
               5
  0
VERTEX
  5
183
100
AcDbEntity
  8
None
370
               5
390
0
  6
Continuous
 62
               0
100
AcDbVertex
100
AcDb2dVertex
 10
-8.1523314085122713
 20
1.4574290702580033
 30
0.0
  0
VERTEX
  5
184
100
AcDbEntity
  8
None
370
               5
390
0
  6
Continuous
 62
               0
100
AcDbVertex
100
AcDb2dVertex
 10
-8.2789130225078953
 20
1.4305233176164518
 30
0.0
  0
VERTEX
  5
185
100
AcDbEntity
  8
None
370
               5
390
0
  6
Continuous
 62
               0
100
AcDbVertex
100
AcDb2dVertex
 10
-8.182743005456425
 20
1.5171151899097868
 30
0.0
  0
SEQEND
  5
186
100
AcDbEntity
  8
None
370
               5
390
0
  6
Continuous
 62
               0
  0
HATCH
  5
187
100
AcDbEntity
  8
Dimension
370
               0
390
0
  6
Continuous
 62
               0
100
AcDbHatch
 10
0.0
 20
0.0
 30
0.0
210
0.0
220
0.0
230
1.0
  2
SOLID
 70
               1
 71
               1
 91
        1
 92
        1
 93
        3
 72
               1
 10
-8.1523314085122713
 20
1.4574290702580033
 11
-8.2789130225078953
 21
1.4305233176164518
 72
               1
 10
-8.2789130225078953
 20
1.4305233176164518
 11
-8.182743005456425
 21
1.5171151899097868
 72
               1
 10
-8.182743005456425
 20
1.5171151899097868
 11
-8.1523314085122713
 21
1.4574290702580033
 97
        1
330
182
 75
               0
 76
               1
 98
        1
 10
0.0
 20
0.0
  0
POLYLINE
  5
188
102
{ACAD_REACTORS
330
18D
102
}
100
AcDbEntity
  8
None
370
               5
390
0
  6
Continuous
 62
               0
100
AcDb2dPolyline
 66
               1
 10
0.0
 20
0.0
 30
0.0
 70
               1
 75
               5
  0
VERTEX
  5
189
100
AcDbEntity
  8
None
370
               5
390
0
  6
Continuous
 62
               0
100
AcDbVertex
100
AcDb2dVertex
 10
-7.5790927648720974
 20
1.6809368535558318
 30
0.0
  0
VERTEX
  5
18A
100
AcDbEntity
  8
None
370
               5
390
0
  6
Continuous
 62
               0
100
AcDbVertex
100
AcDb2dVertex
 10
-7.4529999999999994
 20
1.6518260450157896
 30
0.0
  0
VERTEX
  5
18B
100
AcDbEntity
  8
None
370
               5
390
0
  6
Continuous
 62
               0
100
AcDbVertex
100
AcDb2dVertex
 10
-7.5767549418826761
 20
1.6139903623001222
 30
0.0
  0
SEQEND
  5
18C
100
AcDbEntity
  8
None
370
               5
390
0
  6
Continuous
 62
               0
  0
HATCH
  5
18D
100
AcDbEntity
  8
Dimension
370
               0
390
0
  6
Continuous
 62
               0
100
AcDbHatch
 10
0.0
 20
0.0
 30
0.0
210
0.0
220
0.0
230
1.0
  2
SOLID
 70
               1
 71
               1
 91
        1
 92
        1
 93
        3
 72
               1
 10
-7.5790927648720974
 20
1.6809368535558318
 11
-7.4529999999999994
 21
1.6518260450157896
 72
               1
 10
-7.4529999999999994
 20
1.6518260450157896
 11
-7.5767549418826761
 21
1.6139903623001222
 72
               1
 10
-7.5767549418826761
 20
1.6139903623001222
 11
-7.5790927648720974
 21
1.6809368535558318
 97
        1
330
188
 75
               0
 76
               1
 98
        1
 10
0.0
 20
0.0
  0
WIPEOUT
  5
18E
100
AcDbEntity
  8
Dimension
370
              -2
390
0
  6
Continuous
 62
               0
 92
        0
100
AcDbWipeout
 90
        0
 10
-7.985538416816599
 20
-2.9269030070267643
 30
0.0
 11
0.2100287543402778
 21
0.0
 31
0.0
 12
0.0
 22
0.2100287543402778
 32
0.0
 13
1.0
 23
1.0
340
0
 70
               7
280
               1
281
              50
282
              50
283
               0
360
0
 71
               2
 91
        5
 14
-0.5
 24
-20.7018588311268914
 14
0.5000000000000033
 24
-20.7018588311268914
 14
0.5000000000000033
 24
-21.3631439457539507
 14
-0.5
 24
-21.3631439457539507
 14
-0.5
 24
-20.7018588311268914
  0
MTEXT
  5
18F
100
AcDbEntity
  8
Dimension
390
0
 62
               0
100
AcDbMText
 10
-7.985538416816599
 20
1.6576704566584926
 30
0.0
 40
0.099629019240812
 41
0.0
 71
               1
 72
               1
  1
30°
  7
Helvetica
 73
               1
 44
0.8397955333929318
  0
POINT
  5
190
100
AcDbEntity
  8
Defpoints
370
               0
390
0
 62
               0
100
AcDbPoint
 10
-7.4529999999999994
 20
1.35311
 30
0.0
  0
POINT
  5
191
100
AcDbEntity
  8
Defpoints
370
               0
390
0
 62
               0
100
AcDbPoint
 10
-8.302999999999999
 20
1.4722431864335457
 30
0.0
  0
POINT
  5
192
100
AcDbEntity
  8
Defpoints
370
               0
390
0
 62
               0
100
AcDbPoint
 10
-7.4529999999999994
 20
-0.0000000000000021
 30
0.0
  0
ENDBLK
  5
193
100
AcDbEntity
  8
Dimension
390
0
100
AcDbBlockEnd
  0
ENDSEC
  0
SECTION
  2
ENTITIES
  0
MTEXT
  5
194
100
AcDbEntity
  8
None
390
0
 62
               7
100
AcDbMText
 10
-7.0538334000000003
 20
2.1115734742111334
 30
0.0
 40
0.0996290272111335
 41
0.0
 71
               1
 72
               1
  1
#6-32 x 0.34\P2.203 B.C., TYP.
  7
Helvetica
 73
               1
 44
0.8397955333929318
  0
WIPEOUT
  5
195
100
AcDbEntity
  8
None
370
               5
390
0
  6
Continuous
 62
               7
 92
        0
100
AcDbWipeout
 90
        0
 10
-8.6879999901200531
 20
-5.6879999901200531
 30
0.0
 11
2.4699999802401056
 21
0.0
 31
0.0
 12
0.0
 22
2.4699999802401056
 32
0.0
 13
1.0
 23
1.0
340
0
 70
               7
280
               1
281
              50
282
              50
283
               0
360
0
 71
               2
 91
       65
 14
-0.3924413796577332
 24
-2.112656170747313
 14
-0.3601837861695149
 24
-2.1496302742016287
 14
-0.3244574259239987
 24
-2.1832645401741324
 14
-0.2856063633003634
 24
-2.2132350522971498
 14
-0.2440047552698254
 24
-2.239253178155387
 14
-0.2000532480594725
 24
-2.261068348973875
 14
-0.1541751187100768
 24
-2.2784704727322462
 14
-0.1068121986868096
 24
-2.2912919574657393
 14
-0.058420618800702
 24
-2.2994093252674346
 14
-0.0094664164195844
 24
-2.3027444014479959
 14
0.0395789527265236
 24
-2.3012650674006672
 14
0.0882431549218183
 24
-2.2949855699210104
 14
0.1360575272966008
 24
-2.2839663840024769
 14
0.1825615913069066
 24
-2.2683136304291627
 14
0.2273074873946102
 24
-2.2481780537746432
 14
0.2698642881197904
 24
-2.2237535706493281
 14
0.3098221482275517
 24
-2.1952754021774945
 14
0.3467962516818676
 24
-2.1630178086892764
 14
0.3804305176543712
 24
-2.1272914484437599
 14
0.4104010297773887
 24
-2.0884403858201246
 14
0.4364191556356257
 24
-2.0468387777895871
 14
0.4582343264541139
 24
-2.0028872705792335
 14
0.4756364502124851
 24
-1.9570091412298378
 14
0.4884579349459781
 24
-1.9096462212065712
 14
0.4965753027476728
 24
-1.8612546413204631
 14
0.4999103789282346
 24
-1.8123004389393458
 14
0.4984310448809061
 24
-1.7632550697932383
 14
0.4921515474012492
 24
-1.7145908675979431
 14
0.4811323614827162
 24
-1.6667764952231607
 14
0.4654796079094015
 24
-1.6202724312128547
 14
0.4453440312548824
 24
-1.5755265351251513
 14
0.4209195481295669
 24
-1.5329697343999711
 14
0.3924413796577332
 24
-1.4930118742922096
 14
0.3601837861695152
 24
-1.456037770837894
 14
0.3244574259239987
 24
-1.42240350486539
 14
0.2856063633003634
 24
-1.3924329927423729
 14
0.2440047552698261
 24
-1.3664148668841356
 14
0.2000532480594724
 24
-1.3445996960656474
 14
0.1541751187100768
 24
-1.3271975723072762
 14
0.1068121986868102
 24
-1.3143760875737831
 14
0.058420618800702
 24
-1.3062587197720881
 14
0.0094664164195848
 24
-1.3029236435915266
 14
-0.0395789527265229
 24
-1.3044029776388553
 14
-0.0882431549218176
 24
-1.310682475118512
 14
-0.1360575272966
 24
-1.3217016610370453
 14
-0.1825615913069062
 24
-1.3373544146103598
 14
-0.2273074873946094
 24
-1.3574899912648792
 14
-0.2698642881197904
 24
-1.3819144743901943
 14
-0.3098221482275517
 24
-1.4103926428620279
 14
-0.3467962516818669
 24
-1.442650236350246
 14
-0.3804305176543712
 24
-1.4783765965957625
 14
-0.4104010297773887
 24
-1.5172276592193978
 14
-0.4364191556356261
 24
-1.5588292672499353
 14
-0.4582343264541135
 24
-1.6027807744602889
 14
-0.4756364502124847
 24
-1.6486589038096846
 14
-0.4884579349459781
 24
-1.6960218238329512
 14
-0.4965753027476729
 24
-1.7444134037190593
 14
-0.4999103789282343
 24
-1.7933676061001766
 14
-0.498431044880906
 24
-1.8424129752462841
 14
-0.4921515474012489
 24
-1.8910771774415793
 14
-0.4811323614827162
 24
-1.9388915498163617
 14
-0.4654796079094007
 24
-1.9853956138266677
 14
-0.4453440312548816
 24
-2.0301415099143711
 14
-0.4209195481295669
 24
-2.0726983106395518
 14
-0.3924413796577332
 24
-2.112656170747313
  0
CIRCLE
  5
196
100
AcDbEntity
  8
None
370
               5
390
0
  6
Continuous
 62
               7
100
AcDbCircle
 10
-7.4529999999999994
 20
0.0
 30
0.0
 40
1.2349999901200528
  0
WIPEOUT
  5
197
100
AcDbEntity
  8
None
370
               5
390
0
  6
Continuous
 62
               7
 92
        0
100
AcDbWipeout
 90
        0
 10
-8.0459999699569806
 20
-5.0459999699569806
 30
0.0
 11
1.1859999399139616
 21
0.0
 31
0.0
 12
0.0
 22
1.1859999399139616
 32
0.0
 13
1.0
 23
1.0
340
0
 70
               7
280
               1
281
              50
282
              50
283
               0
360
0
 71
               2
 91
       65
 14
-0.353553390593274
 24
-4.1081910175758205
 14
-0.3171966420818227
 24
-4.1411428536639159
 14
-0.2777851165098011
 24
-4.170372433133819
 14
-0.2356983684129985
 24
-4.1955982591567249
 14
-0.1913417161825453
 24
-4.2165773932381905
 14
-0.1451423386272316
 24
-4.2331077948486513
 14
-0.0975451610080635
 24
-4.2450302671841627
 14
-0.0490085701647805
 24
-4.2522299903186447
 14
0.0000000000000003
 24
-4.2546376269825474
 14
0.0490085701647806
 24
-4.2522299903186447
 14
0.0975451610080643
 24
-4.2450302671841627
 14
0.1451423386272308
 24
-4.2331077948486513
 14
0.1913417161825445
 24
-4.2165773932381905
 14
0.2356983684129985
 24
-4.1955982591567249
 14
0.2777851165098011
 24
-4.170372433133819
 14
0.3171966420818226
 24
-4.1411428536639159
 14
0.353553390593274
 24
-4.1081910175758205
 14
0.3865052266813683
 24
-4.0718342690643698
 14
0.4157348061512727
 24
-4.0324227434923472
 14
0.4409606321741774
 24
-3.9903359953955455
 14
0.4619397662556436
 24
-3.9459793431650914
 14
0.4784701678661039
 24
-3.8997799656097785
 14
0.490392640201615
 24
-3.8521827879906105
 14
0.4975923633360978
 24
-3.8036461971473274
 14
0.5
 24
-3.7546376269825465
 14
0.4975923633360978
 24
-3.7056290568177666
 14
0.490392640201615
 24
-3.6570924659744826
 14
0.4784701678661039
 24
-3.6094952883553155
 14
0.4619397662556436
 24
-3.5632959108000017
 14
0.4409606321741774
 24
-3.5189392585695476
 14
0.4157348061512727
 24
-3.4768525104727459
 14
0.3865052266813683
 24
-3.4374409849007237
 14
0.353553390593274
 24
-3.401084236389273
 14
0.3171966420818226
 24
-3.3681324003011781
 14
0.2777851165098011
 24
-3.3389028208312745
 14
0.2356983684129985
 24
-3.3136769948083691
 14
0.1913417161825445
 24
-3.2926978607269035
 14
0.1451423386272308
 24
-3.2761674591164427
 14
0.0975451610080643
 24
-3.2642449867809313
 14
0.0490085701647806
 24
-3.2570452636464489
 14
0.0000000000000003
 24
-3.2546376269825465
 14
-0.0490085701647805
 24
-3.2570452636464489
 14
-0.0975451610080635
 24
-3.2642449867809313
 14
-0.1451423386272316
 24
-3.2761674591164427
 14
-0.1913417161825453
 24
-3.2926978607269035
 14
-0.2356983684129985
 24
-3.3136769948083691
 14
-0.2777851165098011
 24
-3.3389028208312745
 14
-0.3171966420818227
 24
-3.3681324003011781
 14
-0.353553390593274
 24
-3.401084236389273
 14
-0.3865052266813683
 24
-3.4374409849007237
 14
-0.4157348061512727
 24
-3.4768525104727459
 14
-0.4409606321741781
 24
-3.5189392585695476
 14
-0.4619397662556428
 24
-3.5632959108000017
 14
-0.4784701678661046
 24
-3.6094952883553155
 14
-0.490392640201615
 24
-3.6570924659744826
 14
-0.4975923633360985
 24
-3.7056290568177666
 14
-0.5
 24
-3.7546376269825465
 14
-0.4975923633360985
 24
-3.8036461971473274
 14
-0.490392640201615
 24
-3.8521827879906105
 14
-0.4784701678661046
 24
-3.8997799656097785
 14
-0.4619397662556428
 24
-3.9459793431650914
 14
-0.4409606321741781
 24
-3.9903359953955455
 14
-0.4157348061512727
 24
-4.0324227434923472
 14
-0.3865052266813683
 24
-4.0718342690643698
 14
-0.353553390593274
 24
-4.1081910175758205
  0
CIRCLE
  5
198
100
AcDbEntity
  8
None
370
               5
390
0
  6
Continuous
 62
               7
100
AcDbCircle
 10
-7.4529999999999994
 20
0.0
 30
0.0
 40
0.5929999699569808
  0
WIPEOUT
  5
199
100
AcDbEntity
  8
None
370
               5
390
0
  6
Continuous
 62
               7
 92
        0
100
AcDbWipeout
 90
        0
 10
-7.6402500007590115
 20
-4.6402500007590124
 30
0.0
 11
0.3745000015180234
 21
0.0
 31
0.0
 12
0.0
 22
0.3745000015180234
 32
0.0
 13
1.0
 23
1.0
340
0
 70
               7
280
               1
281
              50
282
              50
283
               0
360
0
 71
               2
 91
       65
 14
0.4330125483115503
 24
-12.1405209120705084
 14
0.455431785692928
 24
-12.0968744407453368
 14
0.4734649660137398
 24
-12.0512406695728984
 14
0.4869384198895621
 24
-12.0040590767155386
 14
0.4957223905942318
 24
-11.9557840467045562
 14
0.4997322836880569
 24
-11.9068804944687781
 14
0.4989294817085087
 24
-11.857819387949629
 14
0.4933217160775099
 24
-11.8090732124224189
 14
0.4829629926436042
 24
-11.7611114202048501
 14
0.467953071576112
 24
-11.7143959095745558
 14
0.4484365066201709
 24
-11.6693765764361999
 14
0.4246012529651461
 24
-11.6264869815779814
 14
0.3966768571334137
 24
-11.5861401752442177
 14
0.3649322463218616
 24
-11.548724719235711
 14
0.3296731384859655
 24
-11.514600944847194
 14
0.2912390981087851
 24
-11.4840974826799798
 14
0.2500002660093292
 24
-11.4575080977496278
 14
0.2063537946841577
 24
-11.4350888603682534
 14
0.1607200235117167
 24
-11.4170556800474383
 14
0.1135384306543573
 24
-11.4035822261716167
 14
0.065263400643375
 24
-11.3947982554669469
 14
0.0163598484075965
 24
-11.3907883623731241
 14
-0.0327012581115515
 24
-11.3915911643526702
 14
-0.0814474336387588
 24
-11.3971989299836682
 14
-0.1294092258563302
 24
-11.4075576534175767
 14
-0.176124736486625
 24
-11.4225675744850683
 14
-0.2211440696249782
 24
-11.4420841394410093
 14
-0.2640336644832002
 24
-11.4659193930960317
 14
-0.304380470816963
 24
-11.493843788927764
 14
-0.3417959268254682
 24
-11.5255883997393198
 14
-0.3759197012139874
 24
-11.5608475075752128
 14
-0.4064231633812015
 24
-11.5992815479523959
 14
-0.433012548311553
 24
-11.6405203800518517
 14
-0.4554317856929282
 24
-11.6841668513770234
 14
-0.4734649660137425
 24
-11.7298006225494618
 14
-0.4869384198895648
 24
-11.7769822154068216
 14
-0.4957223905942345
 24
-11.825257245417804
 14
-0.4997322836880571
 24
-11.8741607976535821
 14
-0.4989294817085113
 24
-11.9232219041727294
 14
-0.4933217160775125
 24
-11.9719680796999395
 14
-0.4829629926436045
 24
-12.0199298719175083
 14
-0.4679530715761123
 24
-12.0666453825478026
 14
-0.4484365066201736
 24
-12.1116647156861585
 14
-0.4246012529651487
 24
-12.1545543105443787
 14
-0.3966768571334164
 24
-12.1949011168781407
 14
-0.3649322463218619
 24
-12.2323165728866492
 14
-0.3296731384859682
 24
-12.2664403472751662
 14
-0.2912390981087855
 24
-12.2969438094423804
 14
-0.2500002660093296
 24
-12.3235331943727306
 14
-0.206353794684158
 24
-12.3459524317541067
 14
-0.1607200235117194
 24
-12.3639856120749201
 14
-0.11353843065436
 24
-12.3774590659507435
 14
-0.0652634006433777
 24
-12.3862430366554133
 14
-0.0163598484075969
 24
-12.3902529297492361
 14
0.0327012581115489
 24
-12.38945012776969
 14
0.0814474336387585
 24
-12.3838423621386902
 14
0.12940922585633
 24
-12.3734836387047835
 14
0.1761247364866223
 24
-12.3584737176372901
 14
0.2211440696249779
 24
-12.3389571526813491
 14
0.2640336644831975
 24
-12.3151218990263267
 14
0.3043804708169603
 24
-12.2871975031945944
 14
0.3417959268254679
 24
-12.2554528923830404
 14
0.3759197012139848
 24
-12.2201937845471456
 14
0.4064231633812013
 24
-12.1817597441699643
 14
0.4330125483115503
 24
-12.1405209120705084
  0
CIRCLE
  5
19A
100
AcDbEntity
  8
None
370
               5
390
0
  6
Continuous
 62
               7
100
AcDbCircle
 10
-7.4529999999999994
 20
0.0
 30
0.0
 40
0.1872500007590117
  0
LINE
  5
19B
100
AcDbEntity
  8
None
370
               5
390
0
  6
Continuous
 62
               7
100
AcDbLine
 10
-7.5367037000000003
 20
0.1675
 30
0.0
 11
-7.3692963000000002
 21
0.1675
 31
0.0
  0
MTEXT
  5
19C
100
AcDbEntity
  8
None
390
0
 62
               7
100
AcDbMText
 10
-8.2729999999999997
 20
0.6211103879999389
 30
0.0
 40
0.119554846999939
 41
0.0
 71
               1
 72
               1
  1
B6
  7
Helvetica
 73
               1
 44
0.8397955333929318
  0
WIPEOUT
  5
19D
100
AcDbEntity
  8
None
370
               5
390
0
  6
Continuous
 62
               7
 92
        0
100
AcDbWipeout
 90
        0
 10
-2.4530000000000003
 20
-5.6880000000000006
 30
0.0
 11
2.4699999999999998
 21
0.0
 31
0.0
 12
0.0
 22
2.4699999999999998
 32
0.0
 13
1.0
 23
1.0
340
0
 70
               7
280
               1
281
              50
282
              50
283
               0
360
0
 71
               2
 91
        5
 14
-0.5
 24
-2.3028340080971663
 14
0.0546558704453443
 24
-2.3028340080971663
 14
0.0546558704453443
 24
-1.3028340080971665
 14
-0.5
 24
-1.3028340080971665
 14
-0.5
 24
-2.3028340080971663
  0
POLYLINE
  5
19E
100
AcDbEntity
  8
None
370
               5
390
0
  6
Continuous
 62
               7
100
AcDb2dPolyline
 66
               1
 10
0.0
 20
0.0
 30
0.0
 70
               1
 75
               5
  0
VERTEX
  5
19F
100
AcDbEntity
  8
None
370
               5
390
0
  6
Continuous
 62
               7
100
AcDbVertex
100
AcDb2dVertex
 10
-2.4530000000000003
 20
1.2349999999999999
 30
0.0
  0
VERTEX
  5
1A0
100
AcDbEntity
  8
None
370
               5
390
0
  6
Continuous
 62
               7
100
AcDbVertex
100
AcDb2dVertex
 10
-1.0830000000000002
 20
1.2349999999999999
 30
0.0
  0
VERTEX
  5
1A1
100
AcDbEntity
  8
None
370
               5
390
0
  6
Continuous
 62
               7
100
AcDbVertex
100
AcDb2dVertex
 10
-1.0830000000000002
 20
-1.2349999999999999
 30
0.0
  0
VERTEX
  5
1A2
100
AcDbEntity
  8
None
370
               5
390
0
  6
Continuous
 62
               7
100
AcDbVertex
100
AcDb2dVertex
 10
-2.4530000000000003
 20
-1.2349999999999999
 30
0.0
  0
SEQEND
  5
1A3
100
AcDbEntity
  8
None
370
               5
390
0
  6
Continuous
 62
               7
  0
WIPEOUT
  5
1A5
100
AcDbEntity
  8
None
370
               5
390
0
  6
Continuous
 62
               7
 92
        0
100
AcDbWipeout
 90
        0
 10
-2.5280000000000005
 20
-5.0155000000000003
 30
0.0
 11
1.125
 21
0.0
 31
0.0
 12
0.0
 22
1.125
 32
0.0
 13
1.0
 23
1.0
340
0
 70
               7
280
               1
281
              50
282
              50
283
               0
360
0
 71
               2
 91
        5
 14
-0.5
 24
-4.4582222222222221
 14
-0.4333333333333332
 24
-4.4582222222222221
 14
-0.4333333333333332
 24
-3.4582222222222225
 14
-0.5
 24
-3.4582222222222225
 14
-0.5
 24
-4.4582222222222221
  0
POLYLINE
  5
1A6
100
AcDbEntity
  8
None
370
               5
390
0
  6
Continuous
 62
               7
100
AcDb2dPolyline
 66
               1
 10
0.0
 20
0.0
 30
0.0
 70
               1
 75
               5
  0
VERTEX
  5
1A7
100
AcDbEntity
  8
None
370
               5
390
0
  6
Continuous
 62
               7
100
AcDbVertex
100
AcDb2dVertex
 10
-2.5280000000000005
 20
0.5625
 30
0.0
  0
VERTEX
  5
1A8
100
AcDbEntity
  8
None
370
               5
390
0
  6
Continuous
 62
               7
100
AcDbVertex
100
AcDb2dVertex
 10
-2.4530000000000003
 20
0.5625
 30
0.0
  0
VERTEX
  5
1A9
100
AcDbEntity
  8
None
370
               5
390
0
  6
Continuous
 62
               7
100
AcDbVertex
100
AcDb2dVertex
 10
-2.4530000000000003
 20
-0.5625
 30
0.0
  0
VERTEX
  5
1AA
100
AcDbEntity
  8
None
370
               5
390
0
  6
Continuous
 62
               7
100
AcDbVertex
100
AcDb2dVertex
 10
-2.5280000000000005
 20
-0.5625
 30
0.0
  0
SEQEND
  5
1AB
100
AcDbEntity
  8
None
370
               5
390
0
  6
Continuous
 62
               7
  0
WIPEOUT
  5
1AD
100
AcDbEntity
  8
None
370
               5
390
0
  6
Continuous
 62
               7
 92
        0
100
AcDbWipeout
 90
        0
 10
-1.0830000000000002
 20
-5.0155000000000003
 30
0.0
 11
1.125
 21
0.0
 31
0.0
 12
0.0
 22
1.125
 32
0.0
 13
1.0
 23
1.0
340
0
 70
               7
280
               1
281
              50
282
              50
283
               0
360
0
 71
               2
 91
        5
 14
-0.5
 24
-4.4582222222222221
 14
-0.4333333333333332
 24
-4.4582222222222221
 14
-0.4333333333333332
 24
-3.4582222222222225
 14
-0.5
 24
-3.4582222222222225
 14
-0.5
 24
-4.4582222222222221
  0
POLYLINE
  5
1AE
100
AcDbEntity
  8
None
370
               5
390
0
  6
Continuous
 62
               7
100
AcDb2dPolyline
 66
               1
 10
0.0
 20
0.0
 30
0.0
 70
               1
 75
               5
  0
VERTEX
  5
1AF
100
AcDbEntity
  8
None
370
               5
390
0
  6
Continuous
 62
               7
100
AcDbVertex
100
AcDb2dVertex
 10
-1.0830000000000002
 20
0.5625
 30
0.0
  0
VERTEX
  5
1B0
100
AcDbEntity
  8
None
370
               5
390
0
  6
Continuous
 62
               7
100
AcDbVertex
100
AcDb2dVertex
 10
-1.008
 20
0.5625
 30
0.0
  0
VERTEX
  5
1B1
100
AcDbEntity
  8
None
370
               5
390
0
  6
Continuous
 62
               7
100
AcDbVertex
100
AcDb2dVertex
 10
-1.008
 20
-0.5625
 30
0.0
  0
VERTEX
  5
1B2
100
AcDbEntity
  8
None
370
               5
390
0
  6
Continuous
 62
               7
100
AcDbVertex
100
AcDb2dVertex
 10
-1.0830000000000002
 20
-0.5625
 30
0.0
  0
SEQEND
  5
1B3
100
AcDbEntity
  8
None
370
               5
390
0
  6
Continuous
 62
               7
  0
MTEXT
  5
1B5
100
AcDbEntity
  8
None
390
0
 62
               7
100
AcDbMText
 10
-1.8913332000000005
 20
0.534554887999939
 30
0.0
 40
0.119554846999939
 41
0.0
 71
               1
 72
               1
  1
B6
  7
Helvetica
 73
               1
 44
0.8397955333929318
  0
WIPEOUT
  5
1B6
100
AcDbEntity
  8
None
370
               5
390
0
  6
Continuous
 62
               7
 92
        0
100
AcDbWipeout
 90
        0
 10
-2.5360000000000005
 20
-4.7480000000000002
 30
0.0
 11
0.59
 21
0.0
 31
0.0
 12
0.0
 22
0.59
 32
0.0
 13
1.0
 23
1.0
340
0
 70
               7
280
               1
281
              50
282
              50
283
               0
360
0
 71
               2
 91
        5
 14
-0.5
 24
-8.0474576271186447
 14
-0.4864406779661017
 24
-8.0474576271186447
 14
-0.4864406779661017
 24
-7.0474576271186447
 14
-0.5
 24
-7.0474576271186447
 14
-0.5
 24
-8.0474576271186447
  0
POLYLINE
  5
1B7
100
AcDbEntity
  8
None
370
               5
390
0
  6
Continuous
 62
               7
100
AcDb2dPolyline
 66
               1
 10
0.0
 20
0.0
 30
0.0
 70
               1
 75
               5
  0
VERTEX
  5
1B8
100
AcDbEntity
  8
None
370
               5
390
0
  6
Continuous
 62
               7
100
AcDbVertex
100
AcDb2dVertex
 10
-2.5360000000000005
 20
0.295
 30
0.0
  0
VERTEX
  5
1B9
100
AcDbEntity
  8
None
370
               5
390
0
  6
Continuous
 62
               7
100
AcDbVertex
100
AcDb2dVertex
 10
-2.5280000000000005
 20
0.295
 30
0.0
  0
VERTEX
  5
1BA
100
AcDbEntity
  8
None
370
               5
390
0
  6
Continuous
 62
               7
100
AcDbVertex
100
AcDb2dVertex
 10
-2.5280000000000005
 20
-0.295
 30
0.0
  0
VERTEX
  5
1BB
100
AcDbEntity
  8
None
370
               5
390
0
  6
Continuous
 62
               7
100
AcDbVertex
100
AcDb2dVertex
 10
-2.5360000000000005
 20
-0.295
 30
0.0
  0
SEQEND
  5
1BC
100
AcDbEntity
  8
None
370
               5
390
0
  6
Continuous
 62
               7
  0
INSERT
  5
1BE
100
AcDbEntity
  8
None
390
0
 62
               7
100
AcDbBlockReference
  2
Group-2
 10
-4.4530000000000003
 20
0.0
 30
0.0
  0
MTEXT
  5
1BF
100
AcDbEntity
  8
None
390
0
 62
               7
100
AcDbMText
 10
-3.0179999999999998
 20
1.4126845742111334
 30
0.0
 40
0.0996290272111335
 41
0.0
 71
               1
 72
               1
  1
TYP
  7
Helvetica
 73
               1
 44
0.8397955333929318
  0
MTEXT
  5
1C0
100
AcDbEntity
  8
None
390
0
 62
               7
100
AcDbMText
 10
-5.9767800000000006
 20
0.6526845742111336
 30
0.0
 40
0.0996290272111335
 41
0.0
 71
               1
 72
               1
  1
TYP
  7
Helvetica
 73
               1
 44
0.8397955333929318
  0
LINE
  5
1C1
100
AcDbEntity
  8
None
370
               5
390
0
  6
Continuous
 62
               7
100
AcDbLine
 10
-7.3407999999999998
 20
1.24
 30
0.0
 11
-6.9392965000000002
 21
1.8134063999999999
 31
0.0
  0
POLYLINE
  5
1C2
102
{ACAD_REACTORS
330
1C7
102
}
100
AcDbEntity
  8
None
370
               5
390
0
  6
Continuous
 62
               7
100
AcDb2dPolyline
 66
               1
 10
0.0
 20
0.0
 30
0.0
 70
               1
 75
               5
  0
VERTEX
  5
1C3
100
AcDbEntity
  8
None
370
               5
390
0
  6
Continuous
 62
               7
100
AcDbVertex
100
AcDb2dVertex
 10
-7.2402299121752129
 20
1.321440051337532
 30
0.0
  0
VERTEX
  5
1C4
100
AcDbEntity
  8
None
370
               5
390
0
  6
Continuous
 62
               7
100
AcDbVertex
100
AcDb2dVertex
 10
-7.3407999999999998
 20
1.24
 30
0.0
  0
VERTEX
  5
1C5
100
AcDbEntity
  8
None
370
               5
390
0
  6
Continuous
 62
               7
100
AcDbVertex
100
AcDb2dVertex
 10
-7.2944237747516691
 20
1.3608141972562049
 30
0.0
  0
SEQEND
  5
1C6
100
AcDbEntity
  8
None
370
               5
390
0
  6
Continuous
 62
               7
  0
HATCH
  5
1C7
100
AcDbEntity
  8
None
370
               0
390
0
  6
Continuous
 62
               7
100
AcDbHatch
 10
0.0
 20
0.0
 30
0.0
210
0.0
220
0.0
230
1.0
  2
SOLID
 70
               1
 71
               1
 91
        1
 92
        1
 93
        3
 72
               1
 10
-7.2402299121752129
 20
1.321440051337532
 11
-7.3407999999999998
 21
1.24
 72
               1
 10
-7.3407999999999998
 20
1.24
 11
-7.2944237747516691
 21
1.3608141972562049
 72
               1
 10
-7.2944237747516691
 20
1.3608141972562049
 11
-7.2402299121752129
 21
1.321440051337532
 97
        1
330
1C2
 75
               0
 76
               1
 98
        1
 10
0.0
 20
0.0
  0
DIMENSION
  5
1C8
100
AcDbEntity
  8
Dimension
370
               5
390
0
  6
Continuous
 62
               7
100
AcDbDimension
  2
*D4
 10
-7.5854057447771739
 20
0.132405744777174
 30
0.0
 11
-5.9767795022095624
 21
-1.2400000253495373
 31
0.0
 70
               3
 71
               5
 72
               1
 41
1.0
 42
0.0
  3
ISO
100
AcDbDiametricDimension
 15
-7.3205942552228258
 25
-0.132405744777174
 35
0.0
 40
1.5663748531923074
1001
ACAD
1000
DSTYLE
1002
{
1070
             172
1070
               0
1070
             289
1070
               0
1070
             342
1005
4E
1070
             340
1005
3D
1070
              77
1070
               0
1070
              73
1070
               1
1070
              74
1070
               1
1070
              75
1070
               1
1070
              76
1070
               1
1070
              72
1070
               1
1070
              47
1040
0.0002
1070
              48
1040
0.0002
1070
               3
1000
 
1070
             174
1070
               0
1070
             147
1040
0.015625
1002
}
  0
LINE
  5
1C9
100
AcDbEntity
  8
None
370
               5
390
0
  6
Continuous
 62
               7
100
AcDbLine
 10
-7.2855000000000008
 20
0.0837037
 30
0.0
 11
-7.2855000000000008
 21
-0.0837037
 31
0.0
  0
WIPEOUT
  5
1CA
100
AcDbEntity
  8
None
370
               5
390
0
  6
Continuous
 62
               7
 92
        0
100
AcDbWipeout
 90
        0
 10
-1.008
 20
-4.7480000000000002
 30
0.0
 11
0.59
 21
0.0
 31
0.0
 12
0.0
 22
0.59
 32
0.0
 13
1.0
 23
1.0
340
0
 70
               7
280
               1
281
              50
282
              50
283
               0
360
0
 71
               2
 91
        5
 14
-0.5
 24
-8.0474576271186447
 14
-0.4593220338983051
 24
-8.0474576271186447
 14
-0.4593220338983051
 24
-7.0474576271186447
 14
-0.5
 24
-7.0474576271186447
 14
-0.5
 24
-8.0474576271186447
  0
POLYLINE
  5
1CB
100
AcDbEntity
  8
None
370
               5
390
0
  6
Continuous
 62
               7
100
AcDb2dPolyline
 66
               1
 10
0.0
 20
0.0
 30
0.0
 70
               1
 75
               5
  0
VERTEX
  5
1CC
100
AcDbEntity
  8
None
370
               5
390
0
  6
Continuous
 62
               7
100
AcDbVertex
100
AcDb2dVertex
 10
-1.008
 20
0.295
 30
0.0
  0
VERTEX
  5
1CD
100
AcDbEntity
  8
None
370
               5
390
0
  6
Continuous
 62
               7
100
AcDbVertex
100
AcDb2dVertex
 10
-0.984
 20
0.295
 30
0.0
  0
VERTEX
  5
1CE
100
AcDbEntity
  8
None
370
               5
390
0
  6
Continuous
 62
               7
100
AcDbVertex
100
AcDb2dVertex
 10
-0.984
 20
-0.295
 30
0.0
  0
VERTEX
  5
1CF
100
AcDbEntity
  8
None
370
               5
390
0
  6
Continuous
 62
               7
100
AcDbVertex
100
AcDb2dVertex
 10
-1.008
 20
-0.295
 30
0.0
  0
SEQEND
  5
1D0
100
AcDbEntity
  8
None
370
               5
390
0
  6
Continuous
 62
               7
  0
DIMENSION
  5
1D2
100
AcDbEntity
  8
Dimension
370
               5
390
0
  6
Continuous
 62
               7
100
AcDbDimension
  2
*D5
 10
-2.4530000000000003
 20
-1.5800000000000001
 30
0.0
 11
-1.7680000000000002
 21
-1.5800000000000001
 31
0.0
 71
               5
 72
               1
 41
1.0
 42
0.0
  3
ISO
100
AcDbAlignedDimension
 13
-1.0830000000000002
 23
-1.3175000000000001
 33
0.0
 14
-2.4530000000000003
 24
-1.3175000000000001
 34
0.0
100
AcDbRotatedDimension
1001
ACAD
1000
DSTYLE
1002
{
1070
             271
1070
               2
1070
             279
1070
               2
1070
             340
1005
3D
1070
             147
1040
0.03937
1002
}
  0
DIMENSION
  5
1D3
100
AcDbEntity
  8
Dimension
370
               5
390
0
  6
Continuous
 62
               7
100
AcDbDimension
  2
*D6
 10
-8.0345870996387738
 20
-1.089486780798083
 30
0.0
 11
-6.5228167980359473
 21
1.2999999839260952
 31
0.0
 70
               3
 71
               5
 72
               1
 41
1.0
 42
0.0
  3
ISO
100
AcDbDiametricDimension
 15
-6.8714129003612268
 25
1.0894867807980815
 35
0.0
 40
0.2386296102396503
1001
ACAD
1000
DSTYLE
1002
{
1070
             271
1070
               2
1070
             172
1070
               0
1070
             289
1070
               0
1070
             342
1005
4E
1070
             340
1005
3D
1070
              77
1070
               0
1070
              73
1070
               1
1070
              74
1070
               1
1070
              75
1070
               1
1070
              76
1070
               1
1070
               3
1000

1070
             174
1070
               0
1070
             147
1040
0.015625
1002
}
  0
DIMENSION
  5
1D4
100
AcDbEntity
  8
Dimension
370
               5
390
0
  6
Continuous
 62
               7
100
AcDbDimension
  2
*D7
 10
-7.907252887676119
 20
-0.3811867180764642
 30
0.0
 11
-6.1567795011840802
 21
0.8894999727617616
 31
0.0
 70
               3
 71
               5
 72
               1
 41
1.0
 42
0.0
  3
ISO
100
AcDbDiametricDimension
 15
-6.9987471123238816
 25
0.3811867180764642
 35
0.0
 40
0.7907666918444817
1001
ACAD
1000
DSTYLE
1002
{
1070
             271
1070
               3
1070
             172
1070
               0
1070
             289
1070
               0
1070
             342
1005
4E
1070
             340
1005
3D
1070
              77
1070
               0
1070
              73
1070
               1
1070
              74
1070
               1
1070
              75
1070
               1
1070
              76
1070
               1
1070
              72
1070
               1
1070
              48
1040
0.002
1070
               3
1000

1070
             174
1070
               0
1070
             147
1040
0.015625
1002
}
  0
DIMENSION
  5
1D5
100
AcDbEntity
  8
Dimension
370
               5
390
0
  6
Continuous
 62
               7
100
AcDbDimension
  2
*D8
 10
-2.5280000000000005
 20
1.4699999999999998
 30
0.0
 11
-2.7630000000000003
 21
1.5093699999999997
 31
0.0
 70
             128
 71
               5
 72
               1
 41
1.0
 42
0.0
  3
ISO
100
AcDbAlignedDimension
 13
-2.4530000000000003
 23
1.3049999999999999
 33
0.0
 14
-2.5280000000000005
 24
0.6325000000000001
 34
0.0
100
AcDbRotatedDimension
1001
ACAD
1000
DSTYLE
1002
{
1070
             271
1070
               3
1070
             279
1070
               2
1070
             340
1005
3D
1070
             174
1070
               0
1070
             147
1040
0.03937
1002
}
  0
INSERT
  5
1D6
100
AcDbEntity
  8
None
390
0
 62
               7
100
AcDbBlockReference
  2
Group-4
 10
-4.4530000000000003
 20
0.0
 30
0.0
  0
INSERT
  5
1D7
100
AcDbEntity
  8
None
390
0
 62
               7
100
AcDbBlockReference
  2
Group-6
 10
-4.4530000000000003
 20
0.0
 30
0.0
  0
INSERT
  5
1D8
100
AcDbEntity
  8
None
390
0
 62
               7
100
AcDbBlockReference
  2
Group-8
 10
-4.4530000000000003
 20
0.0
 30
0.0
  0
INSERT
  5
1D9
100
AcDbEntity
  8
None
390
0
 62
               7
100
AcDbBlockReference
  2
Group-10
 10
-4.4530000000000003
 20
0.0
 30
0.0
  0
INSERT
  5
1DA
100
AcDbEntity
  8
None
390
0
 62
               7
100
AcDbBlockReference
  2
Group-12
 10
-4.4530000000000003
 20
0.0
 30
0.0
  0
INSERT
  5
1DB
100
AcDbEntity
  8
None
390
0
 62
               7
100
AcDbBlockReference
  2
Group-13
 10
-4.4530000000000003
 20
0.0
 30
0.0
  0
LINE
  5
1DC
100
AcDbEntity
  8
None
370
               5
390
0
  6
Continuous
 62
               7
100
AcDbLine
 10
-3.5360000000000005
 20
0.167
 30
0.0
 11
-3.5360000000000005
 21
-0.18725
 31
0.0
  0
WIPEOUT
  5
1DD
100
AcDbEntity
  8
None
370
               5
390
0
  6
Continuous
 62
               7
 92
        0
100
AcDbWipeout
 90
        0
 10
-3.5360000000000005
 20
-4.5365000000000002
 30
0.0
 11
0.875
 21
0.0
 31
0.0
 12
0.0
 22
0.875
 32
0.0
 13
1.0
 23
1.0
340
0
 70
               7
280
               1
281
              50
282
              50
283
               0
360
0
 71
               2
 91
        5
 14
-0.5
 24
-4.7800000000000002
 14
0.5
 24
-4.7800000000000002
 14
0.5
 24
-4.5891428571428579
 14
-0.5
 24
-4.5891428571428579
 14
-0.5
 24
-4.7800000000000002
  0
POLYLINE
  5
1DE
100
AcDbEntity
  8
None
370
               5
390
0
  6
Continuous
 62
               7
100
AcDb2dPolyline
 66
               1
 10
0.0
 20
0.0
 30
0.0
 70
               1
 75
               5
  0
VERTEX
  5
1DF
100
AcDbEntity
  8
None
370
               5
390
0
  6
Continuous
 62
               7
100
AcDbVertex
100
AcDb2dVertex
 10
-3.5360000000000005
 20
0.0835
 30
0.0
  0
VERTEX
  5
1E0
100
AcDbEntity
  8
None
370
               5
390
0
  6
Continuous
 62
               7
100
AcDbVertex
100
AcDb2dVertex
 10
-2.6610000000000005
 20
0.0835
 30
0.0
  0
VERTEX
  5
1E1
100
AcDbEntity
  8
None
370
               5
390
0
  6
Continuous
 62
               7
100
AcDbVertex
100
AcDb2dVertex
 10
-2.6610000000000005
 20
-0.0835
 30
0.0
  0
VERTEX
  5
1E2
100
AcDbEntity
  8
None
370
               5
390
0
  6
Continuous
 62
               7
100
AcDbVertex
100
AcDb2dVertex
 10
-3.5360000000000005
 20
-0.0835
 30
0.0
  0
SEQEND
  5
1E3
100
AcDbEntity
  8
None
370
               5
390
0
  6
Continuous
 62
               7
  0
LINE
  5
1E5
100
AcDbEntity
  8
None
370
               5
390
0
  6
Continuous
 62
               7
100
AcDbLine
 10
-2.6610000000000005
 20
0.18725
 30
0.0
 11
-2.5360000000000005
 21
0.18725
 31
0.0
  0
LINE
  5
1E6
100
AcDbEntity
  8
None
370
               5
390
0
  6
Continuous
 62
               7
100
AcDbLine
 10
-3.5360000000000005
 20
-0.18725
 30
0.0
 11
-2.5360000000000005
 21
-0.18725
 31
0.0
  0
LINE
  5
1E7
100
AcDbEntity
  8
None
370
               5
390
0
  6
Continuous
 62
               7
100
AcDbLine
 10
-3.5360000000000005
 20
0.167
 30
0.0
 11
-2.6812500000000004
 21
0.167
 31
0.0
  0
LINE
  5
1E8
100
AcDbEntity
  8
None
370
               5
390
0
  6
Continuous
 62
               7
100
AcDbLine
 10
-2.6610000000000005
 20
0.18725
 30
0.0
 11
-2.6812500000000004
 21
0.167
 31
0.0
  0
LINE
  5
1E9
100
AcDbEntity
  8
None
370
               5
390
0
  6
Continuous
 62
               7
100
AcDbLine
 10
0.0
 20
0.167
 30
0.0
 11
0.0
 21
-0.18725
 31
0.0
  0
WIPEOUT
  5
1EA
100
AcDbEntity
  8
None
370
               5
390
0
  6
Continuous
 62
               7
 92
        0
100
AcDbWipeout
 90
        0
 10
-0.8750000000000004
 20
-4.5365000000000002
 30
0.0
 11
0.8750000000000003
 21
0.0
 31
0.0
 12
0.0
 22
0.8750000000000003
 32
0.0
 13
1.0
 23
1.0
340
0
 70
               7
280
               1
281
              50
282
              50
283
               0
360
0
 71
               2
 91
        5
 14
-0.5
 24
-4.7799999999999985
 14
0.5000000000000002
 24
-4.7799999999999985
 14
0.5000000000000002
 24
-4.5891428571428552
 14
-0.5
 24
-4.5891428571428552
 14
-0.5
 24
-4.7799999999999985
  0
POLYLINE
  5
1EB
100
AcDbEntity
  8
None
370
               5
390
0
  6
Continuous
 62
               7
100
AcDb2dPolyline
 66
               1
 10
0.0
 20
0.0
 30
0.0
 70
               1
 75
               5
  0
VERTEX
  5
1EC
100
AcDbEntity
  8
None
370
               5
390
0
  6
Continuous
 62
               7
100
AcDbVertex
100
AcDb2dVertex
 10
-0.8750000000000004
 20
0.0835
 30
0.0
  0
VERTEX
  5
1ED
100
AcDbEntity
  8
None
370
               5
390
0
  6
Continuous
 62
               7
100
AcDbVertex
100
AcDb2dVertex
 10
0.0
 20
0.0835
 30
0.0
  0
VERTEX
  5
1EE
100
AcDbEntity
  8
None
370
               5
390
0
  6
Continuous
 62
               7
100
AcDbVertex
100
AcDb2dVertex
 10
0.0
 20
-0.0835
 30
0.0
  0
VERTEX
  5
1EF
100
AcDbEntity
  8
None
370
               5
390
0
  6
Continuous
 62
               7
100
AcDbVertex
100
AcDb2dVertex
 10
-0.8750000000000004
 20
-0.0835
 30
0.0
  0
SEQEND
  5
1F0
100
AcDbEntity
  8
None
370
               5
390
0
  6
Continuous
 62
               7
  0
LINE
  5
1F2
100
AcDbEntity
  8
None
370
               5
390
0
  6
Continuous
 62
               7
100
AcDbLine
 10
-0.8750000000000004
 20
0.18725
 30
0.0
 11
-0.9820000000000002
 21
0.18725
 31
0.0
  0
LINE
  5
1F3
100
AcDbEntity
  8
None
370
               5
390
0
  6
Continuous
 62
               7
100
AcDbLine
 10
0.0
 20
-0.18725
 30
0.0
 11
-0.9820000000000002
 21
-0.18725
 31
0.0
  0
LINE
  5
1F4
100
AcDbEntity
  8
None
370
               5
390
0
  6
Continuous
 62
               7
100
AcDbLine
 10
0.0
 20
0.167
 30
0.0
 11
-0.8547500000000001
 21
0.167
 31
0.0
  0
LINE
  5
1F5
100
AcDbEntity
  8
None
370
               5
390
0
  6
Continuous
 62
               7
100
AcDbLine
 10
-0.8750000000000004
 20
0.18725
 30
0.0
 11
-0.8547500000000001
 21
0.167
 31
0.0
  0
LINE
  5
1F6
100
AcDbEntity
  8
None
370
               5
390
0
  6
STYLE_09
 62
               7
100
AcDbLine
 10
-3.8530000000000002
 20
0.0
 30
0.0
 11
0.2469999999999999
 21
0.0
 31
0.0
  0
MTEXT
  5
1F7
100
AcDbEntity
  8
None
390
0
 62
               7
100
AcDbMText
 10
-3.1130000000000004
 20
1.9260179242111335
 30
0.0
 40
0.0996290272111335
 41
0.0
 71
               1
 72
               1
  1
TYP
  7
Helvetica
 73
               1
 44
0.8397955333929318
  0
INSERT
  5
1F8
100
AcDbEntity
  8
Dimension
390
0
 62
               7
100
AcDbBlockReference
  2
Group-14
 10
-4.4530000000000003
 20
0.0
 30
0.0
  0
MTEXT
  5
1F9
100
AcDbEntity
  8
None
390
0
 62
               7
100
AcDbMText
 10
-5.8130000000000006
 20
-1.4884266257888665
 30
0.0
 40
0.0996290272111335
 41
0.0
 71
               1
 72
               1
  1
TYP
  7
Helvetica
 73
               1
 44
0.8397955333929318
  0
MTEXT
  5
1FA
100
AcDbEntity
  8
None
390
0
 62
               7
100
AcDbMText
 10
-8.5504999999999995
 20
-1.857870980759188
 30
0.0
 40
0.099629019240812
 41
0.0
 71
               1
 72
               1
  1
Units = inches
  7
Helvetica
 73
               1
 44
0.8397955333929318
  0
LINE
  5
1FB
100
AcDbEntity
  8
Dimension
370
               5
390
0
  6
Continuous
 62
               7
100
AcDbLine
 10
-3.5360000000000005
 20
0.237
 30
0.0
 11
-3.5360000000000005
 21
2.06874
 31
0.0
  0
LINE
  5
1FC
100
AcDbEntity
  8
Dimension
370
               5
390
0
  6
Continuous
 62
               7
100
AcDbLine
 10
-2.4530000000000003
 20
1.3049999999999999
 30
0.0
 11
-2.4530000000000003
 21
2.0687400000000005
 31
0.0
  0
LINE
  5
1FD
100
AcDbEntity
  8
Dimension
370
               5
390
0
  6
Continuous
 62
               7
100
AcDbLine
 10
-3.5360000000000005
 20
1.9900000000000004
 30
0.0
 11
-2.4530000000000003
 21
1.9900000000000004
 31
0.0
  0
POLYLINE
  5
1FE
102
{ACAD_REACTORS
330
203
102
}
100
AcDbEntity
  8
None
370
               5
390
0
  6
Continuous
 62
               7
100
AcDb2dPolyline
 66
               1
 10
0.0
 20
0.0
 30
0.0
 70
               1
 75
               5
  0
VERTEX
  5
1FF
100
AcDbEntity
  8
None
370
               5
390
0
  6
Continuous
 62
               7
100
AcDbVertex
100
AcDb2dVertex
 10
-3.4110000000000005
 20
1.95650635094611
 30
0.0
  0
VERTEX
  5
200
100
AcDbEntity
  8
None
370
               5
390
0
  6
Continuous
 62
               7
100
AcDbVertex
100
AcDb2dVertex
 10
-3.5360000000000005
 20
1.9900000000000004
 30
0.0
  0
VERTEX
  5
201
100
AcDbEntity
  8
None
370
               5
390
0
  6
Continuous
 62
               7
100
AcDbVertex
100
AcDb2dVertex
 10
-3.4110000000000005
 20
2.0234936490538908
 30
0.0
  0
SEQEND
  5
202
100
AcDbEntity
  8
None
370
               5
390
0
  6
Continuous
 62
               7
  0
HATCH
  5
203
100
AcDbEntity
  8
Dimension
370
               0
390
0
  6
Continuous
 62
               7
100
AcDbHatch
 10
0.0
 20
0.0
 30
0.0
210
0.0
220
0.0
230
1.0
  2
SOLID
 70
               1
 71
               1
 91
        1
 92
        1
 93
        3
 72
               1
 10
-3.4110000000000005
 20
1.95650635094611
 11
-3.5360000000000005
 21
1.9900000000000004
 72
               1
 10
-3.5360000000000005
 20
1.9900000000000004
 11
-3.4110000000000005
 21
2.0234936490538908
 72
               1
 10
-3.4110000000000005
 20
2.0234936490538908
 11
-3.4110000000000005
 21
1.95650635094611
 97
        1
330
1FE
 75
               0
 76
               1
 98
        1
 10
0.0
 20
0.0
  0
POLYLINE
  5
204
102
{ACAD_REACTORS
330
209
102
}
100
AcDbEntity
  8
None
370
               5
390
0
  6
Continuous
 62
               7
100
AcDb2dPolyline
 66
               1
 10
0.0
 20
0.0
 30
0.0
 70
               1
 75
               5
  0
VERTEX
  5
205
100
AcDbEntity
  8
None
370
               5
390
0
  6
Continuous
 62
               7
100
AcDbVertex
100
AcDb2dVertex
 10
-2.5780000000000003
 20
2.0234936490538908
 30
0.0
  0
VERTEX
  5
206
100
AcDbEntity
  8
None
370
               5
390
0
  6
Continuous
 62
               7
100
AcDbVertex
100
AcDb2dVertex
 10
-2.4530000000000003
 20
1.9900000000000004
 30
0.0
  0
VERTEX
  5
207
100
AcDbEntity
  8
None
370
               5
390
0
  6
Continuous
 62
               7
100
AcDbVertex
100
AcDb2dVertex
 10
-2.5780000000000003
 20
1.95650635094611
 30
0.0
  0
SEQEND
  5
208
100
AcDbEntity
  8
None
370
               5
390
0
  6
Continuous
 62
               7
  0
HATCH
  5
209
100
AcDbEntity
  8
Dimension
370
               0
390
0
  6
Continuous
 62
               7
100
AcDbHatch
 10
0.0
 20
0.0
 30
0.0
210
0.0
220
0.0
230
1.0
  2
SOLID
 70
               1
 71
               1
 91
        1
 92
        1
 93
        3
 72
               1
 10
-2.5780000000000003
 20
2.0234936490538908
 11
-2.4530000000000003
 21
1.9900000000000004
 72
               1
 10
-2.4530000000000003
 20
1.9900000000000004
 11
-2.5780000000000003
 21
1.95650635094611
 72
               1
 10
-2.5780000000000003
 20
1.95650635094611
 11
-2.5780000000000003
 21
2.0234936490538908
 97
        1
330
204
 75
               0
 76
               1
 98
        1
 10
0.0
 20
0.0
  0
WIPEOUT
  5
20A
100
AcDbEntity
  8
Dimension
370
               5
390
0
  6
Continuous
 62
               7
 92
        0
100
AcDbWipeout
 90
        0
 10
-3.1681111111111115
 20
-2.4236299999999997
 30
0.0
 11
0.3475613064236111
 21
0.0
 31
0.0
 12
0.0
 22
0.3475613064236111
 32
0.0
 13
1.0
 23
1.0
340
0
 70
               7
280
               1
281
              50
282
              50
283
               0
360
0
 71
               2
 91
        5
 14
-0.5
 24
-12.3121281560975628
 14
0.5000000000000002
 24
-12.3121281560975628
 14
0.5000000000000002
 24
-12.7117379121951224
 14
-0.5
 24
-12.7117379121951224
 14
-0.5
 24
-12.3121281560975628
  0
MTEXT
  5
20B
100
AcDbEntity
  8
Dimension
390
0
 62
               7
100
AcDbMText
 10
-3.1681111111111115
 20
2.1609434636852569
 30
0.0
 40
0.099629019240812
 41
0.0
 71
               1
 72
               1
  1
1.085
  7
Helvetica
 73
               1
 44
0.8397955333929318
  0
DIMENSION
  5
20C
100
AcDbEntity
  8
Dimension
370
               5
390
0
  6
Continuous
 62
               7
100
AcDbDimension
  2
*D21
 10
-3.5360000000000005
 20
-2.0052500000000006
 30
0.0
 11
-1.7680000000000002
 21
-2.0052500000000006
 31
0.0
 71
               5
 72
               1
 41
1.0
 42
0.0
  3
ISO
100
AcDbAlignedDimension
 13
0.0
 23
-0.23725
 33
0.0
 14
-3.5360000000000005
 24
-0.23725
 34
0.0
100
AcDbRotatedDimension
1001
ACAD
1000
DSTYLE
1002
{
1070
             271
1070
               2
1070
             279
1070
               2
1070
             340
1005
3D
1070
             140
1040
0.099629019240812
1070
             147
1040
0.03937
1002
}
  0
INSERT
  5
20D
100
AcDbEntity
  8
None
390
0
 62
               7
100
AcDbBlockReference
  2
Group-17
 10
-4.4530000000000003
 20
0.0
 30
0.0
  0
LINE
  5
20E
100
AcDbEntity
  8
None
370
               5
390
0
  6
STYLE_11
 62
               7
100
AcDbLine
 10
-8.1280000000000001
 20
1.169134295108992
 30
0.0
 11
-8.302999999999999
 21
1.4722431864335457
 31
0.0
  0
DIMENSION
  5
20F
100
AcDbEntity
  8
Dimension
370
               5
390
0
  6
Continuous
 62
               7
100
AcDbDimension
  2
*D25
 10
-7.8805240396464598
 20
1.5955414374176804
 30
0.0
 11
-7.8907137658316095
 21
1.6335700132558741
 31
0.0
 70
             133
 71
               5
 72
               1
 41
1.0
 42
0.0
  3
ISO
100
AcDb3PointAngularDimension
 13
-7.4529999999999994
 23
1.35311
 33
0.0
 14
-8.302999999999999
 24
1.4722431864335457
 34
0.0
 15
-7.4529999999999994
 25
-0.0000000000000021
 35
0.0
1001
ACAD
1000
DSTYLE
1002
{
1070
             279
1070
               2
1070
             342
1005
4E
1070
             340
1005
3D
1070
             140
1040
0.099629019240812
1070
              73
1070
               1
1070
              74
1070
               1
1070
               3
1000
<> 
1002
}
  0
ENDSEC
  0
SECTION
  2
OBJECTS
  0
DICTIONARY
  5
19
100
AcDbDictionary
280
               0
281
               1
  3
ACAD_GROUP
350
1A
  3
ACAD_MLINESTYLE
350
1B
  3
ACAD_LAYOUT
350
1E
  3
ACAD_PLOTSETTINGS
350
22
  3
ACAD_PLOTSTYLENAME
350
1F
  3
ACAD_WIPEOUT_VARS
350
23
  0
DICTIONARY
  5
1A
102
{ACAD_REACTORS
330
19
102
}
100
AcDbDictionary
280
               0
281
               1
  0
DICTIONARY
  5
1B
102
{ACAD_REACTORS
330
19
102
}
100
AcDbDictionary
280
               0
281
               1
  3
Standard
350
1C
  0
MLINESTYLE
  5
1C
102
{ACAD_REACTORS
330
1B
102
}
100
AcDbMlineStyle
  2
Standard
 70
               0
  3

 62
               0
 51
90.0
 52
90.0
 71
               2
 49
0.5
 62
             256
  6
ByLayer
 49
-0.5
 62
             256
  6
ByLayer
  0
ACDBDICTIONARYWDFLT
  5
1F
102
{ACAD_REACTORS
330
19
102
}
100
AcDbDictionary
281
               1
  3
Normal
350
1D
100
AcDbDictionaryWithDefault
340
1D
  0
ACDBPLACEHOLDER
  5
1D
102
{ACAD_REACTORS
330
1F
102
}
  0
LAYOUT
  5
20
102
{ACAD_REACTORS
330
1E
102
}
100
AcDbPlotSettings
  1

  2

  4

  6

 40
0.0
 41
0.0
 42
0.0
 43
0.0
 44
0.0
 45
0.0
 46
0.0
 47
0.0
 48
0.0
 49
0.0
140
0.0
141
0.0
142
1.0
143
1.0
 70
            1024
 72
               0
 73
               0
 74
               0
  7

 75
               0
147
1.0
148
0.0
149
0.0
100
AcDbLayout
  1
Model
 70
               0
 71
               0
 10
0.0
 20
0.0
 11
0.0
 21
0.0
 12
0.0
 22
0.0
 32
0.0
 14
0.0
 24
0.0
 34
0.0
 15
0.0
 25
0.0
 35
0.0
146
0.0
 13
0.0
 23
0.0
 33
0.0
 16
0.0
 26
0.0
 36
0.0
 17
0.0
 27
0.0
 37
0.0
 76
               0
330
A
331
0
345
0
346
0
  0
LAYOUT
  5
21
102
{ACAD_REACTORS
330
1E
102
}
100
AcDbPlotSettings
  1

  2

  4

  6

 40
0.0
 41
0.0
 42
0.0
 43
0.0
 44
0.0
 45
0.0
 46
0.0
 47
0.0
 48
0.0
 49
0.0
140
0.0
141
0.0
142
1.0
143
1.0
 70
               0
 72
               0
 73
               0
 74
               0
  7

 75
               0
147
1.0
148
0.0
149
0.0
100
AcDbLayout
  1
Layout1
 70
               0
 71
               0
 10
0.0
 20
0.0
 11
0.0
 21
0.0
 12
0.0
 22
0.0
 32
0.0
 14
0.0
 24
0.0
 34
0.0
 15
0.0
 25
0.0
 35
0.0
146
0.0
 13
0.0
 23
0.0
 33
0.0
 16
0.0
 26
0.0
 36
0.0
 17
0.0
 27
0.0
 37
0.0
 76
               0
330
B
331
0
345
0
346
0
  0
DICTIONARY
  5
1E
102
{ACAD_REACTORS
330
19
102
}
100
AcDbDictionary
280
               0
281
               1
  3
Layout1
350
21
  3
Model
350
20
  0
DICTIONARY
  5
22
102
{ACAD_REACTORS
330
19
102
}
100
AcDbDictionary
280
               0
281
               1
  0
WIPEOUTVARIABLES
  5
23
100
AcDbWipeoutVariables
 70
               0
  0
ENDSEC
  0
EOF
