  0
SECTION
  2
HEADER
  9
$ACADVER
  1
AC1021
  9
$ACADMAINTVER
 70
    25
  9
$DWGCODEPAGE
  3
ANSI_1252
  9
$INSBASE
 10
0.0
 20
0.0
 30
0.0
  9
$EXTMIN
 10
0.3477764306244504
 20
-2.0604812574803
 30
-0.0507
  9
$EXTMAX
 10
8.97307456082768
 20
2.9130536
 30
0.0507
  9
$LIMMIN
 10
0.0
 20
0.0
  9
$LIMMAX
 10
0.0
 20
0.0
  9
$ORTHOMODE
 70
     0
  9
$REGENMODE
 70
     1
  9
$FILLMODE
 70
     1
  9
$QTEXTMODE
 70
     0
  9
$MIRRTEXT
 70
     1
  9
$LTSCALE
 40
0.2
  9
$ATTMODE
 70
     1
  9
$TEXTSIZE
 40
0.2
  9
$TRACEWID
 40
1.0
  9
$TEXTSTYLE
  7
Standard
  9
$CLAYER
  8
None
  9
$CELTYPE
  6
Continuous
  9
$CECOLOR
 62
   256
  9
$CELTSCALE
 40
1.0
  9
$DISPSILH
 70
     0
  9
$DIMSCALE
 40
1.0
  9
$DIMASZ
 40
0.125
  9
$DIMEXO
 40
0.0
  9
$DIMDLI
 40
0.2755905511811
  9
$DIMRND
 40
0.0
  9
$DIMDLE
 40
0.0
  9
$DIMEXE
 40
0.0787401574803
  9
$DIMTP
 40
0.0
  9
$DIMTM
 40
0.0
  9
$DIMTXT
 40
0.0996290272111335
  9
$DIMCEN
 40
0.0
  9
$DIMTSZ
 40
0.0
  9
$DIMTOL
 70
     0
  9
$DIMLIM
 70
     0
  9
$DIMTIH
 70
     0
  9
$DIMTOH
 70
     0
  9
$DIMSE1
 70
     0
  9
$DIMSE2
 70
     0
  9
$DIMTAD
 70
     1
  9
$DIMZIN
 70
     7
  9
$DIMBLK
  1
VW_FILLEDARROW
  9
$DIMASO
 70
     1
  9
$DIMSHO
 70
     1
  9
$DIMPOST
  1
<>
  9
$DIMAPOST
  1
[]
  9
$DIMALT
 70
     0
  9
$DIMALTD
 70
     2
  9
$DIMALTF
 40
25.4
  9
$DIMLFAC
 40
1.0
  9
$DIMTOFL
 70
     1
  9
$DIMTVP
 40
0.0
  9
$DIMTIX
 70
     1
  9
$DIMSOXD
 70
     0
  9
$DIMSAH
 70
     0
  9
$DIMBLK1
  1

  9
$DIMBLK2
  1

  9
$DIMSTYLE
  2
ISO
  9
$DIMCLRD
 70
     0
  9
$DIMCLRE
 70
     0
  9
$DIMCLRT
 70
     0
  9
$DIMTFAC
 40
1.0
  9
$DIMGAP
 40
0.0393700787402
  9
$DIMJUST
 70
     0
  9
$DIMSD1
 70
     0
  9
$DIMSD2
 70
     0
  9
$DIMTOLJ
 70
     1
  9
$DIMTZIN
 70
     7
  9
$DIMALTZ
 70
    11
  9
$DIMALTTZ
 70
    11
  9
$DIMUPT
 70
     0
  9
$DIMDEC
 70
     4
  9
$DIMTDEC
 70
     4
  9
$DIMALTU
 70
     2
  9
$DIMALTTD
 70
     2
  9
$DIMTXSTY
  7
Helvetica
  9
$DIMAUNIT
 70
     0
  9
$DIMADEC
 70
     0
  9
$DIMALTRND
 40
0.0
  9
$DIMAZIN
 70
     0
  9
$DIMDSEP
 70
    46
  9
$DIMATFIT
 70
     0
  9
$DIMFRAC
 70
     2
  9
$DIMLDRBLK
  1

  9
$DIMLUNIT
 70
     2
  9
$DIMLWD
 70
    -2
  9
$DIMLWE
 70
    -2
  9
$DIMTMOVE
 70
     0
  9
$DIMFXL
 40
1.0
  9
$DIMFXLON
 70
     0
  9
$DIMJOGANG
 40
0.7853981633974483
  9
$DIMTFILL
 70
     0
  9
$DIMTFILLCLR
 70
     0
  9
$DIMARCSYM
 70
     0
  9
$DIMLTYPE
  6

  9
$DIMLTEX1
  6

  9
$DIMLTEX2
  6

  9
$LUNITS
 70
     2
  9
$LUPREC
 70
     4
  9
$SKETCHINC
 40
0.1
  9
$FILLETRAD
 40
0.0
  9
$AUNITS
 70
     0
  9
$AUPREC
 70
     0
  9
$MENU
  1
acad
  9
$ELEVATION
 40
0.0
  9
$PELEVATION
 40
0.0
  9
$THICKNESS
 40
0.0
  9
$LIMCHECK
 70
     0
  9
$CHAMFERA
 40
0.0
  9
$CHAMFERB
 40
0.0
  9
$CHAMFERC
 40
0.0
  9
$CHAMFERD
 40
0.0
  9
$SKPOLY
 70
     0
  9
$TDCREATE
 40
0.0
  9
$TDUCREATE
 40
0.0
  9
$TDUPDATE
 40
0.0
  9
$TDUUPDATE
 40
0.0
  9
$TDINDWG
 40
0.0
  9
$TDUSRTIMER
 40
0.0
  9
$USRTIMER
 70
     1
  9
$ANGBASE
 50
0.0
  9
$ANGDIR
 70
     0
  9
$PDMODE
 70
     1
  9
$PDSIZE
 40
-2.0
  9
$PLINEWID
 40
0.0
  9
$SPLFRAME
 70
     0
  9
$SPLINETYPE
 70
     6
  9
$SPLINESEGS
 70
     8
  9
$HANDSEED
  5
22E
  9
$SURFTAB1
 70
     6
  9
$SURFTAB2
 70
     6
  9
$SURFTYPE
 70
     6
  9
$SURFU
 70
     6
  9
$SURFV
 70
     6
  9
$UCSBASE
  2

  9
$UCSNAME
  2

  9
$UCSORG
 10
0.0
 20
0.0
 30
0.0
  9
$UCSXDIR
 10
1.0
 20
0.0
 30
0.0
  9
$UCSYDIR
 10
0.0
 20
1.0
 30
0.0
  9
$UCSORTHOREF
  2

  9
$UCSORTHOVIEW
 70
     0
  9
$UCSORGTOP
 10
0.0
 20
0.0
 30
0.0
  9
$UCSORGBOTTOM
 10
0.0
 20
0.0
 30
0.0
  9
$UCSORGLEFT
 10
0.0
 20
0.0
 30
0.0
  9
$UCSORGRIGHT
 10
0.0
 20
0.0
 30
0.0
  9
$UCSORGFRONT
 10
0.0
 20
0.0
 30
0.0
  9
$UCSORGBACK
 10
0.0
 20
0.0
 30
0.0
  9
$PUCSBASE
  2

  9
$PUCSNAME
  2

  9
$PUCSORG
 10
0.0
 20
0.0
 30
0.0
  9
$PUCSXDIR
 10
1.0
 20
0.0
 30
0.0
  9
$PUCSYDIR
 10
0.0
 20
1.0
 30
0.0
  9
$PUCSORTHOREF
  2

  9
$PUCSORTHOVIEW
 70
     0
  9
$PUCSORGTOP
 10
0.0
 20
0.0
 30
0.0
  9
$PUCSORGBOTTOM
 10
0.0
 20
0.0
 30
0.0
  9
$PUCSORGLEFT
 10
0.0
 20
0.0
 30
0.0
  9
$PUCSORGRIGHT
 10
0.0
 20
0.0
 30
0.0
  9
$PUCSORGFRONT
 10
0.0
 20
0.0
 30
0.0
  9
$PUCSORGBACK
 10
0.0
 20
0.0
 30
0.0
  9
$USERI1
 70
     0
  9
$USERI2
 70
     0
  9
$USERI3
 70
     0
  9
$USERI4
 70
     0
  9
$USERI5
 70
     0
  9
$USERR1
 40
0.0
  9
$USERR2
 40
0.0
  9
$USERR3
 40
0.0
  9
$USERR4
 40
0.0
  9
$USERR5
 40
0.0
  9
$WORLDVIEW
 70
     1
  9
$SHADEDGE
 70
     3
  9
$SHADEDIF
 70
    70
  9
$TILEMODE
 70
     1
  9
$MAXACTVP
 70
    64
  9
$PINSBASE
 10
0.0
 20
0.0
 30
0.0
  9
$PLIMCHECK
 70
     0
  9
$PEXTMIN
 10
1.000000000000000E+20
 20
1.000000000000000E+20
 30
1.000000000000000E+20
  9
$PEXTMAX
 10
-1.000000000000000E+20
 20
-1.000000000000000E+20
 30
-1.000000000000000E+20
  9
$PLIMMIN
 10
0.0
 20
0.0
  9
$PLIMMAX
 10
12.0
 20
9.0
  9
$UNITMODE
 70
     0
  9
$VISRETAIN
 70
     0
  9
$PLINEGEN
 70
     1
  9
$PSLTSCALE
 70
     0
  9
$TREEDEPTH
 70
  3020
  9
$CMLSTYLE
  2
Standard
  9
$CMLJUST
 70
     0
  9
$CMLSCALE
 40
1.0
  9
$PROXYGRAPHICS
 70
     0
  9
$MEASUREMENT
 70
     0
  9
$CELWEIGHT
370
     0
  9
$ENDCAPS
280
     0
  9
$JOINSTYLE
280
     0
  9
$LWDISPLAY
290
     1
  9
$INSUNITS
 70
     1
  9
$HYPERLINKBASE
  1

  9
$STYLESHEET
  1

  9
$XEDIT
290
     1
  9
$CEPSNTYPE
380
     0
  9
$PSTYLEMODE
290
     1
  9
$FINGERPRINTGUID
  2

  9
$VERSIONGUID
  2

  9
$EXTNAMES
290
     1
  9
$PSVPSCALE
 40
0.0
  9
$OLESTARTUP
290
     0
  9
$SORTENTS
280
   127
  9
$INDEXCTL
280
     0
  9
$HIDETEXT
280
     1
  9
$XCLIPFRAME
290
     0
  9
$HALOGAP
280
     0
  9
$OBSCOLOR
 70
   257
  9
$OBSLTYPE
280
     0
  9
$INTERSECTIONDISPLAY
280
     0
  9
$INTERSECTIONCOLOR
 70
   257
  9
$DIMASSOC
280
     2
  9
$PROJECTNAME
  1

  9
$CAMERADISPLAY
290
     0
  9
$LENSLENGTH
 40
50.0
  9
$CAMERAHEIGHT
 40
0.0
  9
$STEPSPERSEC
 40
2.0
  9
$STEPSIZE
 40
6.0
  9
$3DDWFPREC
 40
2.0
  9
$PSOLWIDTH
 40
0.25
  9
$PSOLHEIGHT
 40
4.0
  9
$LOFTANG1
 40
1.570796326794897
  9
$LOFTANG2
 40
1.570796326794897
  9
$LOFTMAG1
 40
0.0
  9
$LOFTMAG2
 40
0.0
  9
$LOFTPARAM
 70
     7
  9
$LOFTNORMALS
280
     1
  9
$LATITUDE
 40
37.795
  9
$LONGITUDE
 40
-122.394
  9
$NORTHDIRECTION
 40
0.0
  9
$TIMEZONE
 70
 -8000
  9
$LIGHTGLYPHDISPLAY
280
     1
  9
$TILEMODELIGHTSYNCH
280
     1
  9
$SOLIDHIST
280
     1
  9
$SHOWHIST
280
     1
  9
$DWFFRAME
280
     2
  9
$DGNFRAME
280
     2
  9
$REALWORLDSCALE
290
     1
  9
$INTERFERECOLOR
 62
   256
  9
$CSHADOW
280
     0
  9
$SHADOWPLANELOCATION
 40
0.0
  0
ENDSEC
  0
SECTION
  2
CLASSES
  0
CLASS
  1
LWPOLYLINE
  2
AcDbPolyline
  3
AutoCAD 2000
 90
        0
 91
        1
280
     0
281
     1
  0
CLASS
  1
IMAGE
  2
AcDbRasterImage
  3
ISM
 90
      127
 91
        5
280
     0
281
     1
  0
CLASS
  1
OLE2FRAME
  2
AcDbOle2Frame
  3
AutoCAD 2000
 90
        0
 91
        1
280
     0
281
     1
  0
CLASS
  1
HATCH
  2
AcDbHatch
  3
AutoCAD 2000
 90
        0
 91
        1
280
     0
281
     1
  0
CLASS
  1
DICTIONARYVAR
  2
AcDbDictionaryVar
  3
ObjectDBX Classes
 90
        0
 91
        4
280
     0
281
     0
  0
CLASS
  1
RASTERVARIABLES
  2
AcDbRasterVariables
  3
ISM
 90
        0
 91
        4
280
     0
281
     0
  0
CLASS
  1
IMAGEDEF
  2
AcDbRasterImageDef
  3
ISM
 90
        0
 91
        4
280
     0
281
     0
  0
CLASS
  1
IMAGEDEF_REACTOR
  2
AcDbRasterImageDefReactor
  3
ISM
 90
        1
 91
        4
280
     0
281
     0
  0
CLASS
  1
IDBUFFER
  2
AcDbIdBuffer
  3
ObjectDBX Classes
 90
        0
 91
        4
280
     0
281
     0
  0
CLASS
  1
SPATIAL_FILTER
  2
AcDbSpatialFilter
  3
ObjectDBX Classes
 90
        0
 91
        4
280
     0
281
     0
  0
CLASS
  1
XRECORD
  2
AcDbXrecord
  3
AutoCAD 2000
 90
        0
 91
        1
280
     0
281
     0
  0
CLASS
  1
SORTENTSTABLE
  2
AcDbSortentsTable
  3
ObjectDBX Classes
 90
        0
 91
        4
280
     0
281
     0
  0
CLASS
  1
LAYER_INDEX
  2
AcDbLayerIndex
  3
ObjectDBX Classes
 90
        0
 91
        4
280
     0
281
     0
  0
CLASS
  1
SPATIAL_INDEX
  2
AcDbSpatialIndex
  3
AutoCAD 2000
 90
        0
 91
        4
280
     0
281
     0
  0
CLASS
  1
OBJECT_PTR
  2
CAseDLPNTableRecord
  3
ASE-LPNTableRecord
 90
        1
 91
        4
280
     0
281
     0
  0
CLASS
  1
LAYOUT
  2
AcDbLayout
  3
ObjectDBX Classes
 90
        0
 91
        1
280
     0
281
     0
  0
CLASS
  1
PLOTSETTINGS
  2
AcDbPlotSettings
  3
ObjectDBX Classes
 90
        0
 91
        4
280
     0
281
     0
  0
CLASS
  1
ACDBDICTIONARYWDFLT
  2
AcDbDictionaryWithDefault
  3
ObjectDBX Classes
 90
        0
 91
        4
280
     0
281
     0
  0
CLASS
  1
ACDBPLACEHOLDER
  2
AcDbPlaceHolder
  3
ObjectDBX Classes
 90
        0
 91
        1
280
     0
281
     0
  0
CLASS
  1
SCALE
  2
AcDbScale
  3
ObjectDBX Classes
 90
     1153
 91
        4
280
     0
281
     0
  0
ENDSEC
  0
SECTION
  2
TABLES
  0
TABLE
  2
VPORT
  5
7
330
0
100
AcDbSymbolTable
 70
     1
  0
VPORT
  5
15
330
7
100
AcDbSymbolTableRecord
100
AcDbViewportTableRecord
  2
*ACTIVE
 70
     0
 10
0.0
 20
0.0
 11
1.0
 21
1.0
 12
4.660425495726066
 22
0.42628617125985
 13
0.0
 23
0.0
 14
1.0
 24
1.0
 15
0.0
 25
0.0
 16
0.0
 26
0.0
 36
1.0
 17
0.0
 27
0.0
 37
0.0
 40
4.9735348574803
 41
0.688564
 42
50.0
 43
0.0
 44
0.0
 50
0.0
 51
0.0
 71
     0
 72
  2000
 73
     1
 74
     1
 75
     0
 76
     0
 77
     0
 78
     0
281
     0
 65
     0
110
0.0
120
0.0
130
0.0
111
1.0
121
0.0
131
0.0
112
0.0
122
1.0
132
0.0
 79
     0
146
0.0
 60
     3
 61
     5
292
     1
282
     1
141
0.0
142
0.0
 63
   256
  0
ENDTAB
  0
TABLE
  2
LTYPE
  5
4
330
0
100
AcDbSymbolTable
 70
    14
  0
LTYPE
  5
11
330
4
100
AcDbSymbolTableRecord
100
AcDbLinetypeTableRecord
  2
ByBlock
 70
     0
  3

 72
    65
 73
     0
 40
0.0
  0
LTYPE
  5
12
330
4
100
AcDbSymbolTableRecord
100
AcDbLinetypeTableRecord
  2
ByLayer
 70
     0
  3

 72
    65
 73
     0
 40
0.0
  0
LTYPE
  5
13
330
4
100
AcDbSymbolTableRecord
100
AcDbLinetypeTableRecord
  2
Continuous
 70
     0
  3
Solid line
 72
    65
 73
     0
 40
0.0
  0
LTYPE
  5
3D
330
4
100
AcDbSymbolTableRecord
100
AcDbLinetypeTableRecord
  2
STYLE_01
 70
     0
  3

 72
    65
 73
     2
 40
0.4166412353515625
 49
0.208282470703125
 74
     0
 49
-0.2083587646484375
 74
     0
  0
LTYPE
  5
3E
330
4
100
AcDbSymbolTableRecord
100
AcDbLinetypeTableRecord
  2
STYLE_02
 70
     0
  3

 72
    65
 73
     2
 40
0.694427490234375
 49
0.4860687255859375
 74
     0
 49
-0.2083587646484375
 74
     0
  0
LTYPE
  5
3F
330
4
100
AcDbSymbolTableRecord
100
AcDbLinetypeTableRecord
  2
STYLE_03
 70
     0
  3

 72
    65
 73
     2
 40
1.25
 49
1.041641235351562
 74
     0
 49
-0.2083587646484375
 74
     0
  0
LTYPE
  5
40
330
4
100
AcDbSymbolTableRecord
100
AcDbLinetypeTableRecord
  2
STYLE_04
 70
     0
  3

 72
    65
 73
     2
 40
1.5277099609375
 49
1.319427490234375
 74
     0
 49
-0.208282470703125
 74
     0
  0
LTYPE
  5
41
330
4
100
AcDbSymbolTableRecord
100
AcDbLinetypeTableRecord
  2
STYLE_05
 70
     0
  3

 72
    65
 73
     2
 40
0.208282470703125
 49
0.069427490234375
 74
     0
 49
-0.13885498046875
 74
     0
  0
LTYPE
  5
42
330
4
100
AcDbSymbolTableRecord
100
AcDbLinetypeTableRecord
  2
STYLE_06
 70
     0
  3

 72
    65
 73
     4
 40
1.041641235351562
 49
0.625
 74
     0
 49
-0.208282470703125
 74
     0
 49
0.069427490234375
 74
     0
 49
-0.1389312744140625
 74
     0
  0
LTYPE
  5
43
330
4
100
AcDbSymbolTableRecord
100
AcDbLinetypeTableRecord
  2
STYLE_07
 70
     0
  3

 72
    65
 73
     6
 40
1.875
 49
0.625
 74
     0
 49
-0.208282470703125
 74
     0
 49
0.625
 74
     0
 49
-0.2083587646484375
 74
     0
 49
0.069427490234375
 74
     0
 49
-0.1389312744140625
 74
     0
  0
LTYPE
  5
44
330
4
100
AcDbSymbolTableRecord
100
AcDbLinetypeTableRecord
  2
STYLE_08
 70
     0
  3

 72
    65
 73
     6
 40
1.25
 49
0.625
 74
     0
 49
-0.208282470703125
 74
     0
 49
0.069427490234375
 74
     0
 49
-0.1389312744140625
 74
     0
 49
0.069427490234375
 74
     0
 49
-0.1389312744140625
 74
     0
  0
LTYPE
  5
45
330
4
100
AcDbSymbolTableRecord
100
AcDbLinetypeTableRecord
  2
STYLE_09
 70
     0
  3

 72
    65
 73
     4
 40
5.0
 49
3.75
 74
     0
 49
-0.2777862548828125
 74
     0
 49
0.694427490234375
 74
     0
 49
-0.2777862548828125
 74
     0
  0
LTYPE
  5
46
330
4
100
AcDbSymbolTableRecord
100
AcDbLinetypeTableRecord
  2
STYLE_10
 70
     0
  3

 72
    65
 73
     6
 40
5.9375
 49
3.75
 74
     0
 49
-0.2777862548828125
 74
     0
 49
0.694427490234375
 74
     0
 49
-0.2777862548828125
 74
     0
 49
0.625
 74
     0
 49
-0.3125
 74
     0
  0
LTYPE
  5
47
330
4
100
AcDbSymbolTableRecord
100
AcDbLinetypeTableRecord
  2
STYLE_11
 70
     0
  3

 72
    65
 73
     2
 40
0.3472137451171875
 49
0.2083587646484375
 74
     0
 49
-0.13885498046875
 74
     0
  0
LTYPE
  5
48
330
4
100
AcDbSymbolTableRecord
100
AcDbLinetypeTableRecord
  2
STYLE_12
 70
     0
  3

 72
    65
 73
     2
 40
0.2777862548828125
 49
0.2083587646484375
 74
     0
 49
-0.069427490234375
 74
     0
  0
LTYPE
  5
49
330
4
100
AcDbSymbolTableRecord
100
AcDbLinetypeTableRecord
  2
STYLE_13
 70
     0
  3

 72
    65
 73
     2
 40
0.208282470703125
 49
0.13885498046875
 74
     0
 49
-0.069427490234375
 74
     0
  0
ENDTAB
  0
TABLE
  2
LAYER
  5
2
330
0
100
AcDbSymbolTable
 70
     4
  0
LAYER
  5
14
330
2
100
AcDbSymbolTableRecord
100
AcDbLayerTableRecord
  2
0
 70
     0
 62
     7
  6
Continuous
370
    -3
390
1D
347
0
  0
LAYER
  5
4A
330
2
100
AcDbSymbolTableRecord
100
AcDbLayerTableRecord
  2
None
 70
     0
 62
     7
  6
Continuous
370
     5
390
1D
347
0
  0
LAYER
  5
4B
330
2
100
AcDbSymbolTableRecord
100
AcDbLayerTableRecord
  2
Dimension
 70
     0
 62
     7
  6
Continuous
370
     5
390
1D
347
0
  0
LAYER
  5
4C
330
2
100
AcDbSymbolTableRecord
100
AcDbLayerTableRecord
  2
Defpoints
 70
     0
 62
     7
  6
Continuous
290
     0
370
    -3
390
1D
347
0
  0
ENDTAB
  0
TABLE
  2
STYLE
  5
3
330
0
100
AcDbSymbolTable
 70
     2
  0
STYLE
  5
17
330
3
100
AcDbSymbolTableRecord
100
AcDbTextStyleTableRecord
  2
Standard
 70
     0
 40
0.0
 41
1.0
 50
0.0
 71
     0
 42
0.0
  3
txt
  4

  0
STYLE
  5
3C
330
3
100
AcDbSymbolTableRecord
100
AcDbTextStyleTableRecord
  2
Helvetica
 70
     0
 40
0.0
 41
1.0
 50
0.0
 71
     0
 42
0.0
  3
Helvetica
  4

1001
ACAD
1000
Helvetica
1071
        0
  0
ENDTAB
  0
TABLE
  2
VIEW
  5
5
330
0
100
AcDbSymbolTable
 70
     0
  0
ENDTAB
  0
TABLE
  2
UCS
  5
6
330
0
100
AcDbSymbolTable
 70
     0
  0
ENDTAB
  0
TABLE
  2
APPID
  5
8
330
0
100
AcDbSymbolTable
 70
     1
  0
APPID
  5
16
330
8
100
AcDbSymbolTableRecord
100
AcDbRegAppTableRecord
  2
ACAD
 70
     0
  0
ENDTAB
  0
TABLE
  2
DIMSTYLE
  5
9
330
0
100
AcDbSymbolTable
 70
     2
100
AcDbDimStyleTable
  0
DIMSTYLE
105
18
330
9
100
AcDbSymbolTableRecord
100
AcDbDimStyleTableRecord
  2
Standard
 70
     0
340
17
  0
DIMSTYLE
105
56
330
9
100
AcDbSymbolTableRecord
100
AcDbDimStyleTableRecord
  2
ISO
 70
     0
  3
<>
  4
[]
 41
0.125
 42
0.0
 43
0.2755905511811
 44
0.0787401574803
 73
     0
 74
     0
 77
     1
 78
     7
140
0.0996290272111335
141
0.0
147
0.0393700787402
172
     1
174
     1
276
     2
284
     7
285
    11
286
    11
289
     0
340
3C
341
4D
342
4D
  0
ENDTAB
  0
TABLE
  2
BLOCK_RECORD
  5
1
330
0
100
AcDbSymbolTable
 70
    26
  0
BLOCK_RECORD
  5
A
330
1
100
AcDbSymbolTableRecord
100
AcDbBlockTableRecord
  2
*MODEL_SPACE
340
20
 70
     0
280
     1
281
     0
  0
BLOCK_RECORD
  5
B
330
1
100
AcDbSymbolTableRecord
100
AcDbBlockTableRecord
  2
*PAPER_SPACE
340
21
 70
     0
280
     1
281
     0
  0
BLOCK_RECORD
  5
4D
330
1
100
AcDbSymbolTableRecord
100
AcDbBlockTableRecord
  2
VW_FILLEDARROW
340
0
 70
     0
280
     1
281
     0
  0
BLOCK_RECORD
  5
23
330
1
100
AcDbSymbolTableRecord
100
AcDbBlockTableRecord
  2
Group
340
0
102
{BLKREFS
331
71
102
}
 70
     0
280
     1
281
     0
  0
BLOCK_RECORD
  5
24
330
1
100
AcDbSymbolTableRecord
100
AcDbBlockTableRecord
  2
Group-1
340
0
102
{BLKREFS
331
72
102
}
 70
     0
280
     1
281
     0
  0
BLOCK_RECORD
  5
25
330
1
100
AcDbSymbolTableRecord
100
AcDbBlockTableRecord
  2
Group-2
340
0
102
{BLKREFS
331
1D6
102
}
 70
     0
280
     1
281
     0
  0
BLOCK_RECORD
  5
26
330
1
100
AcDbSymbolTableRecord
100
AcDbBlockTableRecord
  2
*D4
340
0
 70
     0
280
     1
281
     0
  0
BLOCK_RECORD
  5
27
330
1
100
AcDbSymbolTableRecord
100
AcDbBlockTableRecord
  2
*D5
340
0
 70
     0
280
     1
281
     0
  0
BLOCK_RECORD
  5
28
330
1
100
AcDbSymbolTableRecord
100
AcDbBlockTableRecord
  2
*D6
340
0
 70
     0
280
     1
281
     0
  0
BLOCK_RECORD
  5
29
330
1
100
AcDbSymbolTableRecord
100
AcDbBlockTableRecord
  2
*D7
340
0
 70
     0
280
     1
281
     0
  0
BLOCK_RECORD
  5
2A
330
1
100
AcDbSymbolTableRecord
100
AcDbBlockTableRecord
  2
*D8
340
0
 70
     0
280
     1
281
     0
  0
BLOCK_RECORD
  5
2B
330
1
100
AcDbSymbolTableRecord
100
AcDbBlockTableRecord
  2
*D9
340
0
 70
     0
280
     1
281
     0
  0
BLOCK_RECORD
  5
2C
330
1
100
AcDbSymbolTableRecord
100
AcDbBlockTableRecord
  2
*D10
340
0
 70
     0
280
     1
281
     0
  0
BLOCK_RECORD
  5
2D
330
1
100
AcDbSymbolTableRecord
100
AcDbBlockTableRecord
  2
*D11
340
0
 70
     0
280
     1
281
     0
  0
BLOCK_RECORD
  5
2E
330
1
100
AcDbSymbolTableRecord
100
AcDbBlockTableRecord
  2
Group-3
340
0
102
{BLKREFS
331
124
102
}
 70
     0
280
     1
281
     0
  0
BLOCK_RECORD
  5
2F
330
1
100
AcDbSymbolTableRecord
100
AcDbBlockTableRecord
  2
Group-4
340
0
102
{BLKREFS
331
1F1
102
}
 70
     0
280
     1
281
     0
  0
BLOCK_RECORD
  5
30
330
1
100
AcDbSymbolTableRecord
100
AcDbBlockTableRecord
  2
Group-5
340
0
102
{BLKREFS
331
1F2
102
}
 70
     0
280
     1
281
     0
  0
BLOCK_RECORD
  5
31
330
1
100
AcDbSymbolTableRecord
100
AcDbBlockTableRecord
  2
Group-6
340
0
102
{BLKREFS
331
1F3
102
}
 70
     0
280
     1
281
     0
  0
BLOCK_RECORD
  5
32
330
1
100
AcDbSymbolTableRecord
100
AcDbBlockTableRecord
  2
Group-7
340
0
102
{BLKREFS
331
152
102
}
 70
     0
280
     1
281
     0
  0
BLOCK_RECORD
  5
33
330
1
100
AcDbSymbolTableRecord
100
AcDbBlockTableRecord
  2
Group-8
340
0
102
{BLKREFS
331
1F5
102
}
 70
     0
280
     1
281
     0
  0
BLOCK_RECORD
  5
34
330
1
100
AcDbSymbolTableRecord
100
AcDbBlockTableRecord
  2
Group-9
340
0
102
{BLKREFS
331
15F
102
}
 70
     0
280
     1
281
     0
  0
BLOCK_RECORD
  5
35
330
1
100
AcDbSymbolTableRecord
100
AcDbBlockTableRecord
  2
Group-10
340
0
102
{BLKREFS
331
1F6
102
}
 70
     0
280
     1
281
     0
  0
BLOCK_RECORD
  5
36
330
1
100
AcDbSymbolTableRecord
100
AcDbBlockTableRecord
  2
Group-11
340
0
102
{BLKREFS
331
16C
102
}
 70
     0
280
     1
281
     0
  0
BLOCK_RECORD
  5
37
330
1
100
AcDbSymbolTableRecord
100
AcDbBlockTableRecord
  2
Group-12
340
0
102
{BLKREFS
331
1F7
102
}
 70
     0
280
     1
281
     0
  0
BLOCK_RECORD
  5
38
330
1
100
AcDbSymbolTableRecord
100
AcDbBlockTableRecord
  2
Group-13
340
0
102
{BLKREFS
331
188
102
}
 70
     0
280
     1
281
     0
  0
BLOCK_RECORD
  5
39
330
1
100
AcDbSymbolTableRecord
100
AcDbBlockTableRecord
  2
Group-14
340
0
102
{BLKREFS
331
189
102
}
 70
     0
280
     1
281
     0
  0
BLOCK_RECORD
  5
3A
330
1
100
AcDbSymbolTableRecord
100
AcDbBlockTableRecord
  2
Group-15
340
0
102
{BLKREFS
331
1F8
102
}
 70
     0
280
     1
281
     0
  0
BLOCK_RECORD
  5
3B
330
1
100
AcDbSymbolTableRecord
100
AcDbBlockTableRecord
  2
*D25
340
0
 70
     0
280
     1
281
     0
  0
ENDTAB
  0
ENDSEC
  0
SECTION
  2
BLOCKS
  0
BLOCK
  5
D
330
A
100
AcDbEntity
  8
0
390
1D
100
AcDbBlockBegin
  2
*MODEL_SPACE
 70
     0
 10
0.0
 20
0.0
 30
0.0
  3
*MODEL_SPACE
  1

  0
ENDBLK
  5
E
330
A
100
AcDbEntity
  8
0
390
1D
100
AcDbBlockEnd
  0
BLOCK
  5
F
330
B
100
AcDbEntity
 67
     1
  8
0
390
1D
100
AcDbBlockBegin
  2
*PAPER_SPACE
 70
     0
 10
0.0
 20
0.0
 30
0.0
  3
*PAPER_SPACE
  1

  0
ENDBLK
  5
10
330
B
100
AcDbEntity
 67
     1
  8
0
390
1D
100
AcDbBlockEnd
  0
BLOCK
  5
4E
330
4D
100
AcDbEntity
  8
0
  6
ByBlock
 62
     0
370
    -2
390
1D
100
AcDbBlockBegin
  2
VW_FILLEDARROW
 70
     0
 10
0.0
 20
0.0
 30
0.0
  3
VW_FILLEDARROW
  1

  0
POLYLINE
  5
4F
102
{ACAD_REACTORS
330
54
102
}
330
4D
100
AcDbEntity
  8
None
  6
Continuous
 62
     0
370
     5
390
1D
100
AcDb2dPolyline
 66
     1
 10
0.0
 20
0.0
 30
0.0
 70
     1
 75
     5
  0
VERTEX
  5
50
330
4F
100
AcDbEntity
  8
None
  6
Continuous
 62
     0
370
     5
390
1D
100
AcDbVertex
100
AcDb2dVertex
 10
-1.0
 20
0.2679491924311228
 30
0.0
  0
VERTEX
  5
51
330
4F
100
AcDbEntity
  8
None
  6
Continuous
 62
     0
370
     5
390
1D
100
AcDbVertex
100
AcDb2dVertex
 10
0.0
 20
0.0
 30
0.0
  0
VERTEX
  5
52
330
4F
100
AcDbEntity
  8
None
  6
Continuous
 62
     0
370
     5
390
1D
100
AcDbVertex
100
AcDb2dVertex
 10
-0.9999999999999999
 20
-0.267949192431123
 30
0.0
  0
SEQEND
  5
53
330
4F
100
AcDbEntity
  8
None
  6
Continuous
 62
     0
370
     5
390
1D
  0
HATCH
  5
54
330
4D
100
AcDbEntity
  8
0
  6
ByBlock
 62
     0
370
     0
390
1D
100
AcDbHatch
 10
0.0
 20
0.0
 30
0.0
210
0.0
220
0.0
230
1.0
  2
SOLID
 70
     1
 71
     1
 91
        1
 92
        1
 93
        3
 72
     1
 10
-1.0
 20
0.2679491924311228
 11
0.0
 21
0.0
 72
     1
 10
0.0
 20
0.0
 11
-0.9999999999999999
 21
-0.267949192431123
 72
     1
 10
-0.9999999999999999
 20
-0.267949192431123
 11
-1.0
 21
0.2679491924311228
 97
        1
330
4F
 75
     0
 76
     1
 98
        1
 10
0.0
 20
0.0
  0
ENDBLK
  5
55
330
4D
100
AcDbEntity
  8
0
390
1D
100
AcDbBlockEnd
  0
BLOCK
  5
57
330
23
100
AcDbEntity
  8
None
390
1D
100
AcDbBlockBegin
  2
Group
 70
     0
 10
0.0
 20
0.0
 30
0.0
  3
Group
  1

  0
LINE
  5
58
330
23
100
AcDbEntity
  8
None
  6
Continuous
 62
     7
370
    13
390
1D
100
AcDbLine
 10
2.799678
 20
1.235729
 30
0.0
 11
2.7994239
 21
1.4808505
 31
0.0
  0
LINE
  5
59
330
23
100
AcDbEntity
  8
None
  6
Continuous
 62
     7
370
    13
390
1D
100
AcDbLine
 10
2.6794238
 20
1.4808194
 30
0.0
 11
2.6796779
 21
1.2356979
 31
0.0
  0
LINE
  5
5A
330
23
100
AcDbEntity
  8
None
  6
Continuous
 62
     7
370
    13
390
1D
100
AcDbLine
 10
2.6794238
 20
1.4808194
 30
0.0
 11
2.7994239
 21
1.4808505
 31
0.0
  0
ENDBLK
  5
5B
330
23
100
AcDbEntity
  8
None
390
1D
100
AcDbBlockEnd
  0
BLOCK
  5
5C
330
24
100
AcDbEntity
  8
None
390
1D
100
AcDbBlockBegin
  2
Group-1
 70
     0
 10
0.0
 20
0.0
 30
0.0
  3
Group-1
  1

  0
LINE
  5
5D
330
24
100
AcDbEntity
  8
None
  6
Continuous
 62
     7
370
    13
390
1D
100
AcDbLine
 10
2.6790299
 20
1.9331481
 30
0.0
 11
2.7990298
 21
1.9331838
 31
0.0
  0
LINE
  5
5E
330
24
100
AcDbEntity
  8
None
  6
Continuous
 62
     7
370
    13
390
1D
100
AcDbLine
 10
2.7990298
 20
1.9331838
 30
0.0
 11
2.7993927
 21
1.5332194
 31
0.0
  0
LINE
  5
5F
330
24
100
AcDbEntity
  8
None
  6
Continuous
 62
     7
370
    13
390
1D
100
AcDbLine
 10
2.6790299
 20
1.9331481
 30
0.0
 11
2.6793928
 21
1.5331838
 31
0.0
  0
LINE
  5
60
330
24
100
AcDbEntity
  8
None
  6
Continuous
 62
     7
370
    13
390
1D
100
AcDbLine
 10
2.6793928
 20
1.5331838
 30
0.0
 11
2.7993927
 21
1.5332194
 31
0.0
  0
ENDBLK
  5
61
330
24
100
AcDbEntity
  8
None
390
1D
100
AcDbBlockEnd
  0
BLOCK
  5
62
330
25
100
AcDbEntity
  8
None
390
1D
100
AcDbBlockBegin
  2
Group-2
 70
     0
 10
0.0
 20
0.0
 30
0.0
  3
Group-2
  1

  0
LINE
  5
63
330
25
100
AcDbEntity
  8
None
  6
Continuous
 62
     7
370
    13
390
1D
100
AcDbLine
 10
2.7390299
 20
1.9331527
 30
0.0
 11
2.9233715
 21
2.6601451
 31
0.0
  0
LINE
  5
64
330
25
100
AcDbEntity
  8
None
  6
Continuous
 62
     7
370
    13
390
1D
100
AcDbLine
 10
2.7906193
 20
1.9331794
 30
0.0
 11
2.9718378
 21
2.6478557
 31
0.0
  0
LINE
  5
65
330
25
100
AcDbEntity
  8
None
  6
Continuous
 62
     7
370
    13
390
1D
100
AcDbLine
 10
2.7390299
 20
1.9331527
 30
0.0
 11
2.5965921
 21
2.6695026
 31
0.0
  0
LINE
  5
66
330
25
100
AcDbEntity
  8
None
  6
Continuous
 62
     7
370
    13
390
1D
100
AcDbLine
 10
2.6881082
 20
1.9331261
 30
0.0
 11
2.547502
 21
2.6600069
 31
0.0
  0
LINE
  5
67
330
25
100
AcDbEntity
  8
None
  6
Continuous
 62
     7
370
    13
390
1D
100
AcDbLine
 10
2.9233715
 20
2.6601451
 30
0.0
 11
2.9718378
 21
2.6478557
 31
0.0
  0
LINE
  5
68
330
25
100
AcDbEntity
  8
None
  6
Continuous
 62
     7
370
    13
390
1D
100
AcDbLine
 10
2.5965921
 20
2.6695026
 30
0.0
 11
2.547502
 21
2.6600069
 31
0.0
  0
LINE
  5
69
330
25
100
AcDbEntity
  8
None
  6
Continuous
 62
     7
370
    13
390
1D
100
AcDbLine
 10
3.0090523
 20
2.8963313
 30
0.0
 11
3.023592
 21
2.8926443
 31
0.0
  0
LINE
  5
6A
330
25
100
AcDbEntity
  8
None
  6
Continuous
 62
     7
370
    13
390
1D
100
AcDbLine
 10
3.023592
 20
2.8926443
 30
0.0
 11
2.9621447
 21
2.6503135
 31
0.0
  0
LINE
  5
6B
330
25
100
AcDbEntity
  8
None
  6
Continuous
 62
     7
370
    13
390
1D
100
AcDbLine
 10
3.023592
 20
2.8926443
 30
0.0
 11
2.9945124
 21
2.900018
 31
0.0
  0
LINE
  5
6C
330
25
100
AcDbEntity
  8
None
  6
Continuous
 62
     7
370
    13
390
1D
100
AcDbLine
 10
2.9945124
 20
2.900018
 30
0.0
 11
2.9330649
 21
2.6576872
 31
0.0
  0
LINE
  5
6D
330
25
100
AcDbEntity
  8
None
  6
Continuous
 62
     7
370
    13
390
1D
100
AcDbLine
 10
2.524568
 20
2.9102048
 30
0.0
 11
2.5392949
 21
2.9130536
 31
0.0
  0
LINE
  5
6E
330
25
100
AcDbEntity
  8
None
  6
Continuous
 62
     7
370
    13
390
1D
100
AcDbLine
 10
2.5392949
 20
2.9130536
 30
0.0
 11
2.5867749
 21
2.6676037
 31
0.0
  0
LINE
  5
6F
330
25
100
AcDbEntity
  8
None
  6
Continuous
 62
     7
370
    13
390
1D
100
AcDbLine
 10
2.5392949
 20
2.9130536
 30
0.0
 11
2.509841
 21
2.907356
 31
0.0
  0
LINE
  5
70
330
25
100
AcDbEntity
  8
None
  6
Continuous
 62
     7
370
    13
390
1D
100
AcDbLine
 10
2.509841
 20
2.907356
 30
0.0
 11
2.5573209
 21
2.6619063
 31
0.0
  0
INSERT
  5
71
330
25
100
AcDbEntity
  8
None
 62
     7
390
1D
100
AcDbBlockReference
  2
Group
 10
0.0
 20
0.0
 30
0.0
  0
INSERT
  5
72
330
25
100
AcDbEntity
  8
None
 62
     7
390
1D
100
AcDbBlockReference
  2
Group-1
 10
0.0
 20
0.0
 30
0.0
  0
ENDBLK
  5
73
330
25
100
AcDbEntity
  8
None
390
1D
100
AcDbBlockEnd
  0
BLOCK
  5
74
330
26
100
AcDbEntity
  8
Dimension
390
1D
100
AcDbBlockBegin
  2
*D4
 70
     1
 10
0.0
 20
0.0
 30
0.0
  3
*D4
  1

  0
LINE
  5
75
330
26
100
AcDbEntity
  8
Dimension
  6
Continuous
 62
     0
370
    -2
390
1D
100
AcDbLine
 10
2.132405744777174
 20
-0.132405744777174
 30
0.0
 11
3.240000025349538
 21
-1.240000025349537
 31
0.0
  0
POLYLINE
  5
76
102
{ACAD_REACTORS
330
7B
102
}
330
26
100
AcDbEntity
  8
None
  6
Continuous
 62
     0
370
     5
390
1D
100
AcDb2dPolyline
 66
     1
 10
0.0
 20
0.0
 30
0.0
 70
     1
 75
     5
  0
VERTEX
  5
77
330
76
100
AcDbEntity
  8
None
  6
Continuous
 62
     0
370
     5
390
1D
100
AcDbVertex
100
AcDb2dVertex
 10
2.197110506052805
 20
-0.2444776787981807
 30
0.0
  0
VERTEX
  5
78
330
76
100
AcDbEntity
  8
None
  6
Continuous
 62
     0
370
     5
390
1D
100
AcDbVertex
100
AcDb2dVertex
 10
2.132405744777174
 20
-0.132405744777174
 30
0.0
  0
VERTEX
  5
79
330
76
100
AcDbEntity
  8
None
  6
Continuous
 62
     0
370
     5
390
1D
100
AcDbVertex
100
AcDb2dVertex
 10
2.244477678798181
 20
-0.1971105060528042
 30
0.0
  0
SEQEND
  5
7A
330
76
100
AcDbEntity
  8
None
  6
Continuous
 62
     0
370
     5
390
1D
  0
HATCH
  5
7B
330
26
100
AcDbEntity
  8
Dimension
  6
Continuous
 62
     0
370
     0
390
1D
100
AcDbHatch
 10
0.0
 20
0.0
 30
0.0
210
0.0
220
0.0
230
1.0
  2
SOLID
 70
     1
 71
     1
 91
        1
 92
        1
 93
        3
 72
     1
 10
2.197110506052805
 20
-0.2444776787981807
 11
2.132405744777174
 21
-0.132405744777174
 72
     1
 10
2.132405744777174
 20
-0.132405744777174
 11
2.244477678798181
 21
-0.1971105060528042
 72
     1
 10
2.244477678798181
 20
-0.1971105060528042
 11
2.197110506052805
 21
-0.2444776787981807
 97
        1
330
76
 75
     0
 76
     1
 98
        1
 10
0.0
 20
0.0
  0
LINE
  5
7C
330
26
100
AcDbEntity
  8
Dimension
  6
Continuous
 62
     0
370
    -2
390
1D
100
AcDbLine
 10
3.240000025349538
 20
-1.240000025349537
 30
0.0
 11
3.476220497790438
 21
-1.240000025349537
 31
0.0
  0
MTEXT
  5
7D
330
26
100
AcDbEntity
  8
Dimension
 62
     0
390
1D
100
AcDbMText
 10
3.476220497790438
 20
-1.212593217805071
 30
0.0
 40
0.0996290272111335
 41
0.0
 46
0.0
 71
     1
 72
     1
  1
Ø
  7
Helvetica
 73
     1
 44
0.8397955333929318
  0
MTEXT
  5
7E
330
26
100
AcDbEntity
  8
Dimension
 62
     0
390
1D
100
AcDbMText
 10
3.584252730975676
 20
-1.094537662249515
 30
0.0
 40
0.0996290272111335
 41
0.0
 46
0.0
 71
     1
 72
     1
  1
.3747
  7
Helvetica
 73
     1
 44
0.8397955333929318
  0
MTEXT
  5
7F
330
26
100
AcDbEntity
  8
Dimension
 62
     0
390
1D
100
AcDbMText
 10
3.584252730975676
 20
-1.261204340027293
 30
0.0
 40
0.0996290272111335
 41
0.0
 46
0.0
 71
     1
 72
     1
  1
.3743
  7
Helvetica
 73
     1
 44
0.8397955333929318
  0
POINT
  5
80
330
26
100
AcDbEntity
  8
Defpoints
 62
     0
370
     0
390
1D
100
AcDbPoint
 10
1.867594255222826
 20
0.132405744777174
 30
0.0
  0
POINT
  5
81
330
26
100
AcDbEntity
  8
Defpoints
 62
     0
370
     0
390
1D
100
AcDbPoint
 10
2.132405744777174
 20
-0.132405744777174
 30
0.0
  0
ENDBLK
  5
82
330
26
100
AcDbEntity
  8
Dimension
390
1D
100
AcDbBlockEnd
  0
BLOCK
  5
83
330
27
100
AcDbEntity
  8
Dimension
390
1D
100
AcDbBlockBegin
  2
*D5
 70
     1
 10
0.0
 20
0.0
 30
0.0
  3
*D5
  1

  0
LINE
  5
84
330
27
100
AcDbEntity
  8
Dimension
  6
Continuous
 62
     0
370
    -2
390
1D
100
AcDbLine
 10
7.0
 20
-1.3175
 30
0.0
 11
7.0
 21
-1.6587401574803
 31
0.0
  0
LINE
  5
85
330
27
100
AcDbEntity
  8
Dimension
  6
Continuous
 62
     0
370
    -2
390
1D
100
AcDbLine
 10
8.370000000000001
 20
-1.3175
 30
0.0
 11
8.370000000000001
 21
-1.6587401574803
 31
0.0
  0
LINE
  5
86
330
27
100
AcDbEntity
  8
Dimension
  6
Continuous
 62
     0
370
    -2
390
1D
100
AcDbLine
 10
7.0
 20
-1.58
 30
0.0
 11
8.370000000000001
 21
-1.58
 31
0.0
  0
POLYLINE
  5
87
102
{ACAD_REACTORS
330
8C
102
}
330
27
100
AcDbEntity
  8
None
  6
Continuous
 62
     0
370
     5
390
1D
100
AcDb2dPolyline
 66
     1
 10
0.0
 20
0.0
 30
0.0
 70
     1
 75
     5
  0
VERTEX
  5
88
330
87
100
AcDbEntity
  8
None
  6
Continuous
 62
     0
370
     5
390
1D
100
AcDbVertex
100
AcDb2dVertex
 10
7.125
 20
-1.61349364905389
 30
0.0
  0
VERTEX
  5
89
330
87
100
AcDbEntity
  8
None
  6
Continuous
 62
     0
370
     5
390
1D
100
AcDbVertex
100
AcDb2dVertex
 10
7.0
 20
-1.58
 30
0.0
  0
VERTEX
  5
8A
330
87
100
AcDbEntity
  8
None
  6
Continuous
 62
     0
370
     5
390
1D
100
AcDbVertex
100
AcDb2dVertex
 10
7.125
 20
-1.54650635094611
 30
0.0
  0
SEQEND
  5
8B
330
87
100
AcDbEntity
  8
None
  6
Continuous
 62
     0
370
     5
390
1D
  0
HATCH
  5
8C
330
27
100
AcDbEntity
  8
Dimension
  6
Continuous
 62
     0
370
     0
390
1D
100
AcDbHatch
 10
0.0
 20
0.0
 30
0.0
210
0.0
220
0.0
230
1.0
  2
SOLID
 70
     1
 71
     1
 91
        1
 92
        1
 93
        3
 72
     1
 10
7.125
 20
-1.61349364905389
 11
7.0
 21
-1.58
 72
     1
 10
7.0
 20
-1.58
 11
7.125
 21
-1.54650635094611
 72
     1
 10
7.125
 20
-1.54650635094611
 11
7.125
 21
-1.61349364905389
 97
        1
330
87
 75
     0
 76
     1
 98
        1
 10
0.0
 20
0.0
  0
POLYLINE
  5
8D
102
{ACAD_REACTORS
330
92
102
}
330
27
100
AcDbEntity
  8
None
  6
Continuous
 62
     0
370
     5
390
1D
100
AcDb2dPolyline
 66
     1
 10
0.0
 20
0.0
 30
0.0
 70
     1
 75
     5
  0
VERTEX
  5
8E
330
8D
100
AcDbEntity
  8
None
  6
Continuous
 62
     0
370
     5
390
1D
100
AcDbVertex
100
AcDb2dVertex
 10
8.245000000000001
 20
-1.54650635094611
 30
0.0
  0
VERTEX
  5
8F
330
8D
100
AcDbEntity
  8
None
  6
Continuous
 62
     0
370
     5
390
1D
100
AcDbVertex
100
AcDb2dVertex
 10
8.370000000000001
 20
-1.58
 30
0.0
  0
VERTEX
  5
90
330
8D
100
AcDbEntity
  8
None
  6
Continuous
 62
     0
370
     5
390
1D
100
AcDbVertex
100
AcDb2dVertex
 10
8.245000000000001
 20
-1.61349364905389
 30
0.0
  0
SEQEND
  5
91
330
8D
100
AcDbEntity
  8
None
  6
Continuous
 62
     0
370
     5
390
1D
  0
HATCH
  5
92
330
27
100
AcDbEntity
  8
Dimension
  6
Continuous
 62
     0
370
     0
390
1D
100
AcDbHatch
 10
0.0
 20
0.0
 30
0.0
210
0.0
220
0.0
230
1.0
  2
SOLID
 70
     1
 71
     1
 91
        1
 92
        1
 93
        3
 72
     1
 10
8.245000000000001
 20
-1.54650635094611
 11
8.370000000000001
 21
-1.58
 72
     1
 10
8.370000000000001
 20
-1.58
 11
8.245000000000001
 21
-1.61349364905389
 72
     1
 10
8.245000000000001
 20
-1.61349364905389
 11
8.245000000000001
 21
-1.54650635094611
 97
        1
330
8D
 75
     0
 76
     1
 98
        1
 10
0.0
 20
0.0
  0
MTEXT
  5
93
330
27
100
AcDbEntity
  8
Dimension
 62
     0
390
1D
100
AcDbMText
 10
7.549841024080912
 20
-1.409056525788867
 30
0.0
 40
0.0996290272111335
 41
0.0
 46
0.0
 71
     1
 72
     1
  1
1.37
  7
Helvetica
 73
     1
 44
0.8397955333929318
  0
POINT
  5
94
330
27
100
AcDbEntity
  8
Defpoints
 62
     0
370
     0
390
1D
100
AcDbPoint
 10
8.370000000000001
 20
-1.3175
 30
0.0
  0
POINT
  5
95
330
27
100
AcDbEntity
  8
Defpoints
 62
     0
370
     0
390
1D
100
AcDbPoint
 10
7.0
 20
-1.3175
 30
0.0
  0
POINT
  5
96
330
27
100
AcDbEntity
  8
Defpoints
 62
     0
370
     0
390
1D
100
AcDbPoint
 10
7.0
 20
-1.58
 30
0.0
  0
ENDBLK
  5
97
330
27
100
AcDbEntity
  8
Dimension
390
1D
100
AcDbBlockEnd
  0
BLOCK
  5
98
330
28
100
AcDbEntity
  8
Dimension
390
1D
100
AcDbBlockBegin
  2
*D6
 70
     1
 10
0.0
 20
0.0
 30
0.0
  3
*D6
  1

  0
LINE
  5
99
330
28
100
AcDbEntity
  8
Dimension
  6
Continuous
 62
     0
370
    -2
390
1D
100
AcDbLine
 10
5.915
 20
-0.24725
 30
0.0
 11
5.915
 21
-2.0604812574803
 31
0.0
  0
LINE
  5
9A
330
28
100
AcDbEntity
  8
Dimension
  6
Continuous
 62
     0
370
    -2
390
1D
100
AcDbLine
 10
8.55
 20
-0.24725
 30
0.0
 11
8.55
 21
-2.0604812574803
 31
0.0
  0
LINE
  5
9B
330
28
100
AcDbEntity
  8
Dimension
  6
Continuous
 62
     0
370
    -2
390
1D
100
AcDbLine
 10
5.915
 20
-1.9817411
 30
0.0
 11
8.55
 21
-1.9817411
 31
0.0
  0
POLYLINE
  5
9C
102
{ACAD_REACTORS
330
A1
102
}
330
28
100
AcDbEntity
  8
None
  6
Continuous
 62
     0
370
     5
390
1D
100
AcDb2dPolyline
 66
     1
 10
0.0
 20
0.0
 30
0.0
 70
     1
 75
     5
  0
VERTEX
  5
9D
330
9C
100
AcDbEntity
  8
None
  6
Continuous
 62
     0
370
     5
390
1D
100
AcDbVertex
100
AcDb2dVertex
 10
6.04
 20
-2.01523474905389
 30
0.0
  0
VERTEX
  5
9E
330
9C
100
AcDbEntity
  8
None
  6
Continuous
 62
     0
370
     5
390
1D
100
AcDbVertex
100
AcDb2dVertex
 10
5.915
 20
-1.9817411
 30
0.0
  0
VERTEX
  5
9F
330
9C
100
AcDbEntity
  8
None
  6
Continuous
 62
     0
370
     5
390
1D
100
AcDbVertex
100
AcDb2dVertex
 10
6.04
 20
-1.94824745094611
 30
0.0
  0
SEQEND
  5
A0
330
9C
100
AcDbEntity
  8
None
  6
Continuous
 62
     0
370
     5
390
1D
  0
HATCH
  5
A1
330
28
100
AcDbEntity
  8
Dimension
  6
Continuous
 62
     0
370
     0
390
1D
100
AcDbHatch
 10
0.0
 20
0.0
 30
0.0
210
0.0
220
0.0
230
1.0
  2
SOLID
 70
     1
 71
     1
 91
        1
 92
        1
 93
        3
 72
     1
 10
6.04
 20
-2.01523474905389
 11
5.915
 21
-1.9817411
 72
     1
 10
5.915
 20
-1.9817411
 11
6.04
 21
-1.94824745094611
 72
     1
 10
6.04
 20
-1.94824745094611
 11
6.04
 21
-2.01523474905389
 97
        1
330
9C
 75
     0
 76
     1
 98
        1
 10
0.0
 20
0.0
  0
POLYLINE
  5
A2
102
{ACAD_REACTORS
330
A7
102
}
330
28
100
AcDbEntity
  8
None
  6
Continuous
 62
     0
370
     5
390
1D
100
AcDb2dPolyline
 66
     1
 10
0.0
 20
0.0
 30
0.0
 70
     1
 75
     5
  0
VERTEX
  5
A3
330
A2
100
AcDbEntity
  8
None
  6
Continuous
 62
     0
370
     5
390
1D
100
AcDbVertex
100
AcDb2dVertex
 10
8.425
 20
-1.94824745094611
 30
0.0
  0
VERTEX
  5
A4
330
A2
100
AcDbEntity
  8
None
  6
Continuous
 62
     0
370
     5
390
1D
100
AcDbVertex
100
AcDb2dVertex
 10
8.55
 20
-1.9817411
 30
0.0
  0
VERTEX
  5
A5
330
A2
100
AcDbEntity
  8
None
  6
Continuous
 62
     0
370
     5
390
1D
100
AcDbVertex
100
AcDb2dVertex
 10
8.425
 20
-2.01523474905389
 30
0.0
  0
SEQEND
  5
A6
330
A2
100
AcDbEntity
  8
None
  6
Continuous
 62
     0
370
     5
390
1D
  0
HATCH
  5
A7
330
28
100
AcDbEntity
  8
Dimension
  6
Continuous
 62
     0
370
     0
390
1D
100
AcDbHatch
 10
0.0
 20
0.0
 30
0.0
210
0.0
220
0.0
230
1.0
  2
SOLID
 70
     1
 71
     1
 91
        1
 92
        1
 93
        3
 72
     1
 10
8.425
 20
-1.94824745094611
 11
8.55
 21
-1.9817411
 72
     1
 10
8.55
 20
-1.9817411
 11
8.425
 21
-2.01523474905389
 72
     1
 10
8.425
 20
-2.01523474905389
 11
8.425
 21
-1.94824745094611
 97
        1
330
A2
 75
     0
 76
     1
 98
        1
 10
0.0
 20
0.0
  0
MTEXT
  5
A8
330
28
100
AcDbEntity
  8
Dimension
 62
     0
390
1D
100
AcDbMText
 10
6.976214755906
 20
-1.810797625788866
 30
0.0
 40
0.0996290272111335
 41
0.0
 46
0.0
 71
     1
 72
     1
  1
2.635
  7
Helvetica
 73
     1
 44
0.8397955333929318
  0
POINT
  5
A9
330
28
100
AcDbEntity
  8
Defpoints
 62
     0
370
     0
390
1D
100
AcDbPoint
 10
8.55
 20
-0.24725
 30
0.0
  0
POINT
  5
AA
330
28
100
AcDbEntity
  8
Defpoints
 62
     0
370
     0
390
1D
100
AcDbPoint
 10
5.915
 20
-0.24725
 30
0.0
  0
POINT
  5
AB
330
28
100
AcDbEntity
  8
Defpoints
 62
     0
370
     0
390
1D
100
AcDbPoint
 10
5.915
 20
-1.9817411
 30
0.0
  0
ENDBLK
  5
AC
330
28
100
AcDbEntity
  8
Dimension
390
1D
100
AcDbBlockEnd
  0
BLOCK
  5
AD
330
29
100
AcDbEntity
  8
Dimension
390
1D
100
AcDbBlockBegin
  2
*D7
 70
     1
 10
0.0
 20
0.0
 30
0.0
  3
*D7
  1

  0
LINE
  5
AE
330
29
100
AcDbEntity
  8
Dimension
  6
Continuous
 62
     0
370
    -2
390
1D
100
AcDbLine
 10
2.581587099638774
 20
1.089486780798081
 30
0.0
 11
2.693962729523153
 21
1.299999983926095
 31
0.0
  0
POLYLINE
  5
AF
102
{ACAD_REACTORS
330
B4
102
}
330
29
100
AcDbEntity
  8
None
  6
Continuous
 62
     0
370
     5
390
1D
100
AcDb2dPolyline
 66
     1
 10
0.0
 20
0.0
 30
0.0
 70
     1
 75
     5
  0
VERTEX
  5
B0
330
AF
100
AcDbEntity
  8
None
  6
Continuous
 62
     0
370
     5
390
1D
100
AcDbVertex
100
AcDb2dVertex
 10
2.671482507696109
 20
1.182576200912025
 30
0.0
  0
VERTEX
  5
B1
330
AF
100
AcDbEntity
  8
None
  6
Continuous
 62
     0
370
     5
390
1D
100
AcDbVertex
100
AcDb2dVertex
 10
2.581587099638774
 20
1.089486780798081
 30
0.0
  0
VERTEX
  5
B2
330
AF
100
AcDbEntity
  8
None
  6
Continuous
 62
     0
370
     5
390
1D
100
AcDbVertex
100
AcDb2dVertex
 10
2.612894096643023
 20
1.215052287468987
 30
0.0
  0
SEQEND
  5
B3
330
AF
100
AcDbEntity
  8
None
  6
Continuous
 62
     0
370
     5
390
1D
  0
HATCH
  5
B4
330
29
100
AcDbEntity
  8
Dimension
  6
Continuous
 62
     0
370
     0
390
1D
100
AcDbHatch
 10
0.0
 20
0.0
 30
0.0
210
0.0
220
0.0
230
1.0
  2
SOLID
 70
     1
 71
     1
 91
        1
 92
        1
 93
        3
 72
     1
 10
2.671482507696109
 20
1.182576200912025
 11
2.581587099638774
 21
1.089486780798081
 72
     1
 10
2.581587099638774
 20
1.089486780798081
 11
2.612894096643023
 21
1.215052287468987
 72
     1
 10
2.612894096643023
 20
1.215052287468987
 11
2.671482507696109
 21
1.182576200912025
 97
        1
330
AF
 75
     0
 76
     1
 98
        1
 10
0.0
 20
0.0
  0
LINE
  5
B5
330
29
100
AcDbEntity
  8
Dimension
  6
Continuous
 62
     0
370
    -2
390
1D
100
AcDbLine
 10
2.693962729523153
 20
1.299999983926095
 30
0.0
 11
2.930183201964053
 21
1.299999983926095
 31
0.0
  0
MTEXT
  5
B6
330
29
100
AcDbEntity
  8
Dimension
 62
     0
390
1D
100
AcDbMText
 10
2.930183201964053
 20
1.362129008137229
 30
0.0
 40
0.0996290272111335
 41
0.0
 46
0.0
 71
     1
 72
     1
  1
Ø 2.47
  7
Helvetica
 73
     1
 44
0.8397955333929318
  0
POINT
  5
B7
330
29
100
AcDbEntity
  8
Defpoints
 62
     0
370
     0
390
1D
100
AcDbPoint
 10
1.418412900361226
 20
-1.089486780798083
 30
0.0
  0
POINT
  5
B8
330
29
100
AcDbEntity
  8
Defpoints
 62
     0
370
     0
390
1D
100
AcDbPoint
 10
2.581587099638774
 20
1.089486780798081
 30
0.0
  0
ENDBLK
  5
B9
330
29
100
AcDbEntity
  8
Dimension
390
1D
100
AcDbBlockEnd
  0
BLOCK
  5
BA
330
2A
100
AcDbEntity
  8
Dimension
390
1D
100
AcDbBlockBegin
  2
*D8
 70
     1
 10
0.0
 20
0.0
 30
0.0
  3
*D8
  1

  0
LINE
  5
BB
330
2A
100
AcDbEntity
  8
Dimension
  6
Continuous
 62
     0
370
    -2
390
1D
100
AcDbLine
 10
2.498958246632843
 20
0.3204522868026953
 30
0.0
 11
3.23361115137502
 21
0.7922777449839841
 31
0.0
  0
POLYLINE
  5
BC
102
{ACAD_REACTORS
330
C1
102
}
330
2A
100
AcDbEntity
  8
None
  6
Continuous
 62
     0
370
     5
390
1D
100
AcDb2dPolyline
 66
     1
 10
0.0
 20
0.0
 30
0.0
 70
     1
 75
     5
  0
VERTEX
  5
BD
330
BC
100
AcDbEntity
  8
None
  6
Continuous
 62
     0
370
     5
390
1D
100
AcDbVertex
100
AcDb2dVertex
 10
2.622713188515519
 20
0.3582879695183627
 30
0.0
  0
VERTEX
  5
BE
330
BC
100
AcDbEntity
  8
None
  6
Continuous
 62
     0
370
     5
390
1D
100
AcDbVertex
100
AcDb2dVertex
 10
2.498958246632843
 20
0.3204522868026953
 30
0.0
  0
VERTEX
  5
BF
330
BC
100
AcDbEntity
  8
None
  6
Continuous
 62
     0
370
     5
390
1D
100
AcDbVertex
100
AcDb2dVertex
 10
2.587215328789273
 20
0.4150964201453292
 30
0.0
  0
SEQEND
  5
C0
330
BC
100
AcDbEntity
  8
None
  6
Continuous
 62
     0
370
     5
390
1D
  0
HATCH
  5
C1
330
2A
100
AcDbEntity
  8
Dimension
  6
Continuous
 62
     0
370
     0
390
1D
100
AcDbHatch
 10
0.0
 20
0.0
 30
0.0
210
0.0
220
0.0
230
1.0
  2
SOLID
 70
     1
 71
     1
 91
        1
 92
        1
 93
        3
 72
     1
 10
2.622713188515519
 20
0.3582879695183627
 11
2.498958246632843
 21
0.3204522868026953
 72
     1
 10
2.498958246632843
 20
0.3204522868026953
 11
2.587215328789273
 21
0.4150964201453292
 72
     1
 10
2.587215328789273
 20
0.4150964201453292
 11
2.622713188515519
 21
0.3582879695183627
 97
        1
330
BC
 75
     0
 76
     1
 98
        1
 10
0.0
 20
0.0
  0
LINE
  5
C2
330
2A
100
AcDbEntity
  8
Dimension
  6
Continuous
 62
     0
370
    -2
390
1D
100
AcDbLine
 10
3.23361115137502
 20
0.7922777449839841
 30
0.0
 11
3.46983162381592
 21
0.7922777449839841
 31
0.0
  0
MTEXT
  5
C3
330
2A
100
AcDbEntity
  8
Dimension
 62
     0
390
1D
100
AcDbMText
 10
3.46983162381592
 20
0.819684552528451
 30
0.0
 40
0.0996290272111335
 41
0.0
 46
0.0
 71
     1
 72
     1
  1
Ø
  7
Helvetica
 73
     1
 44
0.8397955333929318
  0
MTEXT
  5
C4
330
2A
100
AcDbEntity
  8
Dimension
 62
     0
390
1D
100
AcDbMText
 10
3.577863857001158
 20
0.9377401080840064
 30
0.0
 40
0.0996290272111335
 41
0.0
 46
0.0
 71
     1
 72
     1
  1
1.186
  7
Helvetica
 73
     1
 44
0.8397955333929318
  0
MTEXT
  5
C5
330
2A
100
AcDbEntity
  8
Dimension
 62
     0
390
1D
100
AcDbMText
 10
3.577863857001158
 20
0.7710734303062287
 30
0.0
 40
0.0996290272111335
 41
0.0
 46
0.0
 71
     1
 72
     1
  1
1.184
  7
Helvetica
 73
     1
 44
0.8397955333929318
  0
POINT
  5
C6
330
2A
100
AcDbEntity
  8
Defpoints
 62
     0
370
     0
390
1D
100
AcDbPoint
 10
1.501041753367157
 20
-0.3204522868026952
 30
0.0
  0
POINT
  5
C7
330
2A
100
AcDbEntity
  8
Defpoints
 62
     0
370
     0
390
1D
100
AcDbPoint
 10
2.498958246632843
 20
0.3204522868026953
 30
0.0
  0
ENDBLK
  5
C8
330
2A
100
AcDbEntity
  8
Dimension
390
1D
100
AcDbBlockEnd
  0
BLOCK
  5
C9
330
2B
100
AcDbEntity
  8
Dimension
390
1D
100
AcDbBlockBegin
  2
*D9
 70
     1
 10
0.0
 20
0.0
 30
0.0
  3
*D9
  1

  0
LINE
  5
CA
330
2B
100
AcDbEntity
  8
Dimension
  6
Continuous
 62
     0
370
    -2
390
1D
100
AcDbLine
 10
6.925
 20
0.6325000000000001
 30
0.0
 11
6.925
 21
1.5487401574803
 31
0.0
  0
LINE
  5
CB
330
2B
100
AcDbEntity
  8
Dimension
  6
Continuous
 62
     0
370
    -2
390
1D
100
AcDbLine
 10
7.0
 20
1.305
 30
0.0
 11
7.0
 21
1.5487401574803
 31
0.0
  0
LINE
  5
CC
330
2B
100
AcDbEntity
  8
Dimension
  6
Continuous
 62
     0
370
    -2
390
1D
100
AcDbLine
 10
7.0
 20
1.47
 30
0.0
 11
6.925
 21
1.47
 31
0.0
  0
LINE
  5
CD
330
2B
100
AcDbEntity
  8
Dimension
  6
Continuous
 62
     0
370
    -2
390
1D
100
AcDbLine
 10
6.925
 20
1.47
 30
0.0
 11
6.419682044850456
 21
1.47
 31
0.0
  0
POLYLINE
  5
CE
102
{ACAD_REACTORS
330
D3
102
}
330
2B
100
AcDbEntity
  8
None
  6
Continuous
 62
     0
370
     5
390
1D
100
AcDb2dPolyline
 66
     1
 10
0.0
 20
0.0
 30
0.0
 70
     1
 75
     5
  0
VERTEX
  5
CF
330
CE
100
AcDbEntity
  8
None
  6
Continuous
 62
     0
370
     5
390
1D
100
AcDbVertex
100
AcDb2dVertex
 10
6.8
 20
1.50349364905389
 30
0.0
  0
VERTEX
  5
D0
330
CE
100
AcDbEntity
  8
None
  6
Continuous
 62
     0
370
     5
390
1D
100
AcDbVertex
100
AcDb2dVertex
 10
6.925
 20
1.47
 30
0.0
  0
VERTEX
  5
D1
330
CE
100
AcDbEntity
  8
None
  6
Continuous
 62
     0
370
     5
390
1D
100
AcDbVertex
100
AcDb2dVertex
 10
6.8
 20
1.43650635094611
 30
0.0
  0
SEQEND
  5
D2
330
CE
100
AcDbEntity
  8
None
  6
Continuous
 62
     0
370
     5
390
1D
  0
HATCH
  5
D3
330
2B
100
AcDbEntity
  8
Dimension
  6
Continuous
 62
     0
370
     0
390
1D
100
AcDbHatch
 10
0.0
 20
0.0
 30
0.0
210
0.0
220
0.0
230
1.0
  2
SOLID
 70
     1
 71
     1
 91
        1
 92
        1
 93
        3
 72
     1
 10
6.8
 20
1.50349364905389
 11
6.925
 21
1.47
 72
     1
 10
6.925
 20
1.47
 11
6.8
 21
1.43650635094611
 72
     1
 10
6.8
 20
1.43650635094611
 11
6.8
 21
1.50349364905389
 97
        1
330
CE
 75
     0
 76
     1
 98
        1
 10
0.0
 20
0.0
  0
LINE
  5
D4
330
2B
100
AcDbEntity
  8
Dimension
  6
Continuous
 62
     0
370
    -2
390
1D
100
AcDbLine
 10
7.0
 20
1.47
 30
0.0
 11
7.2755905511811
 21
1.47
 31
0.0
  0
POLYLINE
  5
D5
102
{ACAD_REACTORS
330
DA
102
}
330
2B
100
AcDbEntity
  8
None
  6
Continuous
 62
     0
370
     5
390
1D
100
AcDb2dPolyline
 66
     1
 10
0.0
 20
0.0
 30
0.0
 70
     1
 75
     5
  0
VERTEX
  5
D6
330
D5
100
AcDbEntity
  8
None
  6
Continuous
 62
     0
370
     5
390
1D
100
AcDbVertex
100
AcDb2dVertex
 10
7.125
 20
1.43650635094611
 30
0.0
  0
VERTEX
  5
D7
330
D5
100
AcDbEntity
  8
None
  6
Continuous
 62
     0
370
     5
390
1D
100
AcDbVertex
100
AcDb2dVertex
 10
7.0
 20
1.47
 30
0.0
  0
VERTEX
  5
D8
330
D5
100
AcDbEntity
  8
None
  6
Continuous
 62
     0
370
     5
390
1D
100
AcDbVertex
100
AcDb2dVertex
 10
7.125
 20
1.50349364905389
 30
0.0
  0
SEQEND
  5
D9
330
D5
100
AcDbEntity
  8
None
  6
Continuous
 62
     0
370
     5
390
1D
  0
HATCH
  5
DA
330
2B
100
AcDbEntity
  8
Dimension
  6
Continuous
 62
     0
370
     0
390
1D
100
AcDbHatch
 10
0.0
 20
0.0
 30
0.0
210
0.0
220
0.0
230
1.0
  2
SOLID
 70
     1
 71
     1
 91
        1
 92
        1
 93
        3
 72
     1
 10
7.125
 20
1.43650635094611
 11
7.0
 21
1.47
 72
     1
 10
7.0
 20
1.47
 11
7.125
 21
1.50349364905389
 72
     1
 10
7.125
 20
1.50349364905389
 11
7.125
 21
1.43650635094611
 97
        1
330
D5
 75
     0
 76
     1
 98
        1
 10
0.0
 20
0.0
  0
MTEXT
  5
DB
330
2B
100
AcDbEntity
  8
Dimension
 62
     0
390
1D
100
AcDbMText
 10
6.419682044850456
 20
1.640943474211133
 30
0.0
 40
0.0996290272111335
 41
0.0
 46
0.0
 71
     1
 72
     1
  1
.075
  7
Helvetica
 73
     1
 44
0.8397955333929318
  0
POINT
  5
DC
330
2B
100
AcDbEntity
  8
Defpoints
 62
     0
370
     0
390
1D
100
AcDbPoint
 10
7.0
 20
1.305
 30
0.0
  0
POINT
  5
DD
330
2B
100
AcDbEntity
  8
Defpoints
 62
     0
370
     0
390
1D
100
AcDbPoint
 10
6.925
 20
0.6325000000000001
 30
0.0
  0
POINT
  5
DE
330
2B
100
AcDbEntity
  8
Defpoints
 62
     0
370
     0
390
1D
100
AcDbPoint
 10
6.925
 20
1.47
 30
0.0
  0
ENDBLK
  5
DF
330
2B
100
AcDbEntity
  8
Dimension
390
1D
100
AcDbBlockEnd
  0
BLOCK
  5
E0
330
2C
100
AcDbEntity
  8
Dimension
390
1D
100
AcDbBlockBegin
  2
*D10
 70
     1
 10
0.0
 20
0.0
 30
0.0
  3
*D10
  1

  0
LINE
  5
E1
330
2C
100
AcDbEntity
  8
Dimension
  6
Continuous
 62
     0
370
    -2
390
1D
100
AcDbLine
 10
5.915
 20
0.217
 30
0.0
 11
5.915
 21
1.9987401574803
 31
0.0
  0
LINE
  5
E2
330
2C
100
AcDbEntity
  8
Dimension
  6
Continuous
 62
     0
370
    -2
390
1D
100
AcDbLine
 10
7.0
 20
1.285
 30
0.0
 11
7.0
 21
1.9987401574803
 31
0.0
  0
LINE
  5
E3
330
2C
100
AcDbEntity
  8
Dimension
  6
Continuous
 62
     0
370
    -2
390
1D
100
AcDbLine
 10
5.915
 20
1.92
 30
0.0
 11
7.0
 21
1.92
 31
0.0
  0
POLYLINE
  5
E4
102
{ACAD_REACTORS
330
E9
102
}
330
2C
100
AcDbEntity
  8
None
  6
Continuous
 62
     0
370
     5
390
1D
100
AcDb2dPolyline
 66
     1
 10
0.0
 20
0.0
 30
0.0
 70
     1
 75
     5
  0
VERTEX
  5
E5
330
E4
100
AcDbEntity
  8
None
  6
Continuous
 62
     0
370
     5
390
1D
100
AcDbVertex
100
AcDb2dVertex
 10
6.04
 20
1.88650635094611
 30
0.0
  0
VERTEX
  5
E6
330
E4
100
AcDbEntity
  8
None
  6
Continuous
 62
     0
370
     5
390
1D
100
AcDbVertex
100
AcDb2dVertex
 10
5.915
 20
1.92
 30
0.0
  0
VERTEX
  5
E7
330
E4
100
AcDbEntity
  8
None
  6
Continuous
 62
     0
370
     5
390
1D
100
AcDbVertex
100
AcDb2dVertex
 10
6.04
 20
1.953493649053891
 30
0.0
  0
SEQEND
  5
E8
330
E4
100
AcDbEntity
  8
None
  6
Continuous
 62
     0
370
     5
390
1D
  0
HATCH
  5
E9
330
2C
100
AcDbEntity
  8
Dimension
  6
Continuous
 62
     0
370
     0
390
1D
100
AcDbHatch
 10
0.0
 20
0.0
 30
0.0
210
0.0
220
0.0
230
1.0
  2
SOLID
 70
     1
 71
     1
 91
        1
 92
        1
 93
        3
 72
     1
 10
6.04
 20
1.88650635094611
 11
5.915
 21
1.92
 72
     1
 10
5.915
 20
1.92
 11
6.04
 21
1.953493649053891
 72
     1
 10
6.04
 20
1.953493649053891
 11
6.04
 21
1.88650635094611
 97
        1
330
E4
 75
     0
 76
     1
 98
        1
 10
0.0
 20
0.0
  0
POLYLINE
  5
EA
102
{ACAD_REACTORS
330
EF
102
}
330
2C
100
AcDbEntity
  8
None
  6
Continuous
 62
     0
370
     5
390
1D
100
AcDb2dPolyline
 66
     1
 10
0.0
 20
0.0
 30
0.0
 70
     1
 75
     5
  0
VERTEX
  5
EB
330
EA
100
AcDbEntity
  8
None
  6
Continuous
 62
     0
370
     5
390
1D
100
AcDbVertex
100
AcDb2dVertex
 10
6.875
 20
1.953493649053891
 30
0.0
  0
VERTEX
  5
EC
330
EA
100
AcDbEntity
  8
None
  6
Continuous
 62
     0
370
     5
390
1D
100
AcDbVertex
100
AcDb2dVertex
 10
7.0
 20
1.92
 30
0.0
  0
VERTEX
  5
ED
330
EA
100
AcDbEntity
  8
None
  6
Continuous
 62
     0
370
     5
390
1D
100
AcDbVertex
100
AcDb2dVertex
 10
6.875
 20
1.88650635094611
 30
0.0
  0
SEQEND
  5
EE
330
EA
100
AcDbEntity
  8
None
  6
Continuous
 62
     0
370
     5
390
1D
  0
HATCH
  5
EF
330
2C
100
AcDbEntity
  8
Dimension
  6
Continuous
 62
     0
370
     0
390
1D
100
AcDbHatch
 10
0.0
 20
0.0
 30
0.0
210
0.0
220
0.0
230
1.0
  2
SOLID
 70
     1
 71
     1
 91
        1
 92
        1
 93
        3
 72
     1
 10
6.875
 20
1.953493649053891
 11
7.0
 21
1.92
 72
     1
 10
7.0
 20
1.92
 11
6.875
 21
1.88650635094611
 72
     1
 10
6.875
 20
1.88650635094611
 11
6.875
 21
1.953493649053891
 97
        1
330
EA
 75
     0
 76
     1
 98
        1
 10
0.0
 20
0.0
  0
MTEXT
  5
F0
330
2C
100
AcDbEntity
  8
Dimension
 62
     0
390
1D
100
AcDbMText
 10
6.283719333542718
 20
2.090943474211134
 30
0.0
 40
0.0996290272111335
 41
0.0
 46
0.0
 71
     1
 72
     1
  1
1.085
  7
Helvetica
 73
     1
 44
0.8397955333929318
  0
POINT
  5
F1
330
2C
100
AcDbEntity
  8
Defpoints
 62
     0
370
     0
390
1D
100
AcDbPoint
 10
7.0
 20
1.285
 30
0.0
  0
POINT
  5
F2
330
2C
100
AcDbEntity
  8
Defpoints
 62
     0
370
     0
390
1D
100
AcDbPoint
 10
5.915
 20
0.217
 30
0.0
  0
POINT
  5
F3
330
2C
100
AcDbEntity
  8
Defpoints
 62
     0
370
     0
390
1D
100
AcDbPoint
 10
5.915
 20
1.92
 30
0.0
  0
ENDBLK
  5
F4
330
2C
100
AcDbEntity
  8
Dimension
390
1D
100
AcDbBlockEnd
  0
BLOCK
  5
F5
330
2D
100
AcDbEntity
  8
Dimension
390
1D
100
AcDbBlockBegin
  2
*D11
 70
     1
 10
0.0
 20
0.0
 30
0.0
  3
*D11
  1

  0
LINE
  5
F6
330
2D
100
AcDbEntity
  8
Dimension
  6
Continuous
 62
     0
370
    -2
390
1D
100
AcDbLine
 10
8.55
 20
0.26725
 30
0.0
 11
8.55
 21
1.6287401574803
 31
0.0
  0
LINE
  5
F7
330
2D
100
AcDbEntity
  8
Dimension
  6
Continuous
 62
     0
370
    -2
390
1D
100
AcDbLine
 10
8.370000000000001
 20
1.315
 30
0.0
 11
8.370000000000001
 21
1.6287401574803
 31
0.0
  0
LINE
  5
F8
330
2D
100
AcDbEntity
  8
Dimension
  6
Continuous
 62
     0
370
    -2
390
1D
100
AcDbLine
 10
8.370000000000001
 20
1.55
 30
0.0
 11
8.55
 21
1.55
 31
0.0
  0
LINE
  5
F9
330
2D
100
AcDbEntity
  8
Dimension
  6
Continuous
 62
     0
370
    -2
390
1D
100
AcDbLine
 10
8.55
 20
1.55
 30
0.0
 11
8.97307456082768
 21
1.55
 31
0.0
  0
POLYLINE
  5
FA
102
{ACAD_REACTORS
330
FF
102
}
330
2D
100
AcDbEntity
  8
None
  6
Continuous
 62
     0
370
     5
390
1D
100
AcDb2dPolyline
 66
     1
 10
0.0
 20
0.0
 30
0.0
 70
     1
 75
     5
  0
VERTEX
  5
FB
330
FA
100
AcDbEntity
  8
None
  6
Continuous
 62
     0
370
     5
390
1D
100
AcDbVertex
100
AcDb2dVertex
 10
8.675
 20
1.51650635094611
 30
0.0
  0
VERTEX
  5
FC
330
FA
100
AcDbEntity
  8
None
  6
Continuous
 62
     0
370
     5
390
1D
100
AcDbVertex
100
AcDb2dVertex
 10
8.55
 20
1.55
 30
0.0
  0
VERTEX
  5
FD
330
FA
100
AcDbEntity
  8
None
  6
Continuous
 62
     0
370
     5
390
1D
100
AcDbVertex
100
AcDb2dVertex
 10
8.675
 20
1.58349364905389
 30
0.0
  0
SEQEND
  5
FE
330
FA
100
AcDbEntity
  8
None
  6
Continuous
 62
     0
370
     5
390
1D
  0
HATCH
  5
FF
330
2D
100
AcDbEntity
  8
Dimension
  6
Continuous
 62
     0
370
     0
390
1D
100
AcDbHatch
 10
0.0
 20
0.0
 30
0.0
210
0.0
220
0.0
230
1.0
  2
SOLID
 70
     1
 71
     1
 91
        1
 92
        1
 93
        3
 72
     1
 10
8.675
 20
1.51650635094611
 11
8.55
 21
1.55
 72
     1
 10
8.55
 20
1.55
 11
8.675
 21
1.58349364905389
 72
     1
 10
8.675
 20
1.58349364905389
 11
8.675
 21
1.51650635094611
 97
        1
330
FA
 75
     0
 76
     1
 98
        1
 10
0.0
 20
0.0
  0
LINE
  5
100
330
2D
100
AcDbEntity
  8
Dimension
  6
Continuous
 62
     0
370
    -2
390
1D
100
AcDbLine
 10
8.370000000000001
 20
1.55
 30
0.0
 11
8.094409448818901
 21
1.55
 31
0.0
  0
POLYLINE
  5
101
102
{ACAD_REACTORS
330
106
102
}
330
2D
100
AcDbEntity
  8
None
  6
Continuous
 62
     0
370
     5
390
1D
100
AcDb2dPolyline
 66
     1
 10
0.0
 20
0.0
 30
0.0
 70
     1
 75
     5
  0
VERTEX
  5
102
330
101
100
AcDbEntity
  8
None
  6
Continuous
 62
     0
370
     5
390
1D
100
AcDbVertex
100
AcDb2dVertex
 10
8.245000000000001
 20
1.58349364905389
 30
0.0
  0
VERTEX
  5
103
330
101
100
AcDbEntity
  8
None
  6
Continuous
 62
     0
370
     5
390
1D
100
AcDbVertex
100
AcDb2dVertex
 10
8.370000000000001
 20
1.55
 30
0.0
  0
VERTEX
  5
104
330
101
100
AcDbEntity
  8
None
  6
Continuous
 62
     0
370
     5
390
1D
100
AcDbVertex
100
AcDb2dVertex
 10
8.245000000000001
 20
1.51650635094611
 30
0.0
  0
SEQEND
  5
105
330
101
100
AcDbEntity
  8
None
  6
Continuous
 62
     0
370
     5
390
1D
  0
HATCH
  5
106
330
2D
100
AcDbEntity
  8
Dimension
  6
Continuous
 62
     0
370
     0
390
1D
100
AcDbHatch
 10
0.0
 20
0.0
 30
0.0
210
0.0
220
0.0
230
1.0
  2
SOLID
 70
     1
 71
     1
 91
        1
 92
        1
 93
        3
 72
     1
 10
8.245000000000001
 20
1.58349364905389
 11
8.370000000000001
 21
1.55
 72
     1
 10
8.370000000000001
 20
1.55
 11
8.245000000000001
 21
1.51650635094611
 72
     1
 10
8.245000000000001
 20
1.51650635094611
 11
8.245000000000001
 21
1.58349364905389
 97
        1
330
101
 75
     0
 76
     1
 98
        1
 10
0.0
 20
0.0
  0
MTEXT
  5
107
330
2D
100
AcDbEntity
  8
Dimension
 62
     0
390
1D
100
AcDbMText
 10
8.78
 20
1.720943474211133
 30
0.0
 40
0.0996290272111335
 41
0.0
 46
0.0
 71
     1
 72
     1
  1
.18
  7
Helvetica
 73
     1
 44
0.8397955333929318
  0
POINT
  5
108
330
2D
100
AcDbEntity
  8
Defpoints
 62
     0
370
     0
390
1D
100
AcDbPoint
 10
8.370000000000001
 20
1.315
 30
0.0
  0
POINT
  5
109
330
2D
100
AcDbEntity
  8
Defpoints
 62
     0
370
     0
390
1D
100
AcDbPoint
 10
8.55
 20
0.26725
 30
0.0
  0
POINT
  5
10A
330
2D
100
AcDbEntity
  8
Defpoints
 62
     0
370
     0
390
1D
100
AcDbPoint
 10
8.55
 20
1.55
 30
0.0
  0
ENDBLK
  5
10B
330
2D
100
AcDbEntity
  8
Dimension
390
1D
100
AcDbBlockEnd
  0
BLOCK
  5
10C
330
2E
100
AcDbEntity
  8
None
390
1D
100
AcDbBlockBegin
  2
Group-3
 70
     0
 10
0.0
 20
0.0
 30
0.0
  3
Group-3
  1

  0
POLYLINE
  5
10D
330
2E
100
AcDbEntity
  8
None
  6
Continuous
 62
     7
370
    13
390
1D
100
AcDb2dPolyline
 66
     1
 10
0.0
 20
0.0
 30
0.0
 70
     1
 75
     5
  0
VERTEX
  5
10E
330
10D
100
AcDbEntity
  8
None
  6
Continuous
 62
     7
370
    13
390
1D
100
AcDbVertex
100
AcDb2dVertex
 10
2.0
 20
1.0463
 30
0.0
  0
VERTEX
  5
10F
330
10D
100
AcDbEntity
  8
None
  6
Continuous
 62
     7
370
    13
390
1D
100
AcDbVertex
100
AcDb2dVertex
 10
2.0
 20
1.1567
 30
0.0
  0
VERTEX
  5
110
330
10D
100
AcDbEntity
  8
None
  6
Continuous
 62
     7
370
    13
390
1D
100
AcDbVertex
100
AcDb2dVertex
 10
2.3327552
 20
1.1567
 30
0.0
  0
VERTEX
  5
111
330
10D
100
AcDbEntity
  8
None
  6
Continuous
 62
     7
370
    13
390
1D
100
AcDbVertex
100
AcDb2dVertex
 10
2.3327552
 20
1.0463
 30
0.0
  0
SEQEND
  5
112
330
10D
100
AcDbEntity
  8
None
  6
Continuous
 62
     7
370
    13
390
1D
  0
POLYLINE
  5
114
330
2E
100
AcDbEntity
  8
None
  6
Continuous
 62
     7
370
    13
390
1D
100
AcDb2dPolyline
 66
     1
 10
0.0
 20
0.0
 30
0.0
 70
     1
 75
     5
  0
VERTEX
  5
115
330
114
100
AcDbEntity
  8
None
  6
Continuous
 62
     7
370
    13
390
1D
100
AcDbVertex
100
AcDb2dVertex
 10
2.3327552
 20
1.0463
 30
0.0
  0
VERTEX
  5
116
330
114
100
AcDbEntity
  8
None
  6
Continuous
 62
     7
370
    13
390
1D
100
AcDbVertex
100
AcDb2dVertex
 10
2.3327552
 20
1.0463
 30
0.0
  0
VERTEX
  5
117
330
114
100
AcDbEntity
  8
None
  6
Continuous
 62
     7
370
    13
390
1D
100
AcDbVertex
100
AcDb2dVertex
 10
2.3646249
 20
1.1015
 30
0.0
  0
VERTEX
  5
118
330
114
100
AcDbEntity
  8
None
  6
Continuous
 62
     7
370
    13
390
1D
100
AcDbVertex
100
AcDb2dVertex
 10
2.3327552
 20
1.1567
 30
0.0
  0
SEQEND
  5
119
330
114
100
AcDbEntity
  8
None
  6
Continuous
 62
     7
370
    13
390
1D
  0
POLYLINE
  5
11B
330
2E
100
AcDbEntity
  8
None
  6
STYLE_02
 62
     7
370
    13
390
1D
100
AcDb2dPolyline
 66
     1
 10
0.0
 20
0.0
 30
0.0
 75
     5
  0
VERTEX
  5
11C
330
11B
100
AcDbEntity
  8
None
  6
STYLE_02
 62
     7
370
    13
390
1D
100
AcDbVertex
100
AcDb2dVertex
 10
2.0
 20
1.0325
 30
0.0
  0
VERTEX
  5
11D
330
11B
100
AcDbEntity
  8
None
  6
STYLE_02
 62
     7
370
    13
390
1D
100
AcDbVertex
100
AcDb2dVertex
 10
2.312
 20
1.0325
 30
0.0
  0
VERTEX
  5
11E
330
11B
100
AcDbEntity
  8
None
  6
STYLE_02
 62
     7
370
    13
390
1D
100
AcDbVertex
100
AcDb2dVertex
 10
2.312
 20
1.1705
 30
0.0
  0
VERTEX
  5
11F
330
11B
100
AcDbEntity
  8
None
  6
STYLE_02
 62
     7
370
    13
390
1D
100
AcDbVertex
100
AcDb2dVertex
 10
2.0
 20
1.1705
 30
0.0
  0
SEQEND
  5
120
330
11B
100
AcDbEntity
  8
None
  6
STYLE_02
 62
     7
370
    13
390
1D
  0
ENDBLK
  5
122
330
2E
100
AcDbEntity
  8
None
390
1D
100
AcDbBlockEnd
  0
BLOCK
  5
123
330
2F
100
AcDbEntity
  8
None
390
1D
100
AcDbBlockBegin
  2
Group-4
 70
     0
 10
0.0
 20
0.0
 30
0.0
  3
Group-4
  1

  0
INSERT
  5
124
330
2F
100
AcDbEntity
  8
None
 62
     7
390
1D
100
AcDbBlockReference
  2
Group-3
 10
0.0
 20
0.0
 30
0.0
  0
LINE
  5
125
330
2F
100
AcDbEntity
  8
None
  6
STYLE_09
 62
     7
370
    13
390
1D
100
AcDbLine
 10
1.9651875
 20
1.1015
 30
0.0
 11
2.3988124
 21
1.1015
 31
0.0
  0
ENDBLK
  5
126
330
2F
100
AcDbEntity
  8
None
390
1D
100
AcDbBlockEnd
  0
BLOCK
  5
127
330
30
100
AcDbEntity
  8
None
390
1D
100
AcDbBlockBegin
  2
Group-5
 70
     0
 10
0.0
 20
0.0
 30
0.0
  3
Group-5
  1

  0
POLYLINE
  5
128
330
30
100
AcDbEntity
  8
None
  6
Continuous
 62
     7
370
    13
390
1D
100
AcDb2dPolyline
 66
     1
 10
0.0
 20
0.0
 30
0.0
 70
     1
 75
     5
  0
VERTEX
  5
129
330
128
100
AcDbEntity
  8
None
  6
Continuous
 62
     7
370
    13
390
1D
100
AcDbVertex
100
AcDb2dVertex
 10
3.37
 20
1.0463
 30
0.0
  0
VERTEX
  5
12A
330
128
100
AcDbEntity
  8
None
  6
Continuous
 62
     7
370
    13
390
1D
100
AcDbVertex
100
AcDb2dVertex
 10
3.37
 20
1.1567
 30
0.0
  0
VERTEX
  5
12B
330
128
100
AcDbEntity
  8
None
  6
Continuous
 62
     7
370
    13
390
1D
100
AcDbVertex
100
AcDb2dVertex
 10
3.0372448
 20
1.1567
 30
0.0
  0
VERTEX
  5
12C
330
128
100
AcDbEntity
  8
None
  6
Continuous
 62
     7
370
    13
390
1D
100
AcDbVertex
100
AcDb2dVertex
 10
3.0372448
 20
1.0463
 30
0.0
  0
SEQEND
  5
12D
330
128
100
AcDbEntity
  8
None
  6
Continuous
 62
     7
370
    13
390
1D
  0
POLYLINE
  5
12F
330
30
100
AcDbEntity
  8
None
  6
Continuous
 62
     7
370
    13
390
1D
100
AcDb2dPolyline
 66
     1
 10
0.0
 20
0.0
 30
0.0
 70
     1
 75
     5
  0
VERTEX
  5
130
330
12F
100
AcDbEntity
  8
None
  6
Continuous
 62
     7
370
    13
390
1D
100
AcDbVertex
100
AcDb2dVertex
 10
3.0372448
 20
1.0463
 30
0.0
  0
VERTEX
  5
131
330
12F
100
AcDbEntity
  8
None
  6
Continuous
 62
     7
370
    13
390
1D
100
AcDbVertex
100
AcDb2dVertex
 10
3.0372448
 20
1.0463
 30
0.0
  0
VERTEX
  5
132
330
12F
100
AcDbEntity
  8
None
  6
Continuous
 62
     7
370
    13
390
1D
100
AcDbVertex
100
AcDb2dVertex
 10
3.0053751
 20
1.1015
 30
0.0
  0
VERTEX
  5
133
330
12F
100
AcDbEntity
  8
None
  6
Continuous
 62
     7
370
    13
390
1D
100
AcDbVertex
100
AcDb2dVertex
 10
3.0372448
 20
1.1567
 30
0.0
  0
SEQEND
  5
134
330
12F
100
AcDbEntity
  8
None
  6
Continuous
 62
     7
370
    13
390
1D
  0
POLYLINE
  5
136
330
30
100
AcDbEntity
  8
None
  6
STYLE_02
 62
     7
370
    13
390
1D
100
AcDb2dPolyline
 66
     1
 10
0.0
 20
0.0
 30
0.0
 75
     5
  0
VERTEX
  5
137
330
136
100
AcDbEntity
  8
None
  6
STYLE_02
 62
     7
370
    13
390
1D
100
AcDbVertex
100
AcDb2dVertex
 10
3.37
 20
1.0325
 30
0.0
  0
VERTEX
  5
138
330
136
100
AcDbEntity
  8
None
  6
STYLE_02
 62
     7
370
    13
390
1D
100
AcDbVertex
100
AcDb2dVertex
 10
3.058
 20
1.0325
 30
0.0
  0
VERTEX
  5
139
330
136
100
AcDbEntity
  8
None
  6
STYLE_02
 62
     7
370
    13
390
1D
100
AcDbVertex
100
AcDb2dVertex
 10
3.058
 20
1.1705
 30
0.0
  0
VERTEX
  5
13A
330
136
100
AcDbEntity
  8
None
  6
STYLE_02
 62
     7
370
    13
390
1D
100
AcDbVertex
100
AcDb2dVertex
 10
3.37
 20
1.1705
 30
0.0
  0
SEQEND
  5
13B
330
136
100
AcDbEntity
  8
None
  6
STYLE_02
 62
     7
370
    13
390
1D
  0
LINE
  5
13D
330
30
100
AcDbEntity
  8
None
  6
STYLE_09
 62
     7
370
    13
390
1D
100
AcDbLine
 10
3.4076247
 20
1.1015
 30
0.0
 11
2.9739998
 21
1.1015
 31
0.0
  0
ENDBLK
  5
13E
330
30
100
AcDbEntity
  8
None
390
1D
100
AcDbBlockEnd
  0
BLOCK
  5
13F
330
31
100
AcDbEntity
  8
Dimension
390
1D
100
AcDbBlockBegin
  2
Group-6
 70
     0
 10
0.0
 20
0.0
 30
0.0
  3
Group-6
  1

  0
LINE
  5
140
330
31
100
AcDbEntity
  8
None
  6
Continuous
 62
     7
370
    13
390
1D
100
AcDbLine
 10
-3.098425
 20
0.0
 30
0.0
 11
-2.901575
 21
0.0
 31
0.0
  0
LINE
  5
141
330
31
100
AcDbEntity
  8
None
  6
Continuous
 62
     7
370
    13
390
1D
100
AcDbLine
 10
-3.0
 20
-0.098425
 30
0.0
 11
-3.0
 21
0.098425
 31
0.0
  0
LINE
  5
142
330
31
100
AcDbEntity
  8
None
  6
Continuous
 62
     7
370
    13
390
1D
100
AcDbLine
 10
-4.35311
 20
0.0
 30
0.0
 11
-3.177165
 21
0.0
 31
0.0
  0
LINE
  5
143
330
31
100
AcDbEntity
  8
None
  6
Continuous
 62
     7
370
    13
390
1D
100
AcDbLine
 10
-2.822835
 20
0.0
 30
0.0
 11
-1.64689
 21
0.0
 31
0.0
  0
LINE
  5
144
330
31
100
AcDbEntity
  8
None
  6
Continuous
 62
     7
370
    13
390
1D
100
AcDbLine
 10
-3.0
 20
1.35311
 30
0.0
 11
-3.0
 21
0.177165
 31
0.0
  0
LINE
  5
145
330
31
100
AcDbEntity
  8
None
  6
Continuous
 62
     7
370
    13
390
1D
100
AcDbLine
 10
-3.0
 20
-0.177165
 30
0.0
 11
-3.0
 21
-1.35311
 31
0.0
  0
ENDBLK
  5
146
330
31
100
AcDbEntity
  8
Dimension
390
1D
100
AcDbBlockEnd
  0
BLOCK
  5
147
330
32
100
AcDbEntity
  8
None
390
1D
100
AcDbBlockBegin
  2
Group-7
 70
     0
 10
0.0
 20
0.0
 30
0.0
  3
Group-7
  1

  0
LINE
  5
148
330
32
100
AcDbEntity
  8
None
  6
Continuous
 62
     7
370
    13
390
1D
100
AcDbLine
 10
-3.199
 20
1.1015
 30
0.0
 11
-3.1245
 21
1.1015
 31
0.0
  0
LINE
  5
149
330
32
100
AcDbEntity
  8
None
  6
Continuous
 62
     7
370
    13
390
1D
100
AcDbLine
 10
-2.8755
 20
1.1015
 30
0.0
 11
-2.801
 21
1.1015
 31
0.0
  0
LINE
  5
14A
330
32
100
AcDbEntity
  8
None
  6
Continuous
 62
     7
370
    13
390
1D
100
AcDbLine
 10
-3.0345
 20
1.1015
 30
0.0
 11
-2.9655
 21
1.1015
 31
0.0
  0
LINE
  5
14B
330
32
100
AcDbEntity
  8
None
  6
Continuous
 62
     7
370
    13
390
1D
100
AcDbLine
 10
-3.0
 20
0.9024999999999997
 30
0.0
 11
-3.0
 21
0.977
 31
0.0
  0
LINE
  5
14C
330
32
100
AcDbEntity
  8
None
  6
Continuous
 62
     7
370
    13
390
1D
100
AcDbLine
 10
-3.0
 20
1.226
 30
0.0
 11
-3.0
 21
1.3005
 31
0.0
  0
LINE
  5
14D
330
32
100
AcDbEntity
  8
None
  6
Continuous
 62
     7
370
    13
390
1D
100
AcDbLine
 10
-3.0
 20
1.067
 30
0.0
 11
-3.0
 21
1.136
 31
0.0
  0
ENDBLK
  5
14E
330
32
100
AcDbEntity
  8
None
390
1D
100
AcDbBlockEnd
  0
BLOCK
  5
14F
330
33
100
AcDbEntity
  8
None
390
1D
100
AcDbBlockBegin
  2
Group-8
 70
     0
 10
0.0
 20
0.0
 30
0.0
  3
Group-8
  1

  0
CIRCLE
  5
150
330
33
100
AcDbEntity
  8
None
  6
Continuous
 62
     7
370
    13
390
1D
100
AcDbCircle
 10
-3.0
 20
1.1015
 30
0.0
 40
0.0551999999999999
  0
CIRCLE
  5
151
330
33
100
AcDbEntity
  8
None
  6
STYLE_02
 62
     7
370
    13
390
1D
100
AcDbCircle
 10
-3.0
 20
1.1015
 30
0.0
 40
0.0689999999999995
  0
INSERT
  5
152
330
33
100
AcDbEntity
  8
None
 62
     7
390
1D
100
AcDbBlockReference
  2
Group-7
 10
0.0
 20
0.0
 30
0.0
  0
ENDBLK
  5
153
330
33
100
AcDbEntity
  8
None
390
1D
100
AcDbBlockEnd
  0
BLOCK
  5
154
330
34
100
AcDbEntity
  8
None
390
1D
100
AcDbBlockBegin
  2
Group-9
 70
     0
 10
0.0
 20
0.0
 30
0.0
  3
Group-9
  1

  0
LINE
  5
155
330
34
100
AcDbEntity
  8
None
  6
Continuous
 62
     7
370
    13
390
1D
100
AcDbLine
 10
-3.854426982268559
 20
-0.7230890553531037
 30
0.0
 11
-3.891676982268559
 21
-0.6585701627711625
 31
0.0
  0
LINE
  5
156
330
34
100
AcDbEntity
  8
None
  6
Continuous
 62
     7
370
    13
390
1D
100
AcDbLine
 10
-4.016176982268559
 20
-0.4429298372288379
 30
0.0
 11
-4.053426982268559
 21
-0.3784109446468968
 31
0.0
  0
LINE
  5
157
330
34
100
AcDbEntity
  8
None
  6
Continuous
 62
     7
370
    13
390
1D
100
AcDbLine
 10
-3.936676982268559
 20
-0.5806278764305633
 30
0.0
 11
-3.971176982268559
 21
-0.5208721235694371
 31
0.0
  0
LINE
  5
158
330
34
100
AcDbEntity
  8
None
  6
Continuous
 62
     7
370
    13
390
1D
100
AcDbLine
 10
-3.781587926915456
 20
-0.4512500000000001
 30
0.0
 11
-3.846106819497396
 21
-0.4885000000000002
 31
0.0
  0
LINE
  5
159
330
34
100
AcDbEntity
  8
None
  6
Continuous
 62
     7
370
    13
390
1D
100
AcDbLine
 10
-4.061747145039721
 20
-0.6129999999999998
 30
0.0
 11
-4.126266037621662
 21
-0.6502499999999999
 31
0.0
  0
LINE
  5
15A
330
34
100
AcDbEntity
  8
None
  6
Continuous
 62
     7
370
    13
390
1D
100
AcDbLine
 10
-3.924049105837996
 20
-0.5335000000000003
 30
0.0
 11
-3.983804858699122
 21
-0.5680000000000003
 31
0.0
  0
ENDBLK
  5
15B
330
34
100
AcDbEntity
  8
None
390
1D
100
AcDbBlockEnd
  0
BLOCK
  5
15C
330
35
100
AcDbEntity
  8
None
390
1D
100
AcDbBlockBegin
  2
Group-10
 70
     0
 10
0.0
 20
0.0
 30
0.0
  3
Group-10
  1

  0
CIRCLE
  5
15D
330
35
100
AcDbEntity
  8
None
  6
Continuous
 62
     7
370
    13
390
1D
100
AcDbCircle
 10
-3.953926982268559
 20
-0.55075
 30
0.0
 40
0.0552
  0
CIRCLE
  5
15E
330
35
100
AcDbEntity
  8
None
  6
STYLE_02
 62
     7
370
    13
390
1D
100
AcDbCircle
 10
-3.953926982268559
 20
-0.55075
 30
0.0
 40
0.0689999999999995
  0
INSERT
  5
15F
330
35
100
AcDbEntity
  8
None
 62
     7
390
1D
100
AcDbBlockReference
  2
Group-9
 10
0.0
 20
0.0
 30
0.0
  0
ENDBLK
  5
160
330
35
100
AcDbEntity
  8
None
390
1D
100
AcDbBlockEnd
  0
BLOCK
  5
161
330
36
100
AcDbEntity
  8
None
390
1D
100
AcDbBlockBegin
  2
Group-11
 70
     0
 10
0.0
 20
0.0
 30
0.0
  3
Group-11
  1

  0
LINE
  5
162
330
36
100
AcDbEntity
  8
None
  6
Continuous
 62
     7
370
    13
390
1D
100
AcDbLine
 10
-1.946573017731441
 20
-0.3784109446468971
 30
0.0
 11
-1.983823017731441
 21
-0.4429298372288379
 31
0.0
  0
LINE
  5
163
330
36
100
AcDbEntity
  8
None
  6
Continuous
 62
     7
370
    13
390
1D
100
AcDbLine
 10
-2.108323017731441
 20
-0.6585701627711625
 30
0.0
 11
-2.145573017731441
 21
-0.7230890553531035
 31
0.0
  0
LINE
  5
164
330
36
100
AcDbEntity
  8
None
  6
Continuous
 62
     7
370
    13
390
1D
100
AcDbLine
 10
-2.028823017731441
 20
-0.5208721235694375
 30
0.0
 11
-2.063323017731441
 21
-0.5806278764305637
 31
0.0
  0
LINE
  5
165
330
36
100
AcDbEntity
  8
None
  6
Continuous
 62
     7
370
    13
390
1D
100
AcDbLine
 10
-2.218412073084544
 20
-0.4512500000000004
 30
0.0
 11
-2.153893180502604
 21
-0.4885000000000005
 31
0.0
  0
LINE
  5
166
330
36
100
AcDbEntity
  8
None
  6
Continuous
 62
     7
370
    13
390
1D
100
AcDbLine
 10
-1.938252854960279
 20
-0.6130000000000005
 30
0.0
 11
-1.873733962378338
 21
-0.6502500000000004
 31
0.0
  0
LINE
  5
167
330
36
100
AcDbEntity
  8
None
  6
Continuous
 62
     7
370
    13
390
1D
100
AcDbLine
 10
-2.075950894162004
 20
-0.5335000000000005
 30
0.0
 11
-2.016195141300878
 21
-0.5680000000000005
 31
0.0
  0
ENDBLK
  5
168
330
36
100
AcDbEntity
  8
None
390
1D
100
AcDbBlockEnd
  0
BLOCK
  5
169
330
37
100
AcDbEntity
  8
None
390
1D
100
AcDbBlockBegin
  2
Group-12
 70
     0
 10
0.0
 20
0.0
 30
0.0
  3
Group-12
  1

  0
CIRCLE
  5
16A
330
37
100
AcDbEntity
  8
None
  6
Continuous
 62
     7
370
    13
390
1D
100
AcDbCircle
 10
-2.046073017731441
 20
-0.5507500000000005
 30
0.0
 40
0.0552
  0
CIRCLE
  5
16B
330
37
100
AcDbEntity
  8
None
  6
STYLE_02
 62
     7
370
    13
390
1D
100
AcDbCircle
 10
-2.046073017731441
 20
-0.5507500000000005
 30
0.0
 40
0.0689999999999992
  0
INSERT
  5
16C
330
37
100
AcDbEntity
  8
None
 62
     7
390
1D
100
AcDbBlockReference
  2
Group-11
 10
0.0
 20
0.0
 30
0.0
  0
ENDBLK
  5
16D
330
37
100
AcDbEntity
  8
None
390
1D
100
AcDbBlockEnd
  0
BLOCK
  5
16E
330
38
100
AcDbEntity
  8
None
390
1D
100
AcDbBlockBegin
  2
Group-13
 70
     0
 10
0.0
 20
0.0
 30
0.0
  3
Group-13
  1

  0
LINE
  5
16F
330
38
100
AcDbEntity
  8
None
  6
Continuous
 62
     7
370
    13
390
1D
100
AcDbLine
 10
-3.56540386441888
 20
1.099241619969284
 30
0.0
 11
-3.688184671473981
 21
1.311396015983032
 31
0.0
  0
LINE
  5
170
330
38
100
AcDbEntity
  8
None
  6
Continuous
 62
     7
370
    13
390
1D
100
AcDbLine
 10
-3.792092256530655
 20
1.251369032592974
 30
0.0
 11
-3.669311449475552
 21
1.039214636579227
 31
0.0
  0
LINE
  5
171
330
38
100
AcDbEntity
  8
None
  6
Continuous
 62
     7
370
    13
390
1D
100
AcDbLine
 10
-3.792092256530655
 20
1.251369032592974
 30
0.0
 11
-3.688184671473981
 21
1.311396015983032
 31
0.0
  0
ENDBLK
  5
172
330
38
100
AcDbEntity
  8
None
390
1D
100
AcDbBlockEnd
  0
BLOCK
  5
173
330
39
100
AcDbEntity
  8
None
390
1D
100
AcDbBlockBegin
  2
Group-14
 70
     0
 10
0.0
 20
0.0
 30
0.0
  3
Group-14
  1

  0
LINE
  5
174
330
39
100
AcDbEntity
  8
None
  6
Continuous
 62
     7
370
    13
390
1D
100
AcDbLine
 10
-4.018597733937205
 20
1.642900227653764
 30
0.0
 11
-3.914692622085612
 21
1.702931094760679
 31
0.0
  0
LINE
  5
175
330
39
100
AcDbEntity
  8
None
  6
Continuous
 62
     7
370
    13
390
1D
100
AcDbLine
 10
-3.914692622085612
 20
1.702931094760679
 30
0.0
 11
-3.71439614146658
 21
1.356733213751278
 31
0.0
  0
LINE
  5
176
330
39
100
AcDbEntity
  8
None
  6
Continuous
 62
     7
370
    13
390
1D
100
AcDbLine
 10
-4.018597733937205
 20
1.642900227653764
 30
0.0
 11
-3.818301303318171
 21
1.296702433246904
 31
0.0
  0
LINE
  5
177
330
39
100
AcDbEntity
  8
None
  6
Continuous
 62
     7
370
    13
390
1D
100
AcDbLine
 10
-3.818301303318171
 20
1.296702433246904
 30
0.0
 11
-3.71439614146658
 21
1.356733213751278
 31
0.0
  0
ENDBLK
  5
178
330
39
100
AcDbEntity
  8
None
390
1D
100
AcDbBlockEnd
  0
BLOCK
  5
179
330
3A
100
AcDbEntity
  8
None
390
1D
100
AcDbBlockBegin
  2
Group-15
 70
     0
 10
0.0
 20
0.0
 30
0.0
  3
Group-15
  1

  0
LINE
  5
17A
330
3A
100
AcDbEntity
  8
None
  6
Continuous
 62
     7
370
    13
390
1D
100
AcDbLine
 10
-3.966638509710139
 20
1.672904211370622
 30
0.0
 11
-4.170490201135869
 21
2.39466889812884
 31
0.0
  0
LINE
  5
17B
330
3A
100
AcDbEntity
  8
None
  6
Continuous
 62
     7
370
    13
390
1D
100
AcDbLine
 10
-3.921974128744142
 20
1.698722034248903
 30
0.0
 11
-4.122372454108431
 21
2.408259115531572
 31
0.0
  0
LINE
  5
17C
330
3A
100
AcDbEntity
  8
None
  6
Continuous
 62
     7
370
    13
390
1D
100
AcDbLine
 10
-3.966638509710139
 20
1.672904211370622
 30
0.0
 11
-4.458168212969305
 21
2.239383030844753
 31
0.0
  0
LINE
  5
17D
330
3A
100
AcDbEntity
  8
None
  6
Continuous
 62
     7
370
    13
390
1D
100
AcDbLine
 10
-4.010724695514029
 20
1.647420325094881
 30
0.0
 11
-4.495933636643623
 21
2.206614463418037
 31
0.0
  0
LINE
  5
17E
330
3A
100
AcDbEntity
  8
None
  6
Continuous
 62
     7
370
    13
390
1D
100
AcDbLine
 10
-4.170490201135869
 20
2.39466889812884
 30
0.0
 11
-4.122372454108431
 21
2.408259115531572
 31
0.0
  0
LINE
  5
17F
330
3A
100
AcDbEntity
  8
None
  6
Continuous
 62
     7
370
    13
390
1D
100
AcDbLine
 10
-4.458168212969305
 20
2.239383030844753
 30
0.0
 11
-4.495933636643623
 21
2.206614463418037
 31
0.0
  0
LINE
  5
180
330
3A
100
AcDbEntity
  8
None
  6
Continuous
 62
     7
370
    13
390
1D
100
AcDbLine
 10
-4.214381551719295
 20
2.642052547352152
 30
0.0
 11
-4.19994630215589
 21
2.646129361688399
 31
0.0
  0
LINE
  5
181
330
3A
100
AcDbEntity
  8
None
  6
Continuous
 62
     7
370
    13
390
1D
100
AcDbLine
 10
-4.19994630215589
 20
2.646129361688399
 30
0.0
 11
-4.131995824949854
 21
2.405541082768993
 31
0.0
  0
LINE
  5
182
330
3A
100
AcDbEntity
  8
None
  6
Continuous
 62
     7
370
    13
390
1D
100
AcDbLine
 10
-4.19994630215589
 20
2.646129361688399
 30
0.0
 11
-4.22881682448778
 21
2.637975373208284
 31
0.0
  0
LINE
  5
183
330
3A
100
AcDbEntity
  8
None
  6
Continuous
 62
     7
370
    13
390
1D
100
AcDbLine
 10
-4.22881682448778
 20
2.637975373208284
 30
0.0
 11
-4.160866520486825
 21
2.397386994288878
 31
0.0
  0
LINE
  5
184
330
3A
100
AcDbEntity
  8
None
  6
Continuous
 62
     7
370
    13
390
1D
100
AcDbLine
 10
-4.640894013254016
 20
2.411825200791555
 30
0.0
 11
-4.629564543735023
 21
2.421655783961857
 31
0.0
  0
LINE
  5
185
330
3A
100
AcDbEntity
  8
None
  6
Continuous
 62
     7
370
    13
390
1D
100
AcDbLine
 10
-4.629564543735023
 20
2.421655783961857
 30
0.0
 11
-4.465720707563338
 21
2.232829935205507
 31
0.0
  0
LINE
  5
186
330
3A
100
AcDbEntity
  8
None
  6
Continuous
 62
     7
370
    13
390
1D
100
AcDbLine
 10
-4.629564543735023
 20
2.421655783961857
 30
0.0
 11
-4.65222356937555
 21
2.401994567621255
 31
0.0
  0
LINE
  5
187
330
3A
100
AcDbEntity
  8
None
  6
Continuous
 62
     7
370
    13
390
1D
100
AcDbLine
 10
-4.65222356937555
 20
2.401994567621255
 30
0.0
 11
-4.488379919806404
 21
2.213168842069985
 31
0.0
  0
INSERT
  5
188
330
3A
100
AcDbEntity
  8
None
 62
     7
390
1D
100
AcDbBlockReference
  2
Group-13
 10
0.0
 20
0.0
 30
0.0
  0
INSERT
  5
189
330
3A
100
AcDbEntity
  8
None
 62
     7
390
1D
100
AcDbBlockReference
  2
Group-14
 10
0.0
 20
0.0
 30
0.0
  0
ENDBLK
  5
18A
330
3A
100
AcDbEntity
  8
None
390
1D
100
AcDbBlockEnd
  0
BLOCK
  5
18B
330
3B
100
AcDbEntity
  8
Dimension
390
1D
100
AcDbBlockBegin
  2
*D25
 70
     1
 10
0.0
 20
0.0
 30
0.0
  3
*D25
  1

  0
LINE
  5
18C
330
3B
100
AcDbEntity
  8
Dimension
  6
Continuous
 62
     0
370
    -2
390
1D
100
AcDbLine
 10
2.0
 20
0.0
 30
0.0
 11
2.0
 21
1.851550192572806
 31
0.0
  0
LINE
  5
18D
330
3B
100
AcDbEntity
  8
Dimension
  6
Continuous
 62
     0
370
    -2
390
1D
100
AcDbLine
 10
1.300000000000001
 20
1.212435565298214
 30
0.0
 11
1.074224903713598
 21
1.60348950315002
 31
0.0
  0
ARC
  5
18E
330
3B
100
AcDbEntity
  8
Dimension
  6
Continuous
 62
     0
370
    -2
390
1D
100
AcDbCircle
 10
2.0
 20
0.0
 30
0.0
 40
1.772810035092506
100
AcDbArc
 50
90.0
 51
120.0
  0
POLYLINE
  5
18F
102
{ACAD_REACTORS
330
194
102
}
330
3B
100
AcDbEntity
  8
None
  6
Continuous
 62
     0
370
     5
390
1D
100
AcDb2dPolyline
 66
     1
 10
0.0
 20
0.0
 30
0.0
 70
     1
 75
     5
  0
VERTEX
  5
190
330
18F
100
AcDbEntity
  8
None
  6
Continuous
 62
     0
370
     5
390
1D
100
AcDbVertex
100
AcDb2dVertex
 10
1.24017659644937
 20
1.562204279115644
 30
0.0
  0
VERTEX
  5
191
330
18F
100
AcDbEntity
  8
None
  6
Continuous
 62
     0
370
     5
390
1D
100
AcDbVertex
100
AcDb2dVertex
 10
1.113594982453748
 20
1.535298526474092
 30
0.0
  0
VERTEX
  5
192
330
18F
100
AcDbEntity
  8
None
  6
Continuous
 62
     0
370
     5
390
1D
100
AcDbVertex
100
AcDb2dVertex
 10
1.209764999505217
 20
1.621890398767428
 30
0.0
  0
SEQEND
  5
193
330
18F
100
AcDbEntity
  8
None
  6
Continuous
 62
     0
370
     5
390
1D
  0
HATCH
  5
194
330
3B
100
AcDbEntity
  8
Dimension
  6
Continuous
 62
     0
370
     0
390
1D
100
AcDbHatch
 10
0.0
 20
0.0
 30
0.0
210
0.0
220
0.0
230
1.0
  2
SOLID
 70
     1
 71
     1
 91
        1
 92
        1
 93
        3
 72
     1
 10
1.24017659644937
 20
1.562204279115644
 11
1.113594982453748
 21
1.535298526474092
 72
     1
 10
1.113594982453748
 20
1.535298526474092
 11
1.209764999505217
 21
1.621890398767428
 72
     1
 10
1.209764999505217
 20
1.621890398767428
 11
1.24017659644937
 21
1.562204279115644
 97
        1
330
18F
 75
     0
 76
     1
 98
        1
 10
0.0
 20
0.0
  0
POLYLINE
  5
195
102
{ACAD_REACTORS
330
19A
102
}
330
3B
100
AcDbEntity
  8
None
  6
Continuous
 62
     0
370
     5
390
1D
100
AcDb2dPolyline
 66
     1
 10
0.0
 20
0.0
 30
0.0
 70
     1
 75
     5
  0
VERTEX
  5
196
330
195
100
AcDbEntity
  8
None
  6
Continuous
 62
     0
370
     5
390
1D
100
AcDbVertex
100
AcDb2dVertex
 10
1.873907235127902
 20
1.801920843632548
 30
0.0
  0
VERTEX
  5
197
330
195
100
AcDbEntity
  8
None
  6
Continuous
 62
     0
370
     5
390
1D
100
AcDbVertex
100
AcDb2dVertex
 10
2.0
 20
1.772810035092506
 30
0.0
  0
VERTEX
  5
198
330
195
100
AcDbEntity
  8
None
  6
Continuous
 62
     0
370
     5
390
1D
100
AcDbVertex
100
AcDb2dVertex
 10
1.876245058117324
 20
1.734974352376838
 30
0.0
  0
SEQEND
  5
199
330
195
100
AcDbEntity
  8
None
  6
Continuous
 62
     0
370
     5
390
1D
  0
HATCH
  5
19A
330
3B
100
AcDbEntity
  8
Dimension
  6
Continuous
 62
     0
370
     0
390
1D
100
AcDbHatch
 10
0.0
 20
0.0
 30
0.0
210
0.0
220
0.0
230
1.0
  2
SOLID
 70
     1
 71
     1
 91
        1
 92
        1
 93
        3
 72
     1
 10
1.873907235127902
 20
1.801920843632548
 11
2.0
 21
1.772810035092506
 72
     1
 10
2.0
 20
1.772810035092506
 11
1.876245058117324
 21
1.734974352376838
 72
     1
 10
1.876245058117324
 20
1.734974352376838
 11
1.873907235127902
 21
1.801920843632548
 97
        1
330
195
 75
     0
 76
     1
 98
        1
 10
0.0
 20
0.0
  0
MTEXT
  5
19B
330
3B
100
AcDbEntity
  8
Dimension
 62
     0
390
1D
100
AcDbMText
 10
1.436148622399053
 20
1.774532017241093
 30
0.0
 40
0.099629019240812
 41
0.0
 46
0.0
 71
     1
 72
     1
  1
30°
  7
Helvetica
 73
     1
 44
0.8397955333929318
  0
POINT
  5
19C
330
3B
100
AcDbEntity
  8
Defpoints
 62
     0
370
     0
390
1D
100
AcDbPoint
 10
2.0
 20
1.35311
 30
0.0
  0
POINT
  5
19D
330
3B
100
AcDbEntity
  8
Defpoints
 62
     0
370
     0
390
1D
100
AcDbPoint
 10
1.300000000000001
 20
1.212435565298214
 30
0.0
  0
POINT
  5
19E
330
3B
100
AcDbEntity
  8
Defpoints
 62
     0
370
     0
390
1D
100
AcDbPoint
 10
2.0
 20
0.0
 30
0.0
  0
ENDBLK
  5
19F
330
3B
100
AcDbEntity
  8
Dimension
390
1D
100
AcDbBlockEnd
  0
ENDSEC
  0
SECTION
  2
ENTITIES
  0
MTEXT
  5
1A0
330
A
100
AcDbEntity
  8
None
 62
     7
390
1D
100
AcDbMText
 10
2.3991666
 20
2.111573474211133
 30
0.0
 40
0.0996290272111335
 41
0.0
 46
0.0
 71
     1
 72
     1
  1
#6-32 x 0.34\P2.203 B.C., TYP.
  7
Helvetica
 73
     1
 44
0.8397955333929318
  0
CIRCLE
  5
1A1
330
A
100
AcDbEntity
  8
None
  6
Continuous
 62
     7
370
    13
390
1D
100
AcDbCircle
 10
2.0
 20
0.0
 30
0.0
 40
1.234999990120053
  0
CIRCLE
  5
1A2
330
A
100
AcDbEntity
  8
None
  6
Continuous
 62
     7
370
    13
390
1D
100
AcDbCircle
 10
2.0
 20
0.0
 30
0.0
 40
0.5929999699569808
  0
CIRCLE
  5
1A3
330
A
100
AcDbEntity
  8
None
  6
Continuous
 62
     7
370
    13
390
1D
100
AcDbCircle
 10
2.0
 20
0.0
 30
0.0
 40
0.1872500007590117
  0
LINE
  5
1A4
330
A
100
AcDbEntity
  8
None
  6
Continuous
 62
     7
370
    13
390
1D
100
AcDbLine
 10
1.9162963
 20
0.1675
 30
0.0
 11
2.0837037
 21
0.1675
 31
0.0
  0
MTEXT
  5
1A5
330
A
100
AcDbEntity
  8
None
 62
     7
390
1D
100
AcDbMText
 10
1.109133858267715
 20
0.6211103879999389
 30
0.0
 40
0.119554846999939
 41
0.0
 46
0.0
 71
     1
 72
     1
  1
B6-1
  7
Helvetica
 73
     1
 44
0.8397955333929318
  0
POLYLINE
  5
1A6
330
A
100
AcDbEntity
  8
None
  6
Continuous
 62
     7
370
    13
390
1D
100
AcDb2dPolyline
 66
     1
 10
0.0
 20
0.0
 30
0.0
 70
     1
 75
     5
  0
VERTEX
  5
1A7
330
1A6
100
AcDbEntity
  8
None
  6
Continuous
 62
     7
370
    13
390
1D
100
AcDbVertex
100
AcDb2dVertex
 10
7.0
 20
1.235
 30
0.0
  0
VERTEX
  5
1A8
330
1A6
100
AcDbEntity
  8
None
  6
Continuous
 62
     7
370
    13
390
1D
100
AcDbVertex
100
AcDb2dVertex
 10
8.370000000000001
 20
1.235
 30
0.0
  0
VERTEX
  5
1A9
330
1A6
100
AcDbEntity
  8
None
  6
Continuous
 62
     7
370
    13
390
1D
100
AcDbVertex
100
AcDb2dVertex
 10
8.370000000000001
 20
-1.235
 30
0.0
  0
VERTEX
  5
1AA
330
1A6
100
AcDbEntity
  8
None
  6
Continuous
 62
     7
370
    13
390
1D
100
AcDbVertex
100
AcDb2dVertex
 10
7.0
 20
-1.235
 30
0.0
  0
SEQEND
  5
1AB
330
1A6
100
AcDbEntity
  8
None
  6
Continuous
 62
     7
370
    13
390
1D
  0
POLYLINE
  5
1AD
330
A
100
AcDbEntity
  8
None
  6
Continuous
 62
     7
370
    13
390
1D
100
AcDb2dPolyline
 66
     1
 10
0.0
 20
0.0
 30
0.0
 70
     1
 75
     5
  0
VERTEX
  5
1AE
330
1AD
100
AcDbEntity
  8
None
  6
Continuous
 62
     7
370
    13
390
1D
100
AcDbVertex
100
AcDb2dVertex
 10
6.925
 20
0.5625
 30
0.0
  0
VERTEX
  5
1AF
330
1AD
100
AcDbEntity
  8
None
  6
Continuous
 62
     7
370
    13
390
1D
100
AcDbVertex
100
AcDb2dVertex
 10
7.0
 20
0.5625
 30
0.0
  0
VERTEX
  5
1B0
330
1AD
100
AcDbEntity
  8
None
  6
Continuous
 62
     7
370
    13
390
1D
100
AcDbVertex
100
AcDb2dVertex
 10
7.0
 20
-0.5625
 30
0.0
  0
VERTEX
  5
1B1
330
1AD
100
AcDbEntity
  8
None
  6
Continuous
 62
     7
370
    13
390
1D
100
AcDbVertex
100
AcDb2dVertex
 10
6.925
 20
-0.5625
 30
0.0
  0
SEQEND
  5
1B2
330
1AD
100
AcDbEntity
  8
None
  6
Continuous
 62
     7
370
    13
390
1D
  0
POLYLINE
  5
1B4
330
A
100
AcDbEntity
  8
None
  6
Continuous
 62
     7
370
    13
390
1D
100
AcDb2dPolyline
 66
     1
 10
0.0
 20
0.0
 30
0.0
 70
     1
 75
     5
  0
VERTEX
  5
1B5
330
1B4
100
AcDbEntity
  8
None
  6
Continuous
 62
     7
370
    13
390
1D
100
AcDbVertex
100
AcDb2dVertex
 10
8.370000000000001
 20
0.5625
 30
0.0
  0
VERTEX
  5
1B6
330
1B4
100
AcDbEntity
  8
None
  6
Continuous
 62
     7
370
    13
390
1D
100
AcDbVertex
100
AcDb2dVertex
 10
8.445
 20
0.5625
 30
0.0
  0
VERTEX
  5
1B7
330
1B4
100
AcDbEntity
  8
None
  6
Continuous
 62
     7
370
    13
390
1D
100
AcDbVertex
100
AcDb2dVertex
 10
8.445
 20
-0.5625
 30
0.0
  0
VERTEX
  5
1B8
330
1B4
100
AcDbEntity
  8
None
  6
Continuous
 62
     7
370
    13
390
1D
100
AcDbVertex
100
AcDb2dVertex
 10
8.370000000000001
 20
-0.5625
 30
0.0
  0
SEQEND
  5
1B9
330
1B4
100
AcDbEntity
  8
None
  6
Continuous
 62
     7
370
    13
390
1D
  0
MTEXT
  5
1BB
330
A
100
AcDbEntity
  8
None
 62
     7
390
1D
100
AcDbMText
 10
7.498674674015747
 20
0.534554887999939
 30
0.0
 40
0.119554846999939
 41
0.0
 46
0.0
 71
     1
 72
     1
  1
B6-1
  7
Helvetica
 73
     1
 44
0.8397955333929318
  0
POLYLINE
  5
1BC
330
A
100
AcDbEntity
  8
None
  6
Continuous
 62
     7
370
    13
390
1D
100
AcDb2dPolyline
 66
     1
 10
0.0
 20
0.0
 30
0.0
 70
     1
 75
     5
  0
VERTEX
  5
1BD
330
1BC
100
AcDbEntity
  8
None
  6
Continuous
 62
     7
370
    13
390
1D
100
AcDbVertex
100
AcDb2dVertex
 10
6.915
 20
0.295
 30
0.0
  0
VERTEX
  5
1BE
330
1BC
100
AcDbEntity
  8
None
  6
Continuous
 62
     7
370
    13
390
1D
100
AcDbVertex
100
AcDb2dVertex
 10
6.925
 20
0.295
 30
0.0
  0
VERTEX
  5
1BF
330
1BC
100
AcDbEntity
  8
None
  6
Continuous
 62
     7
370
    13
390
1D
100
AcDbVertex
100
AcDb2dVertex
 10
6.925
 20
-0.295
 30
0.0
  0
VERTEX
  5
1C0
330
1BC
100
AcDbEntity
  8
None
  6
Continuous
 62
     7
370
    13
390
1D
100
AcDbVertex
100
AcDb2dVertex
 10
6.915
 20
-0.295
 30
0.0
  0
SEQEND
  5
1C1
330
1BC
100
AcDbEntity
  8
None
  6
Continuous
 62
     7
370
    13
390
1D
  0
LINE
  5
1C3
330
A
100
AcDbEntity
  8
None
  6
Continuous
 62
     7
370
    13
390
1D
100
AcDbLine
 10
5.915
 20
0.167
 30
0.0
 11
5.915
 21
-0.18725
 31
0.0
  0
POLYLINE
  5
1C4
330
A
100
AcDbEntity
  8
None
  6
Continuous
 62
     7
370
    13
390
1D
100
AcDb2dPolyline
 66
     1
 10
0.0
 20
0.0
 30
0.0
 70
     1
 75
     5
  0
VERTEX
  5
1C5
330
1C4
100
AcDbEntity
  8
None
  6
Continuous
 62
     7
370
    13
390
1D
100
AcDbVertex
100
AcDb2dVertex
 10
5.915
 20
0.0835
 30
0.0
  0
VERTEX
  5
1C6
330
1C4
100
AcDbEntity
  8
None
  6
Continuous
 62
     7
370
    13
390
1D
100
AcDbVertex
100
AcDb2dVertex
 10
6.79
 20
0.0835
 30
0.0
  0
VERTEX
  5
1C7
330
1C4
100
AcDbEntity
  8
None
  6
Continuous
 62
     7
370
    13
390
1D
100
AcDbVertex
100
AcDb2dVertex
 10
6.79
 20
-0.0835
 30
0.0
  0
VERTEX
  5
1C8
330
1C4
100
AcDbEntity
  8
None
  6
Continuous
 62
     7
370
    13
390
1D
100
AcDbVertex
100
AcDb2dVertex
 10
5.915
 20
-0.0835
 30
0.0
  0
SEQEND
  5
1C9
330
1C4
100
AcDbEntity
  8
None
  6
Continuous
 62
     7
370
    13
390
1D
  0
LINE
  5
1CB
330
A
100
AcDbEntity
  8
None
  6
Continuous
 62
     7
370
    13
390
1D
100
AcDbLine
 10
6.79
 20
0.18725
 30
0.0
 11
6.915
 21
0.18725
 31
0.0
  0
LINE
  5
1CC
330
A
100
AcDbEntity
  8
None
  6
Continuous
 62
     7
370
    13
390
1D
100
AcDbLine
 10
5.915
 20
-0.18725
 30
0.0
 11
6.915
 21
-0.18725
 31
0.0
  0
POLYLINE
  5
1CD
330
A
100
AcDbEntity
  8
None
  6
Continuous
 62
     7
370
    13
390
1D
100
AcDb2dPolyline
 66
     1
 10
0.0
 20
0.0
 30
0.0
 70
     1
 75
     5
  0
VERTEX
  5
1CE
330
1CD
100
AcDbEntity
  8
None
  6
Continuous
 62
     7
370
    13
390
1D
100
AcDbVertex
100
AcDb2dVertex
 10
8.469999999999999
 20
0.18725
 30
0.0
  0
VERTEX
  5
1CF
330
1CD
100
AcDbEntity
  8
None
  6
Continuous
 62
     7
370
    13
390
1D
100
AcDbVertex
100
AcDb2dVertex
 10
8.55
 20
0.18725
 30
0.0
  0
VERTEX
  5
1D0
330
1CD
100
AcDbEntity
  8
None
  6
Continuous
 62
     7
370
    13
390
1D
100
AcDbVertex
100
AcDb2dVertex
 10
8.55
 20
-0.18725
 30
0.0
  0
VERTEX
  5
1D1
330
1CD
100
AcDbEntity
  8
None
  6
Continuous
 62
     7
370
    13
390
1D
100
AcDbVertex
100
AcDb2dVertex
 10
8.469999999999999
 20
-0.18725
 30
0.0
  0
SEQEND
  5
1D2
330
1CD
100
AcDbEntity
  8
None
  6
Continuous
 62
     7
370
    13
390
1D
  0
LINE
  5
1D4
330
A
100
AcDbEntity
  8
None
  6
STYLE_09
 62
     7
370
    13
390
1D
100
AcDbLine
 10
5.6
 20
0.0
 30
0.0
 11
8.9
 21
0.0
 31
0.0
  0
LINE
  5
1D5
330
A
100
AcDbEntity
  8
None
  6
Continuous
 62
     7
370
    13
390
1D
100
AcDbLine
 10
5.915
 20
0.167
 30
0.0
 11
6.76975
 21
0.167
 31
0.0
  0
INSERT
  5
1D6
330
A
100
AcDbEntity
  8
None
 62
     7
390
1D
100
AcDbBlockReference
  2
Group-2
 10
5.0
 20
0.0
 30
0.0
  0
MTEXT
  5
1D7
330
A
100
AcDbEntity
  8
None
 62
     7
390
1D
100
AcDbMText
 10
6.42
 20
1.412684574211133
 30
0.0
 40
0.0996290272111335
 41
0.0
 46
0.0
 71
     1
 72
     1
  1
TYP
  7
Helvetica
 73
     1
 44
0.8397955333929318
  0
MTEXT
  5
1D8
330
A
100
AcDbEntity
  8
None
 62
     7
390
1D
100
AcDbMText
 10
3.603878553105814
 20
0.5721290242111335
 30
0.0
 40
0.0996290272111335
 41
0.0
 46
0.0
 71
     1
 72
     1
  1
TYP
  7
Helvetica
 73
     1
 44
0.8397955333929318
  0
LINE
  5
1D9
330
A
100
AcDbEntity
  8
None
  6
Continuous
 62
     7
370
    13
390
1D
100
AcDbLine
 10
2.1122
 20
1.24
 30
0.0
 11
2.5137035
 21
1.8134064
 31
0.0
  0
POLYLINE
  5
1DA
102
{ACAD_REACTORS
330
1DF
102
}
330
A
100
AcDbEntity
  8
None
  6
Continuous
 62
     7
370
     5
390
1D
100
AcDb2dPolyline
 66
     1
 10
0.0
 20
0.0
 30
0.0
 70
     1
 75
     5
  0
VERTEX
  5
1DB
330
1DA
100
AcDbEntity
  8
None
  6
Continuous
 62
     7
370
     5
390
1D
100
AcDbVertex
100
AcDb2dVertex
 10
2.212770087824787
 20
1.321440051337532
 30
0.0
  0
VERTEX
  5
1DC
330
1DA
100
AcDbEntity
  8
None
  6
Continuous
 62
     7
370
     5
390
1D
100
AcDbVertex
100
AcDb2dVertex
 10
2.1122
 20
1.24
 30
0.0
  0
VERTEX
  5
1DD
330
1DA
100
AcDbEntity
  8
None
  6
Continuous
 62
     7
370
     5
390
1D
100
AcDbVertex
100
AcDb2dVertex
 10
2.158576225248332
 20
1.360814197256205
 30
0.0
  0
SEQEND
  5
1DE
330
1DA
100
AcDbEntity
  8
None
  6
Continuous
 62
     7
370
     5
390
1D
  0
HATCH
  5
1DF
330
A
100
AcDbEntity
  8
None
  6
Continuous
 62
     7
370
     0
390
1D
100
AcDbHatch
 10
0.0
 20
0.0
 30
0.0
210
0.0
220
0.0
230
1.0
  2
SOLID
 70
     1
 71
     1
 91
        1
 92
        1
 93
        3
 72
     1
 10
2.212770087824787
 20
1.321440051337532
 11
2.1122
 21
1.24
 72
     1
 10
2.1122
 20
1.24
 11
2.158576225248332
 21
1.360814197256205
 72
     1
 10
2.158576225248332
 20
1.360814197256205
 11
2.212770087824787
 21
1.321440051337532
 97
        1
330
1DA
 75
     0
 76
     1
 98
        1
 10
0.0
 20
0.0
  0
DIMENSION
  5
1E0
330
A
100
AcDbEntity
  8
Dimension
  6
Continuous
 62
     7
370
    13
390
1D
100
AcDbDimension
  2
*D4
 10
1.867594255222826
 20
0.132405744777174
 30
0.0
 11
3.476220497790438
 21
-1.240000025349537
 31
0.0
 70
     3
 71
     5
 42
-1.0
 73
     0
 74
     0
 75
     0
  3
ISO
100
AcDbDiametricDimension
 15
2.132405744777174
 25
-0.132405744777174
 35
0.0
 40
1.566374853192307
1001
ACAD
1000
DSTYLE
1002
{
1070
   172
1070
     0
1070
   289
1070
     0
1070
   342
1005
4D
1070
   340
1005
3C
1070
    77
1070
     0
1070
    73
1070
     1
1070
    74
1070
     1
1070
    75
1070
     1
1070
    76
1070
     1
1070
    72
1070
     1
1070
    47
1040
0.0002
1070
    48
1040
0.0002
1070
     3
1000
Ø<>
1070
   174
1070
     0
1070
   147
1040
0.015625
1002
}
  0
LINE
  5
1E1
330
A
100
AcDbEntity
  8
None
  6
Continuous
 62
     7
370
    13
390
1D
100
AcDbLine
 10
2.1675
 20
0.0837037
 30
0.0
 11
2.1675
 21
-0.0837037
 31
0.0
  0
LINE
  5
1E2
330
A
100
AcDbEntity
  8
None
  6
Continuous
 62
     7
370
    13
390
1D
100
AcDbLine
 10
6.79
 20
0.18725
 30
0.0
 11
6.76975
 21
0.167
 31
0.0
  0
POLYLINE
  5
1E3
330
A
100
AcDbEntity
  8
None
  6
Continuous
 62
     7
370
    13
390
1D
100
AcDb2dPolyline
 66
     1
 10
0.0
 20
0.0
 30
0.0
 70
     1
 75
     5
  0
VERTEX
  5
1E4
330
1E3
100
AcDbEntity
  8
None
  6
Continuous
 62
     7
370
    13
390
1D
100
AcDbVertex
100
AcDb2dVertex
 10
8.445
 20
0.295
 30
0.0
  0
VERTEX
  5
1E5
330
1E3
100
AcDbEntity
  8
None
  6
Continuous
 62
     7
370
    13
390
1D
100
AcDbVertex
100
AcDb2dVertex
 10
8.469999999999999
 20
0.295
 30
0.0
  0
VERTEX
  5
1E6
330
1E3
100
AcDbEntity
  8
None
  6
Continuous
 62
     7
370
    13
390
1D
100
AcDbVertex
100
AcDb2dVertex
 10
8.469999999999999
 20
-0.295
 30
0.0
  0
VERTEX
  5
1E7
330
1E3
100
AcDbEntity
  8
None
  6
Continuous
 62
     7
370
    13
390
1D
100
AcDbVertex
100
AcDb2dVertex
 10
8.445
 20
-0.295
 30
0.0
  0
SEQEND
  5
1E8
330
1E3
100
AcDbEntity
  8
None
  6
Continuous
 62
     7
370
    13
390
1D
  0
DIMENSION
  5
1EA
330
A
100
AcDbEntity
  8
Dimension
  6
Continuous
 62
     7
370
    13
390
1D
100
AcDbDimension
  2
*D5
 10
7.0
 20
-1.58
 30
0.0
 11
7.685
 21
-1.58
 31
0.0
 70
    32
 71
     5
 42
-1.0
 73
     0
 74
     0
 75
     0
  3
ISO
100
AcDbAlignedDimension
 13
8.370000000000001
 23
-1.3175
 33
0.0
 14
7.0
 24
-1.3175
 34
0.0
100
AcDbRotatedDimension
1001
ACAD
1000
DSTYLE
1002
{
1070
   271
1070
     2
1070
   279
1070
     2
1070
   340
1005
3C
1070
   147
1040
0.03937
1002
}
  0
DIMENSION
  5
1EB
330
A
100
AcDbEntity
  8
Dimension
  6
Continuous
 62
     7
370
    13
390
1D
100
AcDbDimension
  2
*D6
 10
5.915
 20
-1.9817411
 30
0.0
 11
7.149995422363281
 21
-1.9423711
 31
0.0
 70
   128
 71
     5
 42
-1.0
 73
     0
 74
     0
 75
     0
  3
ISO
100
AcDbAlignedDimension
 13
8.55
 23
-0.24725
 33
0.0
 14
5.915
 24
-0.24725
 34
0.0
100
AcDbRotatedDimension
1001
ACAD
1000
DSTYLE
1002
{
1070
   271
1070
     3
1070
   279
1070
     2
1070
   340
1005
3C
1070
   147
1040
0.03937
1002
}
  0
DIMENSION
  5
1EC
330
A
100
AcDbEntity
  8
Dimension
  6
Continuous
 62
     7
370
    13
390
1D
100
AcDbDimension
  2
*D7
 10
1.418412900361226
 20
-1.089486780798083
 30
0.0
 11
2.930183201964053
 21
1.299999983926095
 31
0.0
 70
     3
 71
     5
 42
-1.0
 73
     0
 74
     0
 75
     0
  3
ISO
100
AcDbDiametricDimension
 15
2.581587099638774
 25
1.089486780798081
 35
0.0
 40
0.2386296102396503
1001
ACAD
1000
DSTYLE
1002
{
1070
   271
1070
     2
1070
   172
1070
     0
1070
   289
1070
     0
1070
   342
1005
4D
1070
   340
1005
3C
1070
    77
1070
     0
1070
    73
1070
     1
1070
    74
1070
     1
1070
    75
1070
     1
1070
    76
1070
     1
1070
     3
1000

1070
   174
1070
     0
1070
   147
1040
0.015625
1002
}
  0
DIMENSION
  5
1ED
330
A
100
AcDbEntity
  8
Dimension
  6
Continuous
 62
     7
370
    13
390
1D
100
AcDbDimension
  2
*D8
 10
1.501041753367157
 20
-0.3204522868026952
 30
0.0
 11
3.46983162381592
 21
0.7922777449839841
 31
0.0
 70
     3
 71
     5
 42
-1.0
 73
     0
 74
     0
 75
     0
  3
ISO
100
AcDbDiametricDimension
 15
2.498958246632843
 25
0.3204522868026953
 35
0.0
 40
0.8731174911969761
1001
ACAD
1000
DSTYLE
1002
{
1070
   271
1070
     3
1070
   172
1070
     0
1070
   289
1070
     0
1070
   342
1005
4D
1070
   340
1005
3C
1070
    77
1070
     0
1070
    73
1070
     1
1070
    74
1070
     1
1070
    75
1070
     1
1070
    76
1070
     1
1070
    72
1070
     1
1070
    48
1040
0.002
1070
     3
1000
Ø<>
1070
   174
1070
     0
1070
   147
1040
0.015625
1002
}
  0
DIMENSION
  5
1EE
330
A
100
AcDbEntity
  8
Dimension
  6
Continuous
 62
     7
370
    13
390
1D
100
AcDbDimension
  2
*D9
 10
6.925
 20
1.47
 30
0.0
 11
6.69
 21
1.50937
 31
0.0
 70
   128
 71
     5
 42
-1.0
 73
     0
 74
     0
 75
     0
  3
ISO
100
AcDbAlignedDimension
 13
7.0
 23
1.305
 33
0.0
 14
6.925
 24
0.6325000000000001
 34
0.0
100
AcDbRotatedDimension
1001
ACAD
1000
DSTYLE
1002
{
1070
   271
1070
     3
1070
   279
1070
     2
1070
   340
1005
3C
1070
   174
1070
     0
1070
   147
1040
0.03937
1002
}
  0
DIMENSION
  5
1EF
330
A
100
AcDbEntity
  8
Dimension
  6
Continuous
 62
     7
370
    13
390
1D
100
AcDbDimension
  2
*D10
 10
5.915
 20
1.92
 30
0.0
 11
6.4575
 21
1.95937
 31
0.0
 70
   128
 71
     5
 42
-1.0
 73
     0
 74
     0
 75
     0
  3
ISO
100
AcDbAlignedDimension
 13
7.0
 23
1.285
 33
0.0
 14
5.915
 24
0.217
 34
0.0
100
AcDbRotatedDimension
1001
ACAD
1000
DSTYLE
1002
{
1070
   271
1070
     3
1070
   279
1070
     2
1070
   340
1005
3C
1070
   147
1040
0.03937
1002
}
  0
DIMENSION
  5
1F0
330
A
100
AcDbEntity
  8
Dimension
  6
Continuous
 62
     7
370
    13
390
1D
100
AcDbDimension
  2
*D11
 10
8.55
 20
1.55
 30
0.0
 11
8.78
 21
1.58937
 31
0.0
 70
   128
 71
     5
 42
-1.0
 73
     0
 74
     0
 75
     0
  3
ISO
100
AcDbAlignedDimension
 13
8.370000000000001
 23
1.315
 33
0.0
 14
8.55
 24
0.26725
 34
0.0
100
AcDbRotatedDimension
1001
ACAD
1000
DSTYLE
1002
{
1070
   271
1070
     2
1070
   279
1070
     2
1070
   340
1005
3C
1070
   174
1070
     0
1070
   147
1040
0.03937
1002
}
  0
INSERT
  5
1F1
330
A
100
AcDbEntity
  8
None
 62
     7
390
1D
100
AcDbBlockReference
  2
Group-4
 10
5.0
 20
0.0
 30
0.0
  0
INSERT
  5
1F2
330
A
100
AcDbEntity
  8
None
 62
     7
390
1D
100
AcDbBlockReference
  2
Group-5
 10
5.0
 20
0.0
 30
0.0
  0
INSERT
  5
1F3
330
A
100
AcDbEntity
  8
Dimension
 62
     7
390
1D
100
AcDbBlockReference
  2
Group-6
 10
5.0
 20
0.0
 30
0.0
  0
MTEXT
  5
1F4
330
A
100
AcDbEntity
  8
None
 62
     7
390
1D
100
AcDbMText
 10
0.9753416825530445
 20
-1.857870980759188
 30
0.0
 40
0.099629019240812
 41
0.0
 46
0.0
 71
     1
 72
     1
  1
Units = inches
  7
Helvetica
 73
     1
 44
0.8397955333929318
  0
INSERT
  5
1F5
330
A
100
AcDbEntity
  8
None
 62
     7
390
1D
100
AcDbBlockReference
  2
Group-8
 10
5.0
 20
0.0
 30
0.0
  0
INSERT
  5
1F6
330
A
100
AcDbEntity
  8
None
 62
     7
390
1D
100
AcDbBlockReference
  2
Group-10
 10
5.0
 20
0.0
 30
0.0
  0
INSERT
  5
1F7
330
A
100
AcDbEntity
  8
None
 62
     7
390
1D
100
AcDbBlockReference
  2
Group-12
 10
5.0
 20
0.0
 30
0.0
  0
INSERT
  5
1F8
330
A
100
AcDbEntity
  8
None
 62
     7
390
1D
100
AcDbBlockReference
  2
Group-15
 10
5.0
 20
0.0
 30
0.0
  0
LINE
  5
1F9
330
A
100
AcDbEntity
  8
None
  6
STYLE_09
 62
     7
370
    13
390
1D
100
AcDbLine
 10
2.0
 20
0.0
 30
0.0
 11
1.300000000000001
 21
1.212435565298214
 31
0.0
  0
DIMENSION
  5
1FA
330
A
100
AcDbEntity
  8
Dimension
  6
Continuous
 62
     7
370
     5
390
1D
100
AcDbDimension
  2
*D25
 10
1.541162999569192
 20
1.712402998000281
 30
0.0
 11
1.530973273384042
 21
1.750431573838474
 31
0.0
 70
   133
 71
     5
 42
-1.0
 73
     0
 74
     0
 75
     0
  3
ISO
100
AcDb3PointAngularDimension
 13
2.0
 23
1.35311
 33
0.0
 14
1.300000000000001
 24
1.212435565298214
 34
0.0
 15
2.0
 25
0.0
 35
0.0
1001
ACAD
1000
DSTYLE
1002
{
1070
   279
1070
     2
1070
   342
1005
4D
1070
   340
1005
3C
1070
   140
1040
0.099629019240812
1070
    73
1070
     1
1070
    74
1070
     1
1070
     3
1000
<> 
1002
}
  0
ENDSEC
  0
SECTION
  2
OBJECTS
  0
DICTIONARY
  5
19
330
0
100
AcDbDictionary
281
     1
  3
ACAD_GROUP
350
1A
  3
ACAD_LAYOUT
350
1E
  3
ACAD_MLEADERSTYLE
350
22B
  3
ACAD_MLINESTYLE
350
1B
  3
ACAD_PLOTSETTINGS
350
22
  3
ACAD_PLOTSTYLENAME
350
1F
  3
ACAD_SCALELIST
350
1FB
  3
ACAD_TABLESTYLE
350
22A
  3
AcDbVariableDictionary
350
22C
  0
DICTIONARY
  5
1A
102
{ACAD_REACTORS
330
19
102
}
330
19
100
AcDbDictionary
281
     1
  0
DICTIONARY
  5
1E
102
{ACAD_REACTORS
330
19
102
}
330
19
100
AcDbDictionary
281
     1
  3
Layout1
350
21
  3
Model
350
20
  0
DICTIONARY
  5
22B
102
{ACAD_REACTORS
330
19
102
}
330
19
100
AcDbDictionary
281
     1
  0
DICTIONARY
  5
1B
102
{ACAD_REACTORS
330
19
102
}
330
19
100
AcDbDictionary
281
     1
  3
Standard
350
1C
  0
DICTIONARY
  5
22
102
{ACAD_REACTORS
330
19
102
}
330
19
100
AcDbDictionary
281
     1
  0
ACDBDICTIONARYWDFLT
  5
1F
102
{ACAD_REACTORS
330
19
102
}
330
19
100
AcDbDictionary
281
     1
  3
Normal
350
1D
100
AcDbDictionaryWithDefault
340
1D
  0
DICTIONARY
  5
1FB
102
{ACAD_REACTORS
330
19
102
}
330
19
100
AcDbDictionary
281
     1
  3
A0
350
21D
  3
A1
350
21E
  3
A2
350
21F
  3
A3
350
220
  3
A4
350
221
  3
A5
350
222
  3
A6
350
223
  3
A7
350
224
  3
A8
350
225
  3
A9
350
226
  3
B0
350
227
  3
B1
350
228
  3
B2
350
229
  0
DICTIONARY
  5
22A
102
{ACAD_REACTORS
330
19
102
}
330
19
100
AcDbDictionary
281
     1
  0
DICTIONARY
  5
22C
102
{ACAD_REACTORS
330
19
102
}
330
19
100
AcDbDictionary
281
     1
  3
CANNOSCALE
350
22D
  0
LAYOUT
  5
21
102
{ACAD_REACTORS
330
1E
102
}
330
1E
100
AcDbPlotSettings
  1

  2

  4

  6

 40
0.0
 41
0.0
 42
0.0
 43
0.0
 44
0.0
 45
0.0
 46
0.0
 47
0.0
 48
0.0
 49
0.0
140
0.0
141
0.0
142
1.0
143
1.0
 70
     0
 72
     0
 73
     0
 74
     0
  7

 75
     0
 76
     0
 77
     2
 78
   300
147
1.0
148
0.0
149
0.0
100
AcDbLayout
  1
Layout1
 70
     0
 71
     0
 10
0.0
 20
0.0
 11
0.0
 21
0.0
 12
0.0
 22
0.0
 32
0.0
 14
0.0
 24
0.0
 34
0.0
 15
0.0
 25
0.0
 35
0.0
146
0.0
 13
0.0
 23
0.0
 33
0.0
 16
0.0
 26
0.0
 36
0.0
 17
0.0
 27
0.0
 37
0.0
 76
     0
330
B
  0
LAYOUT
  5
20
102
{ACAD_REACTORS
330
1E
102
}
330
1E
100
AcDbPlotSettings
  1

  2

  4

  6

 40
0.0
 41
0.0
 42
0.0
 43
0.0
 44
0.0
 45
0.0
 46
0.0
 47
0.0
 48
0.0
 49
0.0
140
0.0
141
0.0
142
1.0
143
1.0
 70
  1024
 72
     0
 73
     0
 74
     0
  7

 75
     0
 76
     0
 77
     2
 78
   300
147
1.0
148
0.0
149
0.0
100
AcDbLayout
  1
Model
 70
     0
 71
     0
 10
0.0
 20
0.0
 11
0.0
 21
0.0
 12
0.0
 22
0.0
 32
0.0
 14
0.0
 24
0.0
 34
0.0
 15
0.0
 25
0.0
 35
0.0
146
0.0
 13
0.0
 23
0.0
 33
0.0
 16
0.0
 26
0.0
 36
0.0
 17
0.0
 27
0.0
 37
0.0
 76
     0
330
A
331
15
  0
MLINESTYLE
  5
1C
102
{ACAD_REACTORS
330
1B
102
}
330
1B
100
AcDbMlineStyle
  2
Standard
 70
     0
  3

 62
     0
 51
90.0
 52
90.0
 71
     2
 49
0.5
 62
   256
  6
BYLAYER
 49
-0.5
 62
   256
  6
BYLAYER
  0
ACDBPLACEHOLDER
  5
1D
102
{ACAD_REACTORS
330
1F
102
}
330
1F
  0
SCALE
  5
21D
102
{ACAD_REACTORS
330
1FB
102
}
330
1FB
100
AcDbScale
 70
     0
300
1'-0" = 1'-0"
140
12.0
141
12.0
290
     0
  0
SCALE
  5
21E
102
{ACAD_REACTORS
330
1FB
102
}
330
1FB
100
AcDbScale
 70
     0
300
1/64" = 1'-0"
140
0.015625
141
12.0
290
     0
  0
SCALE
  5
21F
102
{ACAD_REACTORS
330
1FB
102
}
330
1FB
100
AcDbScale
 70
     0
300
1/32" = 1'-0"
140
0.03125
141
12.0
290
     0
  0
SCALE
  5
220
102
{ACAD_REACTORS
330
1FB
102
}
330
1FB
100
AcDbScale
 70
     0
300
1/16" = 1'-0"
140
0.0625
141
12.0
290
     0
  0
SCALE
  5
221
102
{ACAD_REACTORS
330
1FB
102
}
330
1FB
100
AcDbScale
 70
     0
300
3/32" = 1'-0"
140
0.09375
141
12.0
290
     0
  0
SCALE
  5
222
102
{ACAD_REACTORS
330
1FB
102
}
330
1FB
100
AcDbScale
 70
     0
300
1/8" = 1'-0"
140
0.125
141
12.0
290
     0
  0
SCALE
  5
223
102
{ACAD_REACTORS
330
1FB
102
}
330
1FB
100
AcDbScale
 70
     0
300
3/16" = 1'-0"
140
0.1875
141
12.0
290
     0
  0
SCALE
  5
224
102
{ACAD_REACTORS
330
1FB
102
}
330
1FB
100
AcDbScale
 70
     0
300
1/4" = 1'-0"
140
0.25
141
12.0
290
     0
  0
SCALE
  5
225
102
{ACAD_REACTORS
330
1FB
102
}
330
1FB
100
AcDbScale
 70
     0
300
3/8" = 1'-0"
140
0.375
141
12.0
290
     0
  0
SCALE
  5
226
102
{ACAD_REACTORS
330
1FB
102
}
330
1FB
100
AcDbScale
 70
     0
300
1" = 1'-0"
140
1.0
141
12.0
290
     0
  0
SCALE
  5
227
102
{ACAD_REACTORS
330
1FB
102
}
330
1FB
100
AcDbScale
 70
     0
300
1 1/2" = 1'-0"
140
1.5
141
12.0
290
     0
  0
SCALE
  5
228
102
{ACAD_REACTORS
330
1FB
102
}
330
1FB
100
AcDbScale
 70
     0
300
3" = 1'-0"
140
3.0
141
12.0
290
     0
  0
SCALE
  5
229
102
{ACAD_REACTORS
330
1FB
102
}
330
1FB
100
AcDbScale
 70
     0
300
6" = 1'-0"
140
6.0
141
12.0
290
     0
  0
DICTIONARYVAR
  5
22D
102
{ACAD_REACTORS
330
22C
102
}
330
22C
100
DictionaryVariables
280
     0
  1
1'-0" = 1'-0"
  0
ENDSEC
  0
EOF
