  0
SECTION
  2
HEADER
  9
$ACADVER
  1
AC1015
  9
$ACADMAINTVER
 70
               6
  9
$DWGCODEPAGE
  3
ANSI_1252
  9
$INSBASE
 10
0.0
 20
0.0
 30
0.0
  9
$EXTMIN
 10
-11.3217200000000009
 20
-4.957480314960601
 30
-0.1066333333333333
  9
$EXTMAX
 10
5.561757812499998
 20
5.3684250999999996
 30
0.1066333333333333
  9
$LIMMIN
 10
0.0
 20
0.0
  9
$LIMMAX
 10
0.0
 20
0.0
  9
$ORTHOMODE
 70
               0
  9
$REGENMODE
 70
               1
  9
$FILLMODE
 70
               1
  9
$QTEXTMODE
 70
               0
  9
$MIRRTEXT
 70
               1
  9
$LTSCALE
 40
0.4
  9
$ATTMODE
 70
               1
  9
$TEXTSIZE
 40
0.2
  9
$TRACEWID
 40
1.0
  9
$TEXTSTYLE
  7
Standard
  9
$CLAYER
  8
None
  9
$CELTYPE
  6
Continuous
  9
$CECOLOR
 62
             256
  9
$CELTSCALE
 40
1.0
  9
$DISPSILH
 70
               0
  9
$DIMSCALE
 40
1.0
  9
$DIMASZ
 40
0.25
  9
$DIMEXO
 40
0.14
  9
$DIMDLI
 40
0.2755905511811
  9
$DIMRND
 40
0.0
  9
$DIMDLE
 40
0.0
  9
$DIMEXE
 40
0.1574803149606
  9
$DIMTP
 40
0.0
  9
$DIMTM
 40
0.0
  9
$DIMTXT
 40
0.1992580384816239
  9
$DIMCEN
 40
0.0
  9
$DIMTSZ
 40
0.0
  9
$DIMTOL
 70
               0
  9
$DIMLIM
 70
               0
  9
$DIMTIH
 70
               0
  9
$DIMTOH
 70
               0
  9
$DIMSE1
 70
               0
  9
$DIMSE2
 70
               0
  9
$DIMTAD
 70
               1
  9
$DIMZIN
 70
               7
  9
$DIMBLK
  1
VW_FILLEDARROW
  9
$DIMASO
 70
               1
  9
$DIMSHO
 70
               1
  9
$DIMPOST
  1
<>
  9
$DIMAPOST
  1
[]
  9
$DIMALT
 70
               0
  9
$DIMALTD
 70
               2
  9
$DIMALTF
 40
25.3999999999999986
  9
$DIMLFAC
 40
1.0
  9
$DIMTOFL
 70
               1
  9
$DIMTVP
 40
0.0
  9
$DIMTIX
 70
               1
  9
$DIMSOXD
 70
               0
  9
$DIMSAH
 70
               0
  9
$DIMBLK1
  1

  9
$DIMBLK2
  1

  9
$DIMSTYLE
  2
PLACID 14
  9
$DIMCLRD
 70
               0
  9
$DIMCLRE
 70
               0
  9
$DIMCLRT
 70
               0
  9
$DIMTFAC
 40
1.0
  9
$DIMGAP
 40
0.039
  9
$DIMJUST
 70
               0
  9
$DIMSD1
 70
               0
  9
$DIMSD2
 70
               0
  9
$DIMTOLJ
 70
               1
  9
$DIMTZIN
 70
               7
  9
$DIMALTZ
 70
              11
  9
$DIMALTTZ
 70
              11
  9
$DIMUPT
 70
               0
  9
$DIMDEC
 70
               4
  9
$DIMTDEC
 70
               4
  9
$DIMALTU
 70
               2
  9
$DIMALTTD
 70
               2
  9
$DIMTXSTY
  7
Helvetica
  9
$DIMAUNIT
 70
               0
  9
$DIMADEC
 70
               0
  9
$DIMALTRND
 40
0.0
  9
$DIMAZIN
 70
               0
  9
$DIMDSEP
 70
              46
  9
$DIMATFIT
 70
               0
  9
$DIMFRAC
 70
               2
  9
$DIMLDRBLK
  1

  9
$DIMLUNIT
 70
               2
  9
$DIMLWD
 70
              -2
  9
$DIMLWE
 70
              -2
  9
$DIMTMOVE
 70
               0
  9
$LUNITS
 70
               2
  9
$LUPREC
 70
               4
  9
$SKETCHINC
 40
0.1
  9
$FILLETRAD
 40
0.0
  9
$AUNITS
 70
               0
  9
$AUPREC
 70
               0
  9
$MENU
  1
acad
  9
$ELEVATION
 40
0.0
  9
$PELEVATION
 40
0.0
  9
$THICKNESS
 40
0.0
  9
$LIMCHECK
 70
               0
  9
$CHAMFERA
 40
0.0
  9
$CHAMFERB
 40
0.0
  9
$CHAMFERC
 40
0.0
  9
$CHAMFERD
 40
0.0
  9
$SKPOLY
 70
               0
  9
$TDCREATE
 40
2455023.891793982
  9
$TDUCREATE
 40
0.000000000
  9
$TDUPDATE
 40
2455023.891793982
  9
$TDUUPDATE
 40
0.000000000
  9
$TDINDWG
 40
0.0000000000
  9
$TDUSRTIMER
 40
0.0000000000
  9
$USRTIMER
 70
               1
  9
$ANGBASE
 50
0.0
  9
$ANGDIR
 70
               0
  9
$PDMODE
 70
               1
  9
$PDSIZE
 40
-2.0
  9
$PLINEWID
 40
0.0
  9
$SPLFRAME
 70
               0
  9
$SPLINETYPE
 70
               6
  9
$SPLINESEGS
 70
               8
  9
$HANDSEED
  5
222
  9
$SURFTAB1
 70
               6
  9
$SURFTAB2
 70
               6
  9
$SURFTYPE
 70
               6
  9
$SURFU
 70
               6
  9
$SURFV
 70
               6
  9
$UCSBASE
  2

  9
$UCSNAME
  2

  9
$UCSORG
 10
0.0
 20
0.0
 30
0.0
  9
$UCSXDIR
 10
1.0
 20
0.0
 30
0.0
  9
$UCSYDIR
 10
0.0
 20
1.0
 30
0.0
  9
$UCSORTHOREF
  2

  9
$UCSORTHOVIEW
 70
               0
  9
$UCSORGTOP
 10
0.0
 20
0.0
 30
0.0
  9
$UCSORGBOTTOM
 10
0.0
 20
0.0
 30
0.0
  9
$UCSORGLEFT
 10
0.0
 20
0.0
 30
0.0
  9
$UCSORGRIGHT
 10
0.0
 20
0.0
 30
0.0
  9
$UCSORGFRONT
 10
0.0
 20
0.0
 30
0.0
  9
$UCSORGBACK
 10
0.0
 20
0.0
 30
0.0
  9
$PUCSBASE
  2

  9
$PUCSNAME
  2

  9
$PUCSORG
 10
0.0
 20
0.0
 30
0.0
  9
$PUCSXDIR
 10
1.0
 20
0.0
 30
0.0
  9
$PUCSYDIR
 10
0.0
 20
1.0
 30
0.0
  9
$PUCSORTHOREF
  2

  9
$PUCSORTHOVIEW
 70
               0
  9
$PUCSORGTOP
 10
0.0
 20
0.0
 30
0.0
  9
$PUCSORGBOTTOM
 10
0.0
 20
0.0
 30
0.0
  9
$PUCSORGLEFT
 10
0.0
 20
0.0
 30
0.0
  9
$PUCSORGRIGHT
 10
0.0
 20
0.0
 30
0.0
  9
$PUCSORGFRONT
 10
0.0
 20
0.0
 30
0.0
  9
$PUCSORGBACK
 10
0.0
 20
0.0
 30
0.0
  9
$USERI1
 70
               0
  9
$USERI2
 70
               0
  9
$USERI3
 70
               0
  9
$USERI4
 70
               0
  9
$USERI5
 70
               0
  9
$USERR1
 40
0.0
  9
$USERR2
 40
0.0
  9
$USERR3
 40
0.0
  9
$USERR4
 40
0.0
  9
$USERR5
 40
0.0
  9
$WORLDVIEW
 70
               1
  9
$SHADEDGE
 70
               3
  9
$SHADEDIF
 70
              70
  9
$TILEMODE
 70
               1
  9
$MAXACTVP
 70
              64
  9
$PINSBASE
 10
0.0
 20
0.0
 30
0.0
  9
$PLIMCHECK
 70
               0
  9
$PEXTMIN
 10
1.0000000000000000E+20
 20
1.0000000000000000E+20
 30
1.0000000000000000E+20
  9
$PEXTMAX
 10
-1.0000000000000000E+20
 20
-1.0000000000000000E+20
 30
-1.0000000000000000E+20
  9
$PLIMMIN
 10
0.0
 20
0.0
  9
$PLIMMAX
 10
12.0
 20
9.0
  9
$UNITMODE
 70
               0
  9
$VISRETAIN
 70
               0
  9
$PLINEGEN
 70
               1
  9
$PSLTSCALE
 70
               0
  9
$TREEDEPTH
 70
            3020
  9
$CMLSTYLE
  2
Standard
  9
$CMLJUST
 70
               0
  9
$CMLSCALE
 40
1.0
  9
$PROXYGRAPHICS
 70
               0
  9
$MEASUREMENT
 70
               0
  9
$CELWEIGHT
370
               0
  9
$ENDCAPS
280
               0
  9
$JOINSTYLE
280
               0
  9
$LWDISPLAY
290
               1
  9
$INSUNITS
 70
               1
  9
$HYPERLINKBASE
  1

  9
$STYLESHEET
  1

  9
$XEDIT
290
               1
  9
$CEPSNTYPE
380
               0
  9
$PSTYLEMODE
290
               1
  9
$FINGERPRINTGUID
  2

  9
$VERSIONGUID
  2

  9
$EXTNAMES
290
               1
  9
$PSVPSCALE
 40
0.0
  0
ENDSEC
  0
SECTION
  2
CLASSES
  0
CLASS
  1
LWPOLYLINE
  2
AcDbPolyline
  3
AutoCAD 2000
 90
        0
280
               0
281
               1
  0
CLASS
  1
IMAGE
  2
AcDbRasterImage
  3
ISM
 90
      127
280
               0
281
               1
  0
CLASS
  1
OLE2FRAME
  2
AcDbOle2Frame
  3
AutoCAD 2000
 90
        0
280
               0
281
               1
  0
CLASS
  1
HATCH
  2
AcDbHatch
  3
AutoCAD 2000
 90
        0
280
               0
281
               1
  0
CLASS
  1
DICTIONARYVAR
  2
AcDbDictionaryVar
  3
AutoCAD 2000
 90
        0
280
               0
281
               0
  0
CLASS
  1
RASTERVARIABLES
  2
AcDbRasterVariables
  3
ISM
 90
        0
280
               0
281
               0
  0
CLASS
  1
IMAGEDEF
  2
AcDbRasterImageDef
  3
ISM
 90
        0
280
               0
281
               0
  0
CLASS
  1
IMAGEDEF_REACTOR
  2
AcDbRasterImageDefReactor
  3
ISM
 90
        1
280
               0
281
               0
  0
CLASS
  1
IDBUFFER
  2
AcDbIdBuffer
  3
AutoCAD 2000
 90
        0
280
               0
281
               0
  0
CLASS
  1
SPATIAL_FILTER
  2
AcDbSpatialFilter
  3
AutoCAD 2000
 90
        0
280
               0
281
               0
  0
CLASS
  1
XRECORD
  2
AcDbXrecord
  3
AutoCAD 2000
 90
        0
280
               0
281
               0
  0
CLASS
  1
SORTENTSTABLE
  2
AcDbSortentsTable
  3
AutoCAD 2000
 90
        0
280
               0
281
               0
  0
CLASS
  1
LAYER_INDEX
  2
AcDbLayerIndex
  3
AutoCAD 2000
 90
        0
280
               0
281
               0
  0
CLASS
  1
SPATIAL_INDEX
  2
AcDbSpatialIndex
  3
AutoCAD 2000
 90
        0
280
               0
281
               0
  0
CLASS
  1
OBJECT_PTR
  2
CAseDLPNTableRecord
  3
"ASE-LPNTableRecord"
 90
        1
280
               0
281
               0
  0
CLASS
  1
LAYOUT
  2
AcDbLayout
  3
AutoCAD 2000
 90
        0
280
               0
281
               0
  0
CLASS
  1
PLOTSETTINGS
  2
AcDbPlotSettings
  3
AutoCAD 2000
 90
        0
280
               0
281
               0
  0
CLASS
  1
ACDBDICTIONARYWDFLT
  2
AcDbDictionaryWithDefault
  3
AutoCAD 2000
 90
        0
280
               0
281
               0
  0
CLASS
  1
ACDBPLACEHOLDER
  2
AcDbPlaceHolder
  3
AutoCAD 2000
 90
        0
280
               0
281
               0
  0
CLASS
  1
VBA_PROJECT
  2
AcDbVbaProject
  3
acadvba
 90
        0
280
               0
281
               0
  0
CLASS
  1
WIPEOUT
  2
AcDbWipeout
  3
WipeOut|AutoCAD Express Tool|expresstools@autodesk.com
 90
      127
280
               0
281
               1
  0
CLASS
  1
WIPEOUTVARIABLES
  2
AcDbWipeoutVariables
  3
WipeOut|AutoCAD Express Tool|expresstools@autodesk.com
 90
        0
280
               0
281
               0
  0
CLASS
  1
RTEXT
  2
RText
  3
RText|AutoCAD Express Tool|expresstools@autodesk.com
 90
        0
280
               0
281
               1
  0
CLASS
  1
ARCALIGNEDTEXT
  2
AcDbArcAlignedText
  3
ATEXT|AutoCAD Express Tool|expresstools@autodesk.com
 90
        0
280
               0
281
               1
  0
ENDSEC
  0
SECTION
  2
TABLES
  0
TABLE
  2
VPORT
  5
7
100
AcDbSymbolTable
 70
               1
  0
VPORT
  5
15
100
AcDbSymbolTableRecord
100
AcDbViewportTableRecord
  2
*ACTIVE
 70
               0
 10
0.0
 20
0.0
 11
1.0
 21
1.0
 12
-2.8799810937500023
 22
0.2054723925196997
 13
0.0
 23
0.0
 14
1.0
 24
1.0
 15
0.0
 25
0.0
 16
0.0
 26
0.0
 36
1.0
 17
0.0
 27
0.0
 37
0.0
 40
10.3259054149606015
 41
0.688564
 42
50.0
 43
0.0
 44
0.0
 50
0.0
 51
0.0
 71
               0
 72
            2000
 73
               1
 74
               1
 75
               0
 76
               0
 77
               0
 78
               0
281
               0
 65
               0
110
0.0
120
0.0
130
0.0
111
1.0
121
0.0
131
0.0
112
0.0
122
1.0
132
0.0
345
0
346
0
 79
               0
146
0.0
  0
ENDTAB
  0
TABLE
  2
LTYPE
  5
4
100
AcDbSymbolTable
 70
              14
  0
LTYPE
  5
11
100
AcDbSymbolTableRecord
100
AcDbLinetypeTableRecord
  2
ByBlock
 70
              64
  3

 72
              65
 73
               0
 40
0.0
  0
LTYPE
  5
12
100
AcDbSymbolTableRecord
100
AcDbLinetypeTableRecord
  2
ByLayer
 70
              64
  3

 72
              65
 73
               0
 40
0.0
  0
LTYPE
  5
13
100
AcDbSymbolTableRecord
100
AcDbLinetypeTableRecord
  2
Continuous
 70
              64
  3
Solid line
 72
              65
 73
               0
 40
0.0
  0
LTYPE
  5
29
100
AcDbSymbolTableRecord
100
AcDbLinetypeTableRecord
  2
STYLE_01
 70
               0
  3

 72
              65
 73
               2
 40
0.4166412353515625
 49
0.208282470703125
 74
               0
 49
-0.2083587646484375
 74
               0
  0
LTYPE
  5
2A
100
AcDbSymbolTableRecord
100
AcDbLinetypeTableRecord
  2
STYLE_02
 70
               0
  3

 72
              65
 73
               2
 40
0.694427490234375
 49
0.4860687255859375
 74
               0
 49
-0.2083587646484375
 74
               0
  0
LTYPE
  5
2B
100
AcDbSymbolTableRecord
100
AcDbLinetypeTableRecord
  2
STYLE_03
 70
               0
  3

 72
              65
 73
               2
 40
1.25
 49
1.0416412353515625
 74
               0
 49
-0.2083587646484375
 74
               0
  0
LTYPE
  5
2C
100
AcDbSymbolTableRecord
100
AcDbLinetypeTableRecord
  2
STYLE_04
 70
               0
  3

 72
              65
 73
               2
 40
1.5277099609375
 49
1.319427490234375
 74
               0
 49
-0.208282470703125
 74
               0
  0
LTYPE
  5
2D
100
AcDbSymbolTableRecord
100
AcDbLinetypeTableRecord
  2
STYLE_05
 70
               0
  3

 72
              65
 73
               2
 40
0.208282470703125
 49
0.069427490234375
 74
               0
 49
-0.13885498046875
 74
               0
  0
LTYPE
  5
2E
100
AcDbSymbolTableRecord
100
AcDbLinetypeTableRecord
  2
STYLE_06
 70
               0
  3

 72
              65
 73
               4
 40
1.0416412353515625
 49
0.625
 74
               0
 49
-0.208282470703125
 74
               0
 49
0.069427490234375
 74
               0
 49
-0.1389312744140625
 74
               0
  0
LTYPE
  5
2F
100
AcDbSymbolTableRecord
100
AcDbLinetypeTableRecord
  2
STYLE_07
 70
               0
  3

 72
              65
 73
               6
 40
1.875
 49
0.625
 74
               0
 49
-0.208282470703125
 74
               0
 49
0.625
 74
               0
 49
-0.2083587646484375
 74
               0
 49
0.069427490234375
 74
               0
 49
-0.1389312744140625
 74
               0
  0
LTYPE
  5
30
100
AcDbSymbolTableRecord
100
AcDbLinetypeTableRecord
  2
STYLE_08
 70
               0
  3

 72
              65
 73
               6
 40
1.25
 49
0.625
 74
               0
 49
-0.208282470703125
 74
               0
 49
0.069427490234375
 74
               0
 49
-0.1389312744140625
 74
               0
 49
0.069427490234375
 74
               0
 49
-0.1389312744140625
 74
               0
  0
LTYPE
  5
31
100
AcDbSymbolTableRecord
100
AcDbLinetypeTableRecord
  2
STYLE_09
 70
               0
  3

 72
              65
 73
               4
 40
5.0
 49
3.75
 74
               0
 49
-0.2777862548828125
 74
               0
 49
0.694427490234375
 74
               0
 49
-0.2777862548828125
 74
               0
  0
LTYPE
  5
32
100
AcDbSymbolTableRecord
100
AcDbLinetypeTableRecord
  2
STYLE_10
 70
               0
  3

 72
              65
 73
               6
 40
5.9375
 49
3.75
 74
               0
 49
-0.2777862548828125
 74
               0
 49
0.694427490234375
 74
               0
 49
-0.2777862548828125
 74
               0
 49
0.625
 74
               0
 49
-0.3125
 74
               0
  0
LTYPE
  5
33
100
AcDbSymbolTableRecord
100
AcDbLinetypeTableRecord
  2
STYLE_11
 70
               0
  3

 72
              65
 73
               2
 40
0.8333499999999999
 49
0.625
 74
               0
 49
-0.2083499999999999
 74
               0
  0
ENDTAB
  0
TABLE
  2
LAYER
  5
2
100
AcDbSymbolTable
 70
               5
  0
LAYER
  5
14
100
AcDbSymbolTableRecord
100
AcDbLayerTableRecord
  2
0
 70
               0
 62
               7
  6
Continuous
290
               1
370
              -3
390
1D
  0
LAYER
  5
34
100
AcDbSymbolTableRecord
100
AcDbLayerTableRecord
  2
None
 70
               0
 62
               7
  6
Continuous
290
               1
370
               5
390
1D
  0
LAYER
  5
35
100
AcDbSymbolTableRecord
100
AcDbLayerTableRecord
  2
Dimension
 70
               0
 62
               7
  6
Continuous
290
               1
370
               5
390
1D
  0
LAYER
  5
36
100
AcDbSymbolTableRecord
100
AcDbLayerTableRecord
  2
LAYER_1
 70
               0
 62
               7
  6
Continuous
290
               1
370
              15
390
1D
  0
LAYER
  5
37
100
AcDbSymbolTableRecord
100
AcDbLayerTableRecord
  2
Defpoints
 70
               0
 62
               7
  6
Continuous
290
               0
370
              -3
390
1D
  0
ENDTAB
  0
TABLE
  2
STYLE
  5
3
100
AcDbSymbolTable
 70
               2
  0
STYLE
  5
17
100
AcDbSymbolTableRecord
100
AcDbTextStyleTableRecord
  2
Standard
 70
               0
 40
0.0
 41
1.0
 50
0.0
 71
               0
 42
0.0
  3
txt
  4

  0
STYLE
  5
28
100
AcDbSymbolTableRecord
100
AcDbTextStyleTableRecord
  2
Helvetica
 70
               0
 40
0.0
 41
1.0
 50
0.0
 71
               0
 42
0.0
  3
Helvetica
  4

1001
ACAD
1000
Helvetica
1071
        0
  0
ENDTAB
  0
TABLE
  2
VIEW
  5
5
100
AcDbSymbolTable
 70
               0
  0
ENDTAB
  0
TABLE
  2
UCS
  5
6
100
AcDbSymbolTable
 70
               0
  0
ENDTAB
  0
TABLE
  2
APPID
  5
8
100
AcDbSymbolTable
 70
               1
  0
APPID
  5
16
100
AcDbSymbolTableRecord
100
AcDbRegAppTableRecord
  2
ACAD
 70
               0
  0
ENDTAB
  0
TABLE
  2
DIMSTYLE
  5
9
100
AcDbSymbolTable
 70
               2
100
AcDbDimStyleTable
 71
               0
  0
DIMSTYLE
105
18
100
AcDbSymbolTableRecord
100
AcDbDimStyleTableRecord
  2
Standard
 70
               0
  3

  4

 40
1.0
 41
0.18
 42
0.0625
 43
0.38
 44
0.18
 45
0.0
 46
0.0
 47
0.0
 48
0.0
 71
               0
 72
               0
 73
               1
 74
               1
 75
               0
 76
               0
 77
               0
 78
               0
 79
               0
140
0.18
141
0.09
142
0.0
143
25.3999999999999986
144
1.0
145
0.0
146
1.0
147
0.09
148
0.0
170
               0
171
               2
172
               0
173
               0
174
               0
175
               0
176
               0
177
               0
178
               0
179
               0
271
               4
272
               4
273
               2
274
               2
275
               0
276
               0
277
               2
278
              46
279
               0
280
               0
281
               0
282
               0
283
               1
284
               0
285
               0
286
               0
288
               0
289
               3
340
17
341
0
342
0
343
0
344
0
371
              -2
372
              -2
  0
DIMSTYLE
105
41
100
AcDbSymbolTableRecord
100
AcDbDimStyleTableRecord
  2
PLACID 14
 70
               0
  3
<>
  4
[]
 40
1.0
 41
0.25
 42
0.14
 43
0.2755905511811
 44
0.1574803149606
 45
0.0
 46
0.0
 47
0.0
 48
0.0
 71
               0
 72
               0
 73
               0
 74
               0
 75
               0
 76
               0
 77
               1
 78
               7
 79
               0
140
0.1992580384816239
141
0.0
142
0.0
143
25.3999999999999986
144
1.0
145
0.0
146
1.0
147
0.039
148
0.0
170
               0
171
               2
172
               1
173
               0
174
               1
175
               0
176
               0
177
               0
178
               0
179
               0
271
               4
272
               4
273
               2
274
               2
275
               0
276
               2
277
               2
278
              46
279
               0
280
               0
281
               0
282
               0
283
               1
284
               7
285
              11
286
              11
288
               0
289
               0
340
28
341
38
342
38
343
0
344
0
371
              -2
372
              -2
  0
ENDTAB
  0
TABLE
  2
BLOCK_RECORD
  5
1
100
AcDbSymbolTable
 70
               5
  0
BLOCK_RECORD
  5
A
100
AcDbSymbolTableRecord
100
AcDbBlockTableRecord
  2
*MODEL_SPACE
340
20
  0
BLOCK_RECORD
  5
B
100
AcDbSymbolTableRecord
100
AcDbBlockTableRecord
  2
*PAPER_SPACE
340
21
  0
BLOCK_RECORD
  5
38
100
AcDbSymbolTableRecord
100
AcDbBlockTableRecord
  2
VW_FILLEDARROW
340
0
  0
BLOCK_RECORD
  5
24
100
AcDbSymbolTableRecord
100
AcDbBlockTableRecord
  2
Group
340
0
102
{BLKREFS
331
C4
102
}
  0
BLOCK_RECORD
  5
25
100
AcDbSymbolTableRecord
100
AcDbBlockTableRecord
  2
Group-1
340
0
102
{BLKREFS
331
C6
102
}
  0
BLOCK_RECORD
  5
26
100
AcDbSymbolTableRecord
100
AcDbBlockTableRecord
  2
*D3
340
0
  0
BLOCK_RECORD
  5
27
100
AcDbSymbolTableRecord
100
AcDbBlockTableRecord
  2
*D4
340
0
  0
ENDTAB
  0
ENDSEC
  0
SECTION
  2
BLOCKS
  0
BLOCK
  5
D
100
AcDbEntity
  8
0
390
0
100
AcDbBlockBegin
  2
*MODEL_SPACE
 70
               0
 10
0.0
 20
0.0
 30
0.0
  3
*MODEL_SPACE
  1

  0
ENDBLK
  5
E
100
AcDbEntity
  8
0
390
0
100
AcDbBlockEnd
  0
BLOCK
  5
F
100
AcDbEntity
 67
               1
  8
0
390
0
100
AcDbBlockBegin
  2
*PAPER_SPACE
 70
               0
 10
0.0
 20
0.0
 30
0.0
  3
*PAPER_SPACE
  1

  0
ENDBLK
  5
10
100
AcDbEntity
 67
               1
  8
0
390
0
100
AcDbBlockEnd
  0
BLOCK
  5
39
100
AcDbEntity
  8
0
370
              -2
390
0
  6
ByBlock
 62
               0
100
AcDbBlockBegin
  2
VW_FILLEDARROW
 70
               0
 10
0.0
 20
0.0
 30
0.0
  3
VW_FILLEDARROW
  1

  0
POLYLINE
  5
3A
102
{ACAD_REACTORS
330
3F
102
}
100
AcDbEntity
  8
None
370
               5
390
0
  6
STYLE_09
 62
               0
100
AcDb2dPolyline
 66
               1
 10
0.0
 20
0.0
 30
0.0
 70
               1
 75
               5
  0
VERTEX
  5
3B
100
AcDbEntity
  8
None
370
               5
390
0
  6
STYLE_09
 62
               0
100
AcDbVertex
100
AcDb2dVertex
 10
-1.0
 20
0.2679491924311228
 30
0.0
  0
VERTEX
  5
3C
100
AcDbEntity
  8
None
370
               5
390
0
  6
STYLE_09
 62
               0
100
AcDbVertex
100
AcDb2dVertex
 10
0.0
 20
0.0
 30
0.0
  0
VERTEX
  5
3D
100
AcDbEntity
  8
None
370
               5
390
0
  6
STYLE_09
 62
               0
100
AcDbVertex
100
AcDb2dVertex
 10
-0.9999999999999999
 20
-0.267949192431123
 30
0.0
  0
SEQEND
  5
3E
100
AcDbEntity
  8
None
370
               5
390
0
  6
STYLE_09
 62
               0
  0
HATCH
  5
3F
100
AcDbEntity
  8
0
370
               0
390
0
  6
ByBlock
 62
               0
100
AcDbHatch
 10
0.0
 20
0.0
 30
0.0
210
0.0
220
0.0
230
1.0
  2
SOLID
 70
               1
 71
               1
 91
        1
 92
        1
 93
        3
 72
               1
 10
-1.0
 20
0.2679491924311228
 11
0.0
 21
0.0
 72
               1
 10
0.0
 20
0.0
 11
-0.9999999999999999
 21
-0.267949192431123
 72
               1
 10
-0.9999999999999999
 20
-0.267949192431123
 11
-1.0
 21
0.2679491924311228
 97
        1
330
3A
 75
               0
 76
               1
 98
        1
 10
0.0
 20
0.0
  0
ENDBLK
  5
40
100
AcDbEntity
  8
0
390
0
100
AcDbBlockEnd
  0
BLOCK
  5
42
100
AcDbEntity
  8
None
390
0
100
AcDbBlockBegin
  2
Group
 70
               0
 10
0.0
 20
0.0
 30
0.0
  3
Group
  1

  0
WIPEOUT
  5
43
100
AcDbEntity
  8
None
370
               5
390
0
  6
Continuous
 62
               7
 92
        0
100
AcDbWipeout
 90
        0
 10
6.3254000000000001
 20
2.7749999999999999
 30
0.0
 11
0.5995999999999999
 21
0.0
 31
0.0
 12
0.0
 22
0.5995999999999999
 32
0.0
 13
1.0
 23
1.0
340
0
 70
               7
280
               1
281
              50
282
              50
283
               0
360
0
 71
               2
 91
        5
 14
0.4999999999999997
 24
0.1664442961974646
 14
0.4999999999999997
 24
0.5
 14
-0.5
 24
0.5
 14
-0.5
 24
0.1664442961974646
 14
0.4999999999999997
 24
0.1664442961974646
  0
POLYLINE
  5
44
100
AcDbEntity
  8
None
370
               5
390
0
  6
Continuous
 62
               7
100
AcDb2dPolyline
 66
               1
 10
0.0
 20
0.0
 30
0.0
 70
               1
 75
               5
  0
VERTEX
  5
45
100
AcDbEntity
  8
None
370
               5
390
0
  6
Continuous
 62
               7
100
AcDbVertex
100
AcDb2dVertex
 10
6.9249999999999998
 20
2.9750000000000001
 30
0.0
  0
VERTEX
  5
46
100
AcDbEntity
  8
None
370
               5
390
0
  6
Continuous
 62
               7
100
AcDbVertex
100
AcDb2dVertex
 10
6.9249999999999998
 20
2.7749999999999999
 30
0.0
  0
VERTEX
  5
47
100
AcDbEntity
  8
None
370
               5
390
0
  6
Continuous
 62
               7
100
AcDbVertex
100
AcDb2dVertex
 10
6.3254000000000001
 20
2.7749999999999999
 30
0.0
  0
VERTEX
  5
48
100
AcDbEntity
  8
None
370
               5
390
0
  6
Continuous
 62
               7
100
AcDbVertex
100
AcDb2dVertex
 10
6.3254000000000001
 20
2.9750000000000001
 30
0.0
  0
SEQEND
  5
49
100
AcDbEntity
  8
None
370
               5
390
0
  6
Continuous
 62
               7
  0
WIPEOUT
  5
4B
100
AcDbEntity
  8
None
370
               5
390
0
  6
Continuous
 62
               7
 92
        0
100
AcDbWipeout
 90
        0
 10
6.267665
 20
2.7749999999999999
 30
0.0
 11
0.2
 21
0.0
 31
0.0
 12
0.0
 22
0.2
 32
0.0
 13
1.0
 23
1.0
340
0
 70
               7
280
               1
281
              50
282
              50
283
               0
360
0
 71
               2
 91
        5
 14
-0.2113249999999995
 24
-0.5000000000000011
 14
-0.2113249999999995
 24
-0.5000000000000011
 14
-0.5
 24
-0.0000000000000006
 14
-0.2113249999999995
 24
0.5
 14
-0.2113249999999995
 24
-0.5000000000000011
  0
POLYLINE
  5
4C
100
AcDbEntity
  8
None
370
               5
390
0
  6
Continuous
 62
               7
100
AcDb2dPolyline
 66
               1
 10
0.0
 20
0.0
 30
0.0
 70
               1
 75
               5
  0
VERTEX
  5
4D
100
AcDbEntity
  8
None
370
               5
390
0
  6
Continuous
 62
               7
100
AcDbVertex
100
AcDb2dVertex
 10
6.3254000000000001
 20
2.9750000000000001
 30
0.0
  0
VERTEX
  5
4E
100
AcDbEntity
  8
None
370
               5
390
0
  6
Continuous
 62
               7
100
AcDbVertex
100
AcDb2dVertex
 10
6.3254000000000001
 20
2.9750000000000001
 30
0.0
  0
VERTEX
  5
4F
100
AcDbEntity
  8
None
370
               5
390
0
  6
Continuous
 62
               7
100
AcDbVertex
100
AcDb2dVertex
 10
6.267665
 20
2.875
 30
0.0
  0
VERTEX
  5
50
100
AcDbEntity
  8
None
370
               5
390
0
  6
Continuous
 62
               7
100
AcDbVertex
100
AcDb2dVertex
 10
6.3254000000000001
 20
2.7749999999999999
 30
0.0
  0
SEQEND
  5
51
100
AcDbEntity
  8
None
370
               5
390
0
  6
Continuous
 62
               7
  0
POLYLINE
  5
53
100
AcDbEntity
  8
None
370
               5
390
0
  6
STYLE_02
 62
               7
100
AcDb2dPolyline
 66
               1
 10
0.0
 20
0.0
 30
0.0
 75
               5
  0
VERTEX
  5
54
100
AcDbEntity
  8
None
370
               5
390
0
  6
STYLE_02
 62
               7
100
AcDbVertex
100
AcDb2dVertex
 10
6.9249999999999998
 20
2.9999999999999996
 30
0.0
  0
VERTEX
  5
55
100
AcDbEntity
  8
None
370
               5
390
0
  6
STYLE_02
 62
               7
100
AcDbVertex
100
AcDb2dVertex
 10
6.3629999999999995
 20
2.9999999999999996
 30
0.0
  0
VERTEX
  5
56
100
AcDbEntity
  8
None
370
               5
390
0
  6
STYLE_02
 62
               7
100
AcDbVertex
100
AcDb2dVertex
 10
6.3629999999999995
 20
2.75
 30
0.0
  0
VERTEX
  5
57
100
AcDbEntity
  8
None
370
               5
390
0
  6
STYLE_02
 62
               7
100
AcDbVertex
100
AcDb2dVertex
 10
6.9249999999999998
 20
2.75
 30
0.0
  0
SEQEND
  5
58
100
AcDbEntity
  8
None
370
               5
390
0
  6
STYLE_02
 62
               7
  0
ENDBLK
  5
5A
100
AcDbEntity
  8
None
390
0
100
AcDbBlockEnd
  0
BLOCK
  5
5B
100
AcDbEntity
  8
None
390
0
100
AcDbBlockBegin
  2
Group-1
 70
               0
 10
0.0
 20
0.0
 30
0.0
  3
Group-1
  1

  0
WIPEOUT
  5
5C
100
AcDbEntity
  8
None
370
               5
390
0
  6
Continuous
 62
               7
 92
        0
100
AcDbWipeout
 90
        0
 10
6.3254000000000001
 20
-2.9750000000000001
 30
0.0
 11
0.5995999999999999
 21
0.0
 31
0.0
 12
0.0
 22
0.5995999999999999
 32
0.0
 13
1.0
 23
1.0
340
0
 70
               7
280
               1
281
              50
282
              50
283
               0
360
0
 71
               2
 91
        5
 14
0.4999999999999997
 24
0.1664442961974646
 14
0.4999999999999997
 24
0.5
 14
-0.5
 24
0.5
 14
-0.5
 24
0.1664442961974646
 14
0.4999999999999997
 24
0.1664442961974646
  0
POLYLINE
  5
5D
100
AcDbEntity
  8
None
370
               5
390
0
  6
Continuous
 62
               7
100
AcDb2dPolyline
 66
               1
 10
0.0
 20
0.0
 30
0.0
 70
               1
 75
               5
  0
VERTEX
  5
5E
100
AcDbEntity
  8
None
370
               5
390
0
  6
Continuous
 62
               7
100
AcDbVertex
100
AcDb2dVertex
 10
6.9249999999999998
 20
-2.7749999999999999
 30
0.0
  0
VERTEX
  5
5F
100
AcDbEntity
  8
None
370
               5
390
0
  6
Continuous
 62
               7
100
AcDbVertex
100
AcDb2dVertex
 10
6.9249999999999998
 20
-2.9750000000000001
 30
0.0
  0
VERTEX
  5
60
100
AcDbEntity
  8
None
370
               5
390
0
  6
Continuous
 62
               7
100
AcDbVertex
100
AcDb2dVertex
 10
6.3254000000000001
 20
-2.9750000000000001
 30
0.0
  0
VERTEX
  5
61
100
AcDbEntity
  8
None
370
               5
390
0
  6
Continuous
 62
               7
100
AcDbVertex
100
AcDb2dVertex
 10
6.3254000000000001
 20
-2.7749999999999999
 30
0.0
  0
SEQEND
  5
62
100
AcDbEntity
  8
None
370
               5
390
0
  6
Continuous
 62
               7
  0
WIPEOUT
  5
64
100
AcDbEntity
  8
None
370
               5
390
0
  6
Continuous
 62
               7
 92
        0
100
AcDbWipeout
 90
        0
 10
6.267665
 20
-2.9750000000000001
 30
0.0
 11
0.2
 21
0.0
 31
0.0
 12
0.0
 22
0.2
 32
0.0
 13
1.0
 23
1.0
340
0
 70
               7
280
               1
281
              50
282
              50
283
               0
360
0
 71
               2
 91
        5
 14
-0.2113249999999995
 24
-0.5000000000000011
 14
-0.2113249999999995
 24
-0.5000000000000011
 14
-0.5
 24
-0.0000000000000006
 14
-0.2113249999999995
 24
0.5
 14
-0.2113249999999995
 24
-0.5000000000000011
  0
POLYLINE
  5
65
100
AcDbEntity
  8
None
370
               5
390
0
  6
Continuous
 62
               7
100
AcDb2dPolyline
 66
               1
 10
0.0
 20
0.0
 30
0.0
 70
               1
 75
               5
  0
VERTEX
  5
66
100
AcDbEntity
  8
None
370
               5
390
0
  6
Continuous
 62
               7
100
AcDbVertex
100
AcDb2dVertex
 10
6.3254000000000001
 20
-2.7749999999999999
 30
0.0
  0
VERTEX
  5
67
100
AcDbEntity
  8
None
370
               5
390
0
  6
Continuous
 62
               7
100
AcDbVertex
100
AcDb2dVertex
 10
6.3254000000000001
 20
-2.7749999999999999
 30
0.0
  0
VERTEX
  5
68
100
AcDbEntity
  8
None
370
               5
390
0
  6
Continuous
 62
               7
100
AcDbVertex
100
AcDb2dVertex
 10
6.267665
 20
-2.875
 30
0.0
  0
VERTEX
  5
69
100
AcDbEntity
  8
None
370
               5
390
0
  6
Continuous
 62
               7
100
AcDbVertex
100
AcDb2dVertex
 10
6.3254000000000001
 20
-2.9750000000000001
 30
0.0
  0
SEQEND
  5
6A
100
AcDbEntity
  8
None
370
               5
390
0
  6
Continuous
 62
               7
  0
POLYLINE
  5
6C
100
AcDbEntity
  8
None
370
               5
390
0
  6
STYLE_02
 62
               7
100
AcDb2dPolyline
 66
               1
 10
0.0
 20
0.0
 30
0.0
 75
               5
  0
VERTEX
  5
6D
100
AcDbEntity
  8
None
370
               5
390
0
  6
STYLE_02
 62
               7
100
AcDbVertex
100
AcDb2dVertex
 10
6.9249999999999998
 20
-2.75
 30
0.0
  0
VERTEX
  5
6E
100
AcDbEntity
  8
None
370
               5
390
0
  6
STYLE_02
 62
               7
100
AcDbVertex
100
AcDb2dVertex
 10
6.3629999999999995
 20
-2.75
 30
0.0
  0
VERTEX
  5
6F
100
AcDbEntity
  8
None
370
               5
390
0
  6
STYLE_02
 62
               7
100
AcDbVertex
100
AcDb2dVertex
 10
6.3629999999999995
 20
-2.9999999999999996
 30
0.0
  0
VERTEX
  5
70
100
AcDbEntity
  8
None
370
               5
390
0
  6
STYLE_02
 62
               7
100
AcDbVertex
100
AcDb2dVertex
 10
6.9249999999999998
 20
-2.9999999999999996
 30
0.0
  0
SEQEND
  5
71
100
AcDbEntity
  8
None
370
               5
390
0
  6
STYLE_02
 62
               7
  0
ENDBLK
  5
73
100
AcDbEntity
  8
None
390
0
100
AcDbBlockEnd
  0
BLOCK
  5
74
100
AcDbEntity
  8
Dimension
390
0
100
AcDbBlockBegin
  2
*D3
 70
               1
 10
0.0
 20
0.0
 30
0.0
  3
*D3
  1

  0
LINE
  5
75
100
AcDbEntity
  8
Dimension
370
              -2
390
0
  6
Continuous
 62
               0
100
AcDbLine
 10
-7.4241143888308727
 20
-0.2457447377477712
 30
0.0
 11
-4.5991509482523032
 21
-1.54
 31
0.0
  0
POLYLINE
  5
76
102
{ACAD_REACTORS
330
7B
102
}
100
AcDbEntity
  8
None
370
               5
390
0
  6
STYLE_09
 62
               0
100
AcDb2dPolyline
 66
               1
 10
0.0
 20
0.0
 30
0.0
 70
               1
 75
               5
  0
VERTEX
  5
77
100
AcDbEntity
  8
None
370
               5
390
0
  6
STYLE_09
 62
               0
100
AcDbVertex
100
AcDb2dVertex
 10
-7.2229742131812991
 20
-0.408624840422835
 30
0.0
  0
VERTEX
  5
78
100
AcDbEntity
  8
None
370
               5
390
0
  6
STYLE_09
 62
               0
100
AcDbVertex
100
AcDb2dVertex
 10
-7.4241143888308727
 20
-0.2457447377477712
 30
0.0
  0
VERTEX
  5
79
100
AcDbEntity
  8
None
370
               5
390
0
  6
STYLE_09
 62
               0
100
AcDbVertex
100
AcDb2dVertex
 10
-7.1684818356591453
 20
-0.2862329566106074
 30
0.0
  0
SEQEND
  5
7A
100
AcDbEntity
  8
None
370
               5
390
0
  6
STYLE_09
 62
               0
  0
HATCH
  5
7B
100
AcDbEntity
  8
Dimension
370
               0
390
0
  6
Continuous
 62
               0
100
AcDbHatch
 10
0.0
 20
0.0
 30
0.0
210
0.0
220
0.0
230
1.0
  2
SOLID
 70
               1
 71
               1
 91
        1
 92
        1
 93
        3
 72
               1
 10
-7.2229742131812991
 20
-0.408624840422835
 11
-7.4241143888308727
 21
-0.2457447377477712
 72
               1
 10
-7.4241143888308727
 20
-0.2457447377477712
 11
-7.1684818356591453
 21
-0.2862329566106074
 72
               1
 10
-7.1684818356591453
 20
-0.2862329566106074
 11
-7.2229742131812991
 21
-0.408624840422835
 97
        1
330
76
 75
               0
 76
               1
 98
        1
 10
0.0
 20
0.0
  0
LINE
  5
7C
100
AcDbEntity
  8
Dimension
370
              -2
390
0
  6
Continuous
 62
               0
100
AcDbLine
 10
-4.5991509482523032
 20
-1.54
 30
0.0
 11
-3.2928341353149477
 21
-1.54
 31
0.0
  0
WIPEOUT
  5
7D
100
AcDbEntity
  8
Dimension
370
              -2
390
0
  6
Continuous
 62
               0
 92
        0
100
AcDbWipeout
 90
        0
 10
-4.1267100033705031
 20
-4.0225000000000009
 30
0.0
 11
0.8338758680555556
 21
0.0
 31
0.0
 12
0.0
 22
0.8338758680555556
 32
0.0
 13
1.0
 23
1.0
340
0
 70
               7
280
               1
281
              50
282
              50
283
               0
360
0
 71
               2
 91
        5
 14
-0.5
 24
-2.5706009108653234
 14
0.4999999999999998
 24
-2.5706009108653234
 14
0.4999999999999998
 24
-2.9037173715029287
 14
-0.5
 24
-2.9037173715029287
 14
-0.5
 24
-2.5706009108653234
  0
MTEXT
  5
7E
100
AcDbEntity
  8
Dimension
390
0
 62
               0
100
AcDbMText
 10
-4.1267100033705031
 20
-1.1988530726294873
 30
0.0
 40
0.1992580384816239
 41
0.0
 71
               1
 72
               1
  1
Ø 1.18
  7
Helvetica
 73
               1
 44
0.8397955333929318
  0
POINT
  5
7F
100
AcDbEntity
  8
Defpoints
370
               0
390
0
 62
               0
100
AcDbPoint
 10
-8.4968856111691284
 20
0.2457447377477709
 30
0.0
  0
POINT
  5
80
100
AcDbEntity
  8
Defpoints
370
               0
390
0
 62
               0
100
AcDbPoint
 10
-7.4241143888308727
 20
-0.2457447377477712
 30
0.0
  0
ENDBLK
  5
81
100
AcDbEntity
  8
Dimension
390
0
100
AcDbBlockEnd
  0
BLOCK
  5
82
100
AcDbEntity
  8
Dimension
390
0
100
AcDbBlockBegin
  2
*D4
 70
               1
 10
0.0
 20
0.0
 30
0.0
  3
*D4
  1

  0
LINE
  5
83
100
AcDbEntity
  8
Dimension
370
              -2
390
0
  6
Continuous
 62
               0
100
AcDbLine
 10
-7.0665003447207351
 20
-1.5766802645693738
 30
0.0
 11
-6.1200000000000001
 21
-3.2459520647504618
 31
0.0
  0
POLYLINE
  5
84
102
{ACAD_REACTORS
330
89
102
}
100
AcDbEntity
  8
None
370
               5
390
0
  6
STYLE_09
 62
               0
100
AcDb2dPolyline
 66
               1
 10
0.0
 20
0.0
 30
0.0
 70
               1
 75
               5
  0
VERTEX
  5
85
100
AcDbEntity
  8
None
370
               5
390
0
  6
STYLE_09
 62
               0
100
AcDbVertex
100
AcDb2dVertex
 10
-6.9995130466129538
 20
-1.826680264569374
 30
0.0
  0
VERTEX
  5
86
100
AcDbEntity
  8
None
370
               5
390
0
  6
STYLE_09
 62
               0
100
AcDbVertex
100
AcDb2dVertex
 10
-7.0665003447207351
 20
-1.5766802645693738
 30
0.0
  0
VERTEX
  5
87
100
AcDbEntity
  8
None
370
               5
390
0
  6
STYLE_09
 62
               0
100
AcDbVertex
100
AcDb2dVertex
 10
-6.8834876428285163
 20
-1.759692966461593
 30
0.0
  0
SEQEND
  5
88
100
AcDbEntity
  8
None
370
               5
390
0
  6
STYLE_09
 62
               0
  0
HATCH
  5
89
100
AcDbEntity
  8
Dimension
370
               0
390
0
  6
Continuous
 62
               0
100
AcDbHatch
 10
0.0
 20
0.0
 30
0.0
210
0.0
220
0.0
230
1.0
  2
SOLID
 70
               1
 71
               1
 91
        1
 92
        1
 93
        3
 72
               1
 10
-6.9995130466129538
 20
-1.826680264569374
 11
-7.0665003447207351
 21
-1.5766802645693738
 72
               1
 10
-7.0665003447207351
 20
-1.5766802645693738
 11
-6.8834876428285163
 21
-1.759692966461593
 72
               1
 10
-6.8834876428285163
 20
-1.759692966461593
 11
-6.9995130466129538
 21
-1.826680264569374
 97
        1
330
84
 75
               0
 76
               1
 98
        1
 10
0.0
 20
0.0
  0
LINE
  5
8A
100
AcDbEntity
  8
Dimension
370
              -2
390
0
  6
Continuous
 62
               0
100
AcDbLine
 10
-6.1200000000000001
 20
-3.2459520647504618
 30
0.0
 11
-4.659196424909867
 21
-3.2459520647504618
 31
0.0
  0
WIPEOUT
  5
8B
100
AcDbEntity
  8
Dimension
370
              -2
390
0
  6
Continuous
 62
               0
 92
        0
100
AcDbWipeout
 90
        0
 10
-5.6475590551182
 20
-5.659007620306018
 30
0.0
 11
0.2932400173611114
 21
0.0
 31
0.0
 12
0.0
 22
0.2932400173611114
 32
0.0
 13
1.0
 23
1.0
340
0
 70
               7
280
               1
281
              50
282
              50
283
               0
360
0
 71
               2
 91
        5
 14
-0.5
 24
-8.2317550416281158
 14
0.5000000000000007
 24
-8.2317550416281158
 14
0.5000000000000007
 24
-9.179026086956517
 14
-0.5
 24
-9.179026086956517
 14
-0.5
 24
-8.2317550416281158
  0
MTEXT
  5
8C
100
AcDbEntity
  8
Dimension
390
0
 62
               0
100
AcDbMText
 10
-5.6475590551182
 20
-2.8353606929355046
 30
0.0
 40
0.1992580384816239
 41
0.0
 71
               1
 72
               1
  1
Ø 
  7
Helvetica
 73
               1
 44
0.8397955333929318
  0
WIPEOUT
  5
8D
100
AcDbEntity
  8
Dimension
370
              -2
390
0
  6
Continuous
 62
               0
 92
        0
100
AcDbWipeout
 90
        0
 10
-5.3543190377570884
 20
-5.4228965091949064
 30
0.0
 11
0.6951226128472222
 21
0.0
 31
0.0
 12
0.0
 22
0.6951226128472222
 32
0.0
 13
1.0
 23
1.0
340
0
 70
               7
280
               1
281
              50
282
              50
283
               0
360
0
 71
               2
 91
        5
 14
-0.5
 24
-3.1835228097560981
 14
0.4999999999999989
 24
-3.1835228097560981
 14
0.4999999999999989
 24
-3.583132565853659
 14
-0.5
 24
-3.583132565853659
 14
-0.5
 24
-3.1835228097560981
  0
MTEXT
  5
8E
100
AcDbEntity
  8
Dimension
390
0
 62
               0
100
AcDbMText
 10
-5.3543190377570884
 20
-2.5992495818243935
 30
0.0
 40
0.1992580384816239
 41
0.0
 71
               1
 72
               1
  1
3.625
  7
Helvetica
 73
               1
 44
0.8397955333929318
  0
WIPEOUT
  5
8F
100
AcDbEntity
  8
Dimension
370
              -2
390
0
  6
Continuous
 62
               0
 92
        0
100
AcDbWipeout
 90
        0
 10
-5.3543190377570884
 20
-5.7562298425282403
 30
0.0
 11
0.6951226128472222
 21
0.0
 31
0.0
 12
0.0
 22
0.6951226128472222
 32
0.0
 13
1.0
 23
1.0
340
0
 70
               7
280
               1
281
              50
282
              50
283
               0
360
0
 71
               2
 91
        5
 14
-0.5
 24
-3.1835228097560986
 14
0.4999999999999989
 24
-3.1835228097560986
 14
0.4999999999999989
 24
-3.583132565853659
 14
-0.5
 24
-3.583132565853659
 14
-0.5
 24
-3.1835228097560986
  0
MTEXT
  5
90
100
AcDbEntity
  8
Dimension
390
0
 62
               0
100
AcDbMText
 10
-5.3543190377570884
 20
-2.932582915157727
 30
0.0
 40
0.1992580384816239
 41
0.0
 71
               1
 72
               1
  1
3.622
  7
Helvetica
 73
               1
 44
0.8397955333929318
  0
POINT
  5
91
100
AcDbEntity
  8
Defpoints
370
               0
390
0
 62
               0
100
AcDbPoint
 10
-8.8544996552792661
 20
1.5766802645693738
 30
0.0
  0
POINT
  5
92
100
AcDbEntity
  8
Defpoints
370
               0
390
0
 62
               0
100
AcDbPoint
 10
-7.0665003447207351
 20
-1.5766802645693738
 30
0.0
  0
ENDBLK
  5
93
100
AcDbEntity
  8
Dimension
390
0
100
AcDbBlockEnd
  0
ENDSEC
  0
SECTION
  2
ENTITIES
  0
WIPEOUT
  5
94
100
AcDbEntity
  8
None
370
               5
390
0
  6
Continuous
 62
               7
 92
        0
100
AcDbWipeout
 90
        0
 10
1.7394999999999992
 20
0.2144999999999992
 30
0.0
 11
0.5995999999999999
 21
0.0
 31
0.0
 12
0.0
 22
0.5995999999999999
 32
0.0
 13
1.0
 23
1.0
340
0
 70
               7
280
               1
281
              50
282
              50
283
               0
360
0
 71
               2
 91
        5
 14
-0.5
 24
-3.7703468979319563
 14
-0.5
 24
-4.1039026017344922
 14
0.5000000000000011
 24
-4.1039026017344922
 14
0.5000000000000011
 24
-3.7703468979319563
 14
-0.5
 24
-3.7703468979319563
  0
POLYLINE
  5
95
100
AcDbEntity
  8
None
370
               5
390
0
  6
Continuous
 62
               7
100
AcDb2dPolyline
 66
               1
 10
0.0
 20
0.0
 30
0.0
 70
               1
 75
               5
  0
VERTEX
  5
96
100
AcDbEntity
  8
None
370
               5
390
0
  6
Continuous
 62
               7
100
AcDbVertex
100
AcDb2dVertex
 10
1.7394999999999992
 20
2.7749999999999999
 30
0.0
  0
VERTEX
  5
97
100
AcDbEntity
  8
None
370
               5
390
0
  6
Continuous
 62
               7
100
AcDbVertex
100
AcDb2dVertex
 10
1.7394999999999992
 20
2.9750000000000001
 30
0.0
  0
VERTEX
  5
98
100
AcDbEntity
  8
None
370
               5
390
0
  6
Continuous
 62
               7
100
AcDbVertex
100
AcDb2dVertex
 10
2.3390999999999997
 20
2.9750000000000001
 30
0.0
  0
VERTEX
  5
99
100
AcDbEntity
  8
None
370
               5
390
0
  6
Continuous
 62
               7
100
AcDbVertex
100
AcDb2dVertex
 10
2.3390999999999997
 20
2.7749999999999999
 30
0.0
  0
SEQEND
  5
9A
100
AcDbEntity
  8
None
370
               5
390
0
  6
Continuous
 62
               7
  0
WIPEOUT
  5
9C
100
AcDbEntity
  8
None
370
               5
390
0
  6
Continuous
 62
               7
 92
        0
100
AcDbWipeout
 90
        0
 10
2.3390999999999997
 20
0.2144999999999992
 30
0.0
 11
0.2
 21
0.0
 31
0.0
 12
0.0
 22
0.2
 32
0.0
 13
1.0
 23
1.0
340
0
 70
               7
280
               1
281
              50
282
              50
283
               0
360
0
 71
               2
 91
        5
 14
-0.5
 24
-12.3025000000000055
 14
-0.5
 24
-12.3025000000000055
 14
-0.2113249999999995
 24
-12.8025000000000073
 14
-0.5
 24
-13.3025000000000073
 14
-0.5
 24
-12.3025000000000055
  0
POLYLINE
  5
9D
100
AcDbEntity
  8
None
370
               5
390
0
  6
Continuous
 62
               7
100
AcDb2dPolyline
 66
               1
 10
0.0
 20
0.0
 30
0.0
 70
               1
 75
               5
  0
VERTEX
  5
9E
100
AcDbEntity
  8
None
370
               5
390
0
  6
Continuous
 62
               7
100
AcDbVertex
100
AcDb2dVertex
 10
2.3390999999999997
 20
2.7749999999999999
 30
0.0
  0
VERTEX
  5
9F
100
AcDbEntity
  8
None
370
               5
390
0
  6
Continuous
 62
               7
100
AcDbVertex
100
AcDb2dVertex
 10
2.3390999999999997
 20
2.7749999999999999
 30
0.0
  0
VERTEX
  5
A0
100
AcDbEntity
  8
None
370
               5
390
0
  6
Continuous
 62
               7
100
AcDbVertex
100
AcDb2dVertex
 10
2.3968349999999998
 20
2.875
 30
0.0
  0
VERTEX
  5
A1
100
AcDbEntity
  8
None
370
               5
390
0
  6
Continuous
 62
               7
100
AcDbVertex
100
AcDb2dVertex
 10
2.3390999999999997
 20
2.9750000000000001
 30
0.0
  0
SEQEND
  5
A2
100
AcDbEntity
  8
None
370
               5
390
0
  6
Continuous
 62
               7
  0
POLYLINE
  5
A4
100
AcDbEntity
  8
None
370
               5
390
0
  6
STYLE_02
 62
               7
100
AcDb2dPolyline
 66
               1
 10
0.0
 20
0.0
 30
0.0
 75
               5
  0
VERTEX
  5
A5
100
AcDbEntity
  8
None
370
               5
390
0
  6
STYLE_02
 62
               7
100
AcDbVertex
100
AcDb2dVertex
 10
1.7394999999999992
 20
2.75
 30
0.0
  0
VERTEX
  5
A6
100
AcDbEntity
  8
None
370
               5
390
0
  6
STYLE_02
 62
               7
100
AcDbVertex
100
AcDb2dVertex
 10
2.3014999999999994
 20
2.75
 30
0.0
  0
VERTEX
  5
A7
100
AcDbEntity
  8
None
370
               5
390
0
  6
STYLE_02
 62
               7
100
AcDbVertex
100
AcDb2dVertex
 10
2.3014999999999994
 20
2.9999999999999996
 30
0.0
  0
VERTEX
  5
A8
100
AcDbEntity
  8
None
370
               5
390
0
  6
STYLE_02
 62
               7
100
AcDbVertex
100
AcDb2dVertex
 10
1.7394999999999992
 20
2.9999999999999996
 30
0.0
  0
SEQEND
  5
A9
100
AcDbEntity
  8
None
370
               5
390
0
  6
STYLE_02
 62
               7
  0
LINE
  5
AB
100
AcDbEntity
  8
None
370
               5
390
0
  6
STYLE_09
 62
               7
100
AcDbLine
 10
1.6894999999999993
 20
2.875
 30
0.0
 11
2.471835
 21
2.875
 31
0.0
  0
WIPEOUT
  5
AC
100
AcDbEntity
  8
None
370
               5
390
0
  6
Continuous
 62
               7
 92
        0
100
AcDbWipeout
 90
        0
 10
1.7394999999999992
 20
-5.5355000000000008
 30
0.0
 11
0.5995999999999999
 21
0.0
 31
0.0
 12
0.0
 22
0.5995999999999999
 32
0.0
 13
1.0
 23
1.0
340
0
 70
               7
280
               1
281
              50
282
              50
283
               0
360
0
 71
               2
 91
        5
 14
-0.5
 24
-3.7703468979319563
 14
-0.5
 24
-4.1039026017344922
 14
0.5000000000000011
 24
-4.1039026017344922
 14
0.5000000000000011
 24
-3.7703468979319563
 14
-0.5
 24
-3.7703468979319563
  0
POLYLINE
  5
AD
100
AcDbEntity
  8
None
370
               5
390
0
  6
Continuous
 62
               7
100
AcDb2dPolyline
 66
               1
 10
0.0
 20
0.0
 30
0.0
 70
               1
 75
               5
  0
VERTEX
  5
AE
100
AcDbEntity
  8
None
370
               5
390
0
  6
Continuous
 62
               7
100
AcDbVertex
100
AcDb2dVertex
 10
1.7394999999999992
 20
-2.9750000000000001
 30
0.0
  0
VERTEX
  5
AF
100
AcDbEntity
  8
None
370
               5
390
0
  6
Continuous
 62
               7
100
AcDbVertex
100
AcDb2dVertex
 10
1.7394999999999992
 20
-2.7749999999999999
 30
0.0
  0
VERTEX
  5
B0
100
AcDbEntity
  8
None
370
               5
390
0
  6
Continuous
 62
               7
100
AcDbVertex
100
AcDb2dVertex
 10
2.3390999999999997
 20
-2.7749999999999999
 30
0.0
  0
VERTEX
  5
B1
100
AcDbEntity
  8
None
370
               5
390
0
  6
Continuous
 62
               7
100
AcDbVertex
100
AcDb2dVertex
 10
2.3390999999999997
 20
-2.9750000000000001
 30
0.0
  0
SEQEND
  5
B2
100
AcDbEntity
  8
None
370
               5
390
0
  6
Continuous
 62
               7
  0
WIPEOUT
  5
B4
100
AcDbEntity
  8
None
370
               5
390
0
  6
Continuous
 62
               7
 92
        0
100
AcDbWipeout
 90
        0
 10
2.3390999999999997
 20
-5.5355000000000008
 30
0.0
 11
0.2
 21
0.0
 31
0.0
 12
0.0
 22
0.2
 32
0.0
 13
1.0
 23
1.0
340
0
 70
               7
280
               1
281
              50
282
              50
283
               0
360
0
 71
               2
 91
        5
 14
-0.5
 24
-12.3025000000000055
 14
-0.5
 24
-12.3025000000000055
 14
-0.2113249999999995
 24
-12.8025000000000073
 14
-0.5
 24
-13.3025000000000073
 14
-0.5
 24
-12.3025000000000055
  0
POLYLINE
  5
B5
100
AcDbEntity
  8
None
370
               5
390
0
  6
Continuous
 62
               7
100
AcDb2dPolyline
 66
               1
 10
0.0
 20
0.0
 30
0.0
 70
               1
 75
               5
  0
VERTEX
  5
B6
100
AcDbEntity
  8
None
370
               5
390
0
  6
Continuous
 62
               7
100
AcDbVertex
100
AcDb2dVertex
 10
2.3390999999999997
 20
-2.9750000000000001
 30
0.0
  0
VERTEX
  5
B7
100
AcDbEntity
  8
None
370
               5
390
0
  6
Continuous
 62
               7
100
AcDbVertex
100
AcDb2dVertex
 10
2.3390999999999997
 20
-2.9750000000000001
 30
0.0
  0
VERTEX
  5
B8
100
AcDbEntity
  8
None
370
               5
390
0
  6
Continuous
 62
               7
100
AcDbVertex
100
AcDb2dVertex
 10
2.3968349999999998
 20
-2.875
 30
0.0
  0
VERTEX
  5
B9
100
AcDbEntity
  8
None
370
               5
390
0
  6
Continuous
 62
               7
100
AcDbVertex
100
AcDb2dVertex
 10
2.3390999999999997
 20
-2.7749999999999999
 30
0.0
  0
SEQEND
  5
BA
100
AcDbEntity
  8
None
370
               5
390
0
  6
Continuous
 62
               7
  0
POLYLINE
  5
BC
100
AcDbEntity
  8
None
370
               5
390
0
  6
STYLE_02
 62
               7
100
AcDb2dPolyline
 66
               1
 10
0.0
 20
0.0
 30
0.0
 75
               5
  0
VERTEX
  5
BD
100
AcDbEntity
  8
None
370
               5
390
0
  6
STYLE_02
 62
               7
100
AcDbVertex
100
AcDb2dVertex
 10
1.7394999999999992
 20
-2.9999999999999996
 30
0.0
  0
VERTEX
  5
BE
100
AcDbEntity
  8
None
370
               5
390
0
  6
STYLE_02
 62
               7
100
AcDbVertex
100
AcDb2dVertex
 10
2.3014999999999994
 20
-2.9999999999999996
 30
0.0
  0
VERTEX
  5
BF
100
AcDbEntity
  8
None
370
               5
390
0
  6
STYLE_02
 62
               7
100
AcDbVertex
100
AcDb2dVertex
 10
2.3014999999999994
 20
-2.75
 30
0.0
  0
VERTEX
  5
C0
100
AcDbEntity
  8
None
370
               5
390
0
  6
STYLE_02
 62
               7
100
AcDbVertex
100
AcDb2dVertex
 10
1.7394999999999992
 20
-2.75
 30
0.0
  0
SEQEND
  5
C1
100
AcDbEntity
  8
None
370
               5
390
0
  6
STYLE_02
 62
               7
  0
LINE
  5
C3
100
AcDbEntity
  8
None
370
               5
390
0
  6
STYLE_09
 62
               7
100
AcDbLine
 10
1.6894999999999993
 20
-2.875
 30
0.0
 11
2.471835
 21
-2.875
 31
0.0
  0
INSERT
  5
C4
100
AcDbEntity
  8
None
390
0
 62
               7
100
AcDbBlockReference
  2
Group
 10
-2.5605000000000007
 20
0.0
 30
0.0
  0
LINE
  5
C5
100
AcDbEntity
  8
None
370
               5
390
0
  6
STYLE_09
 62
               7
100
AcDbLine
 10
4.4394999999999989
 20
2.875
 30
0.0
 11
3.6571649999999996
 21
2.875
 31
0.0
  0
INSERT
  5
C6
100
AcDbEntity
  8
None
390
0
 62
               7
100
AcDbBlockReference
  2
Group-1
 10
-2.5605000000000007
 20
0.0
 30
0.0
  0
LINE
  5
C7
100
AcDbEntity
  8
None
370
               5
390
0
  6
STYLE_09
 62
               7
100
AcDbLine
 10
4.4394999999999989
 20
-2.875
 30
0.0
 11
3.6571649999999996
 21
-2.875
 31
0.0
  0
LINE
  5
C8
100
AcDbEntity
  8
Dimension
370
               5
390
0
  6
Continuous
 62
               7
100
AcDbLine
 10
-6.1498062547545329
 20
2.5469615546625262
 30
0.0
 11
-5.6499999999999995
 21
3.25
 31
0.0
  0
POLYLINE
  5
C9
102
{ACAD_REACTORS
330
CE
102
}
100
AcDbEntity
  8
None
370
               5
390
0
  6
STYLE_09
 62
               7
100
AcDb2dPolyline
 66
               1
 10
0.0
 20
0.0
 30
0.0
 70
               1
 75
               5
  0
VERTEX
  5
CA
100
AcDbEntity
  8
None
370
               5
390
0
  6
STYLE_09
 62
               7
100
AcDbVertex
100
AcDb2dVertex
 10
-5.9486660791049593
 20
2.7098416573375901
 30
0.0
  0
VERTEX
  5
CB
100
AcDbEntity
  8
None
370
               5
390
0
  6
STYLE_09
 62
               7
100
AcDbVertex
100
AcDb2dVertex
 10
-6.1498062547545329
 20
2.5469615546625262
 30
0.0
  0
VERTEX
  5
CC
100
AcDbEntity
  8
None
370
               5
390
0
  6
STYLE_09
 62
               7
100
AcDbVertex
100
AcDb2dVertex
 10
-6.0570538042578699
 20
2.788589949174936
 30
0.0
  0
SEQEND
  5
CD
100
AcDbEntity
  8
None
370
               5
390
0
  6
STYLE_09
 62
               7
  0
HATCH
  5
CE
100
AcDbEntity
  8
Dimension
370
               0
390
0
  6
Continuous
 62
               7
100
AcDbHatch
 10
0.0
 20
0.0
 30
0.0
210
0.0
220
0.0
230
1.0
  2
SOLID
 70
               1
 71
               1
 91
        1
 92
        1
 93
        3
 72
               1
 10
-5.9486660791049593
 20
2.7098416573375901
 11
-6.1498062547545329
 21
2.5469615546625262
 72
               1
 10
-6.1498062547545329
 20
2.5469615546625262
 11
-6.0570538042578699
 21
2.788589949174936
 72
               1
 10
-6.0570538042578699
 20
2.788589949174936
 11
-5.9486660791049593
 21
2.7098416573375901
 97
        1
330
C9
 75
               0
 76
               1
 98
        1
 10
0.0
 20
0.0
  0
LINE
  5
CF
100
AcDbEntity
  8
Dimension
370
               5
390
0
  6
Continuous
 62
               7
100
AcDbLine
 10
-5.6499999999999995
 20
3.25
 30
0.0
 11
-5.1775590551181994
 21
3.25
 31
0.0
  0
MTEXT
  5
D0
100
AcDbEntity
  8
Dimension
390
0
 62
               7
100
AcDbMText
 10
-5.1775590551181994
 20
3.4020358162594015
 30
0.0
 40
0.1992580384816239
 41
0.0
 71
               1
 72
               1
  1
Ø 6.25
  7
Helvetica
 73
               1
 44
0.8397955333929318
  0
MTEXT
  5
D1
100
AcDbEntity
  8
None
390
0
 62
               7
100
AcDbMText
 10
-11.1088976000000006
 20
4.5941963111065061
 30
0.0
 40
0.1992580384816239
 41
0.0
 71
               1
 72
               1
  1
1/4-20 x 9/16\P5.750 B.C.\PTYP.
  7
Helvetica
 73
               1
 44
0.8397955333929318
  0
MTEXT
  5
D2
100
AcDbEntity
  8
None
390
0
 62
               7
100
AcDbMText
 10
-5.3232766881120916
 20
-3.4441295921408481
 30
0.0
 40
0.1992580384816239
 41
0.0
 71
               1
 72
               1
  1
TYP
  7
Helvetica
 73
               1
 44
0.8397955333929318
  0
MTEXT
  5
D3
100
AcDbEntity
  8
None
390
0
 62
               7
100
AcDbMText
 10
0.6861666666666668
 20
3.692035816259402
 30
0.0
 40
0.1992580384816239
 41
0.0
 71
               1
 72
               1
  1
TYP
  7
Helvetica
 73
               1
 44
0.8397955333929318
  0
POLYLINE
  5
D4
100
AcDbEntity
  8
None
370
               5
390
0
  6
Continuous
 62
               7
100
AcDb2dPolyline
 66
               1
 10
0.0
 20
0.0
 30
0.0
 70
               1
 75
               5
  0
VERTEX
  5
D5
100
AcDbEntity
  8
None
370
               5
390
0
  6
Continuous
 62
               7
100
AcDbVertex
100
AcDb2dVertex
 10
1.7394999999999992
 20
3.125
 30
0.0
  0
VERTEX
  5
D6
100
AcDbEntity
  8
None
370
               5
390
0
  6
Continuous
 62
               7
100
AcDbVertex
100
AcDb2dVertex
 10
4.3644999999999996
 20
3.125
 30
0.0
  0
VERTEX
  5
D7
100
AcDbEntity
  8
None
370
               5
390
0
  6
Continuous
 62
               7
100
AcDbVertex
100
AcDb2dVertex
 10
4.3644999999999996
 20
-3.125
 30
0.0
  0
VERTEX
  5
D8
100
AcDbEntity
  8
None
370
               5
390
0
  6
Continuous
 62
               7
100
AcDbVertex
100
AcDb2dVertex
 10
1.7394999999999992
 20
-3.125
 30
0.0
  0
SEQEND
  5
D9
100
AcDbEntity
  8
None
370
               5
390
0
  6
Continuous
 62
               7
  0
WIPEOUT
  5
DB
100
AcDbEntity
  8
None
370
               5
390
0
  6
Continuous
 62
               7
 92
        0
100
AcDbWipeout
 90
        0
 10
1.6494999999999993
 20
-4.3729999000000008
 30
0.0
 11
3.6249997999999999
 21
0.0
 31
0.0
 12
0.0
 22
3.6249997999999999
 32
0.0
 13
1.0
 23
1.0
340
0
 70
               7
280
               1
281
              50
282
              50
283
               0
360
0
 71
               2
 91
        5
 14
-0.5
 24
-1.2063448665569583
 14
-0.4751724124233055
 24
-1.2063448665569583
 14
-0.4751724124233055
 24
-0.2063448665569585
 14
-0.5
 24
-0.2063448665569585
 14
-0.5
 24
-1.2063448665569583
  0
POLYLINE
  5
DC
100
AcDbEntity
  8
None
370
               5
390
0
  6
Continuous
 62
               7
100
AcDb2dPolyline
 66
               1
 10
0.0
 20
0.0
 30
0.0
 70
               1
 75
               5
  0
VERTEX
  5
DD
100
AcDbEntity
  8
None
370
               5
390
0
  6
Continuous
 62
               7
100
AcDbVertex
100
AcDb2dVertex
 10
1.6494999999999993
 20
1.8124998999999999
 30
0.0
  0
VERTEX
  5
DE
100
AcDbEntity
  8
None
370
               5
390
0
  6
Continuous
 62
               7
100
AcDbVertex
100
AcDb2dVertex
 10
1.7394999999999992
 20
1.8124998999999999
 30
0.0
  0
VERTEX
  5
DF
100
AcDbEntity
  8
None
370
               5
390
0
  6
Continuous
 62
               7
100
AcDbVertex
100
AcDb2dVertex
 10
1.7394999999999992
 20
-1.8124998999999999
 30
0.0
  0
VERTEX
  5
E0
100
AcDbEntity
  8
None
370
               5
390
0
  6
Continuous
 62
               7
100
AcDbVertex
100
AcDb2dVertex
 10
1.6494999999999993
 20
-1.8124998999999999
 30
0.0
  0
SEQEND
  5
E1
100
AcDbEntity
  8
None
370
               5
390
0
  6
Continuous
 62
               7
  0
LINE
  5
E3
100
AcDbEntity
  8
None
370
               5
390
0
  6
Continuous
 62
               7
100
AcDbLine
 10
1.5619999999999998
 20
0.37475
 30
0.0
 11
1.249999999866692
 21
0.37475
 31
0.0
  0
WIPEOUT
  5
E4
100
AcDbEntity
  8
None
370
               5
390
0
  6
Continuous
 62
               7
 92
        0
100
AcDbWipeout
 90
        0
 10
4.3644999999999996
 20
-4.3729999000000008
 30
0.0
 11
3.6249997999999999
 21
0.0
 31
0.0
 12
0.0
 22
3.6249997999999999
 32
0.0
 13
1.0
 23
1.0
340
0
 70
               7
280
               1
281
              50
282
              50
283
               0
360
0
 71
               2
 91
        5
 14
-0.5
 24
-1.2063448665569583
 14
-0.4751724124233055
 24
-1.2063448665569583
 14
-0.4751724124233055
 24
-0.2063448665569585
 14
-0.5
 24
-0.2063448665569585
 14
-0.5
 24
-1.2063448665569583
  0
POLYLINE
  5
E5
100
AcDbEntity
  8
None
370
               5
390
0
  6
Continuous
 62
               7
100
AcDb2dPolyline
 66
               1
 10
0.0
 20
0.0
 30
0.0
 70
               1
 75
               5
  0
VERTEX
  5
E6
100
AcDbEntity
  8
None
370
               5
390
0
  6
Continuous
 62
               7
100
AcDbVertex
100
AcDb2dVertex
 10
4.3644999999999996
 20
1.8124998999999999
 30
0.0
  0
VERTEX
  5
E7
100
AcDbEntity
  8
None
370
               5
390
0
  6
Continuous
 62
               7
100
AcDbVertex
100
AcDb2dVertex
 10
4.4544999999999995
 20
1.8124998999999999
 30
0.0
  0
VERTEX
  5
E8
100
AcDbEntity
  8
None
370
               5
390
0
  6
Continuous
 62
               7
100
AcDbVertex
100
AcDb2dVertex
 10
4.4544999999999995
 20
-1.8124998999999999
 30
0.0
  0
VERTEX
  5
E9
100
AcDbEntity
  8
None
370
               5
390
0
  6
Continuous
 62
               7
100
AcDbVertex
100
AcDb2dVertex
 10
4.3644999999999996
 20
-1.8124998999999999
 30
0.0
  0
SEQEND
  5
EA
100
AcDbEntity
  8
None
370
               5
390
0
  6
Continuous
 62
               7
  0
WIPEOUT
  5
EC
100
AcDbEntity
  8
None
370
               5
390
0
  6
Continuous
 62
               7
 92
        0
100
AcDbWipeout
 90
        0
 10
4.4854999999999983
 20
-3.1505000000000005
 30
0.0
 11
1.1799999999999999
 21
0.0
 31
0.0
 12
0.0
 22
1.1799999999999999
 32
0.0
 13
1.0
 23
1.0
340
0
 70
               7
280
               1
281
              50
282
              50
283
               0
360
0
 71
               2
 91
        5
 14
-0.5
 24
-2.6699152542372886
 14
-0.3733050847457614
 24
-2.6699152542372886
 14
-0.3733050847457614
 24
-1.6699152542372886
 14
-0.5
 24
-1.6699152542372886
 14
-0.5
 24
-2.6699152542372886
  0
POLYLINE
  5
ED
100
AcDbEntity
  8
None
370
               5
390
0
  6
Continuous
 62
               7
100
AcDb2dPolyline
 66
               1
 10
0.0
 20
0.0
 30
0.0
 70
               1
 75
               5
  0
VERTEX
  5
EE
100
AcDbEntity
  8
None
370
               5
390
0
  6
Continuous
 62
               7
100
AcDbVertex
100
AcDb2dVertex
 10
4.4854999999999983
 20
0.59
 30
0.0
  0
VERTEX
  5
EF
100
AcDbEntity
  8
None
370
               5
390
0
  6
Continuous
 62
               7
100
AcDbVertex
100
AcDb2dVertex
 10
4.6349999999999998
 20
0.59
 30
0.0
  0
VERTEX
  5
F0
100
AcDbEntity
  8
None
370
               5
390
0
  6
Continuous
 62
               7
100
AcDbVertex
100
AcDb2dVertex
 10
4.6349999999999998
 20
-0.59
 30
0.0
  0
VERTEX
  5
F1
100
AcDbEntity
  8
None
370
               5
390
0
  6
Continuous
 62
               7
100
AcDbVertex
100
AcDb2dVertex
 10
4.4854999999999983
 20
-0.59
 30
0.0
  0
SEQEND
  5
F2
100
AcDbEntity
  8
None
370
               5
390
0
  6
Continuous
 62
               7
  0
LINE
  5
F4
100
AcDbEntity
  8
None
370
               5
390
0
  6
STYLE_09
 62
               7
100
AcDbLine
 10
-0.0605000000000007
 20
0.0
 30
0.0
 11
4.9394999999999989
 21
0.0
 31
0.0
  0
LINE
  5
F5
100
AcDbEntity
  8
None
370
               5
390
0
  6
Continuous
 62
               7
100
AcDbLine
 10
3.2010294999999993
 20
3.125
 30
0.0
 11
3.2392401000000004
 21
3.6137515999999996
 31
0.0
  0
LINE
  5
F6
100
AcDbEntity
  8
None
370
               5
390
0
  6
Continuous
 62
               7
100
AcDbLine
 10
3.1196051999999992
 20
3.6231046
 30
0.0
 11
3.081394599999999
 21
3.1343529999999999
 31
0.0
  0
LINE
  5
F7
100
AcDbEntity
  8
None
370
               5
390
0
  6
Continuous
 62
               7
100
AcDbLine
 10
3.1196051999999992
 20
3.6231046
 30
0.0
 11
3.2392401000000004
 21
3.6137515999999996
 31
0.0
  0
LINE
  5
F8
100
AcDbEntity
  8
None
370
               5
390
0
  6
Continuous
 62
               7
100
AcDbLine
 10
3.1788221999999995
 20
4.3805502999999995
 30
0.0
 11
3.2984571999999992
 21
4.3711973999999998
 31
0.0
  0
LINE
  5
F9
100
AcDbEntity
  8
None
370
               5
390
0
  6
Continuous
 62
               7
100
AcDbLine
 10
3.2984571999999992
 20
4.3711973999999998
 30
0.0
 11
3.243897599999999
 21
3.6733269000000002
 31
0.0
  0
LINE
  5
FA
100
AcDbEntity
  8
None
370
               5
390
0
  6
Continuous
 62
               7
100
AcDbLine
 10
3.1788221999999995
 20
4.3805502999999995
 30
0.0
 11
3.1242626999999996
 21
3.6826797999999998
 31
0.0
  0
LINE
  5
FB
100
AcDbEntity
  8
None
370
               5
390
0
  6
Continuous
 62
               7
100
AcDbLine
 10
3.2386397999999992
 20
4.3758737999999999
 30
0.0
 11
3.4794524
 21
5.0861619999999998
 31
0.0
  0
LINE
  5
FC
100
AcDbEntity
  8
None
370
               5
390
0
  6
Continuous
 62
               7
100
AcDbLine
 10
3.2900721999999996
 20
4.3718529000000004
 30
0.0
 11
3.526805
 21
5.0701077999999997
 31
0.0
  0
LINE
  5
FD
100
AcDbEntity
  8
None
370
               5
390
0
  6
Continuous
 62
               7
100
AcDbLine
 10
3.2386397999999992
 20
4.3758737999999999
 30
0.0
 11
3.1544142999999996
 21
5.1211295000000003
 31
0.0
  0
LINE
  5
FE
100
AcDbEntity
  8
None
370
               5
390
0
  6
Continuous
 62
               7
100
AcDbLine
 10
3.1878729999999993
 20
4.3798426999999993
 30
0.0
 11
3.1047305999999995
 21
5.1155146
 31
0.0
  0
LINE
  5
FF
100
AcDbEntity
  8
None
370
               5
390
0
  6
Continuous
 62
               7
100
AcDbLine
 10
3.4794524
 20
5.0861619999999998
 30
0.0
 11
3.526805
 21
5.0701077999999997
 31
0.0
  0
LINE
  5
100
100
AcDbEntity
  8
None
370
               5
390
0
  6
Continuous
 62
               7
100
AcDbLine
 10
3.1544142999999996
 20
5.1211295000000003
 30
0.0
 11
3.1047305999999995
 21
5.1155146
 31
0.0
  0
LINE
  5
101
100
AcDbEntity
  8
None
370
               5
390
0
  6
Continuous
 62
               7
100
AcDbLine
 10
3.5833998999999994
 20
5.3148975999999992
 30
0.0
 11
3.5976054999999998
 21
5.3100813000000002
 31
0.0
  0
LINE
  5
102
100
AcDbEntity
  8
None
370
               5
390
0
  6
Continuous
 62
               7
100
AcDbLine
 10
3.5976054999999998
 20
5.3100813000000002
 30
0.0
 11
3.5173345
 21
5.0733186000000003
 31
0.0
  0
LINE
  5
103
100
AcDbEntity
  8
None
370
               5
390
0
  6
Continuous
 62
               7
100
AcDbLine
 10
3.5976054999999998
 20
5.3100813000000002
 30
0.0
 11
3.5691940999999994
 21
5.3197137999999997
 31
0.0
  0
LINE
  5
104
100
AcDbEntity
  8
None
370
               5
390
0
  6
Continuous
 62
               7
100
AcDbLine
 10
3.5691940999999994
 20
5.3197137999999997
 30
0.0
 11
3.4889229999999993
 21
5.0829511000000007
 31
0.0
  0
LINE
  5
105
100
AcDbEntity
  8
None
370
               5
390
0
  6
Continuous
 62
               7
100
AcDbLine
 10
3.1014975999999996
 20
5.3667406
 30
0.0
 11
3.1164026999999987
 21
5.3684250999999996
 31
0.0
  0
LINE
  5
106
100
AcDbEntity
  8
None
370
               5
390
0
  6
Continuous
 62
               7
100
AcDbLine
 10
3.1164026999999987
 20
5.3684250999999996
 30
0.0
 11
3.1444784000000001
 21
5.1200066
 31
0.0
  0
LINE
  5
107
100
AcDbEntity
  8
None
370
               5
390
0
  6
Continuous
 62
               7
100
AcDbLine
 10
3.1164026999999987
 20
5.3684250999999996
 30
0.0
 11
3.0865924999999996
 21
5.3650560999999994
 31
0.0
  0
LINE
  5
108
100
AcDbEntity
  8
None
370
               5
390
0
  6
Continuous
 62
               7
100
AcDbLine
 10
3.0865924999999996
 20
5.3650560999999994
 30
0.0
 11
3.1146681999999992
 21
5.1166377000000001
 31
0.0
  0
LINE
  5
109
100
AcDbEntity
  8
None
370
               5
390
0
  6
Continuous
 62
               7
100
AcDbLine
 10
3.1242626999999996
 20
3.6826797999999998
 30
0.0
 11
3.243897599999999
 21
3.6733269000000002
 31
0.0
  0
WIPEOUT
  5
10A
100
AcDbEntity
  8
None
370
               5
390
0
  6
Continuous
 62
               7
 92
        0
100
AcDbWipeout
 90
        0
 10
-11.0854999656845639
 20
-5.6854999656845635
 30
0.0
 11
6.2499999313691266
 21
0.0
 31
0.0
 12
0.0
 22
6.2499999313691266
 32
0.0
 13
1.0
 23
1.0
340
0
 70
               7
280
               1
281
              50
282
              50
283
               0
360
0
 71
               2
 91
       65
 14
-0.3924413803093755
 24
-0.7195021519008098
 14
-0.3601837868989239
 24
-0.756476255422972
 14
-0.32445742672415
 24
-0.7901105214706186
 14
-0.2856063641635509
 24
-0.8200810336753503
 14
-0.2440047561877365
 24
-0.8460991596210874
 14
-0.2000532490232667
 24
-0.8679143305320174
 14
-0.1541751197104726
 24
-0.8853164543868832
 14
-0.1068121997141729
 24
-0.8981379392199937
 14
-0.058420619845138
 24
-0.9062553071234696
 14
-0.009466417471035
 24
-0.9095903834069956
 14
0.039578951678184
 24
-0.9081110494628228
 14
0.0882431538866865
 24
-0.9018315520855205
 14
0.1360575262846452
 24
-0.8908123662675542
 14
0.1825615903278733
 24
-0.8751596127920507
 14
0.2273074864579274
 24
-0.8550240362316444
 14
0.2698642872344796
 24
-0.8305995531958379
 14
0.3098221474021382
 24
-0.8021213848080464
 14
0.3467962509243006
 24
-0.7698637913975956
 14
0.3804305169719471
 24
-0.7341374312228213
 14
0.4104010291766789
 24
-0.6952863686622222
 14
0.4364191551224157
 24
-0.653684760686408
 14
0.4582343260333459
 24
-0.609733253521938
 14
0.4756364498882119
 24
-0.5638551242091439
 14
0.4884579347213224
 24
-0.5164922042128444
 14
0.4965753026247982
 24
-0.4681006243438096
 14
0.499910378908324
 24
-0.4191464219697066
 14
0.4984310449641512
 24
-0.3701010528204874
 14
0.4921515475868491
 24
-0.321436850611985
 14
0.4811323617688827
 24
-0.2736224782140263
 14
0.4654796082933791
 24
-0.227118414170798
 14
0.4453440317329729
 24
-0.1823725180407442
 14
0.4209195486971662
 24
-0.1398157172641918
 14
0.3924413803093751
 24
-0.0998578570965332
 14
0.3601837868989239
 24
-0.0628837535743709
 14
0.3244574267241498
 24
-0.0292494875267244
 14
0.2856063641635508
 24
0.0007210246780073
 14
0.2440047561877365
 24
0.0267391506237443
 14
0.2000532490232667
 24
0.0485543215346745
 14
0.1541751197104723
 24
0.0659564453895403
 14
0.1068121997141727
 24
0.0787779302226508
 14
0.058420619845138
 24
0.0868952981261266
 14
0.009466417471035
 24
0.0902303744096525
 14
-0.039578951678184
 24
0.0887510404654799
 14
-0.0882431538866864
 24
0.0824715430881776
 14
-0.1360575262846452
 24
0.0714523572702112
 14
-0.1825615903278733
 24
0.0557996037947077
 14
-0.2273074864579275
 24
0.0356640272343015
 14
-0.2698642872344796
 24
0.0112395441984951
 14
-0.3098221474021382
 24
-0.0172386241892962
 14
-0.3467962509243005
 24
-0.0494962175997474
 14
-0.3804305169719472
 24
-0.0852225777745216
 14
-0.4104010291766786
 24
-0.1240736403351206
 14
-0.436419155122416
 24
-0.1656752483109348
 14
-0.458234326033346
 24
-0.2096267554754049
 14
-0.4756364498882121
 24
-0.255504884788199
 14
-0.4884579347213227
 24
-0.3028678047844987
 14
-0.4965753026247982
 24
-0.3512593846535333
 14
-0.4999103789083243
 24
-0.4002135870276363
 14
-0.4984310449641516
 24
-0.4492589561768555
 14
-0.4921515475868492
 24
-0.4979231583853579
 14
-0.4811323617688827
 24
-0.5457375307833168
 14
-0.4654796082933791
 24
-0.5922415948265449
 14
-0.445344031732973
 24
-0.6369874909565987
 14
-0.4209195486971665
 24
-0.6795442917331511
 14
-0.3924413803093755
 24
-0.7195021519008098
  0
CIRCLE
  5
10B
100
AcDbEntity
  8
None
370
               5
390
0
  6
Continuous
 62
               7
100
AcDbCircle
 10
-7.9605000000000015
 20
0.0
 30
0.0
 40
3.1249999656845633
  0
WIPEOUT
  5
10C
100
AcDbEntity
  8
None
370
               5
390
0
  6
Continuous
 62
               7
 92
        0
100
AcDbWipeout
 90
        0
 10
-9.7729999421577922
 20
-4.3729999421577919
 30
0.0
 11
3.6249998843155837
 21
0.0
 31
0.0
 12
0.0
 22
3.6249998843155837
 32
0.0
 13
1.0
 23
1.0
340
0
 70
               7
280
               1
281
              50
282
              50
283
               0
360
0
 71
               2
 91
       65
 14
-0.3535533905932738
 24
-1.0598982407210233
 14
-0.3171966420818226
 24
-1.0928500768091178
 14
-0.2777851165098011
 24
-1.1220796562790218
 14
-0.235698368412999
 24
-1.1473054823019269
 14
-0.191341716182545
 24
-1.1682846163833926
 14
-0.1451423386272314
 24
-1.1848150179938537
 14
-0.0975451610080643
 24
-1.1967374903293644
 14
-0.0490085701647803
 24
-1.2039372134638477
 14
-0.0000000000000003
 24
-1.2063448501277494
 14
0.0490085701647801
 24
-1.2039372134638477
 14
0.0975451610080641
 24
-1.1967374903293644
 14
0.1451423386272308
 24
-1.1848150179938537
 14
0.1913417161825448
 24
-1.1682846163833926
 14
0.2356983684129984
 24
-1.1473054823019269
 14
0.277785116509801
 24
-1.1220796562790218
 14
0.3171966420818225
 24
-1.0928500768091178
 14
0.3535533905932733
 24
-1.0598982407210233
 14
0.3865052266813684
 24
-1.0235414922095722
 14
0.4157348061512725
 24
-0.9841299666375505
 14
0.4409606321741771
 24
-0.9420432185407481
 14
0.4619397662556433
 24
-0.8976865663102944
 14
0.4784701678661043
 24
-0.8514871887549804
 14
0.4903926402016152
 24
-0.8038900111358136
 14
0.4975923633360984
 24
-0.7553534202925296
 14
0.4999999999999999
 24
-0.7063448501277494
 14
0.4975923633360984
 24
-0.6573362799629692
 14
0.4903926402016152
 24
-0.6087996891196852
 14
0.4784701678661043
 24
-0.5612025115005184
 14
0.4619397662556433
 24
-0.5150031339452046
 14
0.4409606321741771
 24
-0.4706464817147507
 14
0.4157348061512725
 24
-0.4285597336179484
 14
0.3865052266813684
 24
-0.3891482080459266
 14
0.3535533905932733
 24
-0.3527914595344757
 14
0.3171966420818225
 24
-0.3198396234463809
 14
0.277785116509801
 24
-0.2906100439764769
 14
0.2356983684129984
 24
-0.265384217953572
 14
0.1913417161825448
 24
-0.2444050838721061
 14
0.1451423386272308
 24
-0.2278746822616451
 14
0.0975451610080641
 24
-0.2159522099261343
 14
0.0490085701647801
 24
-0.208752486791651
 14
-0.0000000000000003
 24
-0.2063448501277495
 14
-0.0490085701647803
 24
-0.208752486791651
 14
-0.0975451610080643
 24
-0.2159522099261343
 14
-0.1451423386272314
 24
-0.2278746822616451
 14
-0.191341716182545
 24
-0.2444050838721061
 14
-0.235698368412999
 24
-0.265384217953572
 14
-0.2777851165098011
 24
-0.2906100439764769
 14
-0.3171966420818226
 24
-0.3198396234463809
 14
-0.3535533905932738
 24
-0.3527914595344757
 14
-0.3865052266813686
 24
-0.3891482080459266
 14
-0.4157348061512726
 24
-0.4285597336179484
 14
-0.4409606321741777
 24
-0.4706464817147507
 14
-0.4619397662556434
 24
-0.5150031339452046
 14
-0.4784701678661049
 24
-0.5612025115005184
 14
-0.4903926402016153
 24
-0.6087996891196852
 14
-0.4975923633360987
 24
-0.6573362799629692
 14
-0.5
 24
-0.7063448501277494
 14
-0.4975923633360987
 24
-0.7553534202925296
 14
-0.4903926402016153
 24
-0.8038900111358136
 14
-0.4784701678661049
 24
-0.8514871887549804
 14
-0.4619397662556434
 24
-0.8976865663102944
 14
-0.4409606321741777
 24
-0.9420432185407481
 14
-0.4157348061512726
 24
-0.9841299666375505
 14
-0.3865052266813686
 24
-1.0235414922095722
 14
-0.3535533905932738
 24
-1.0598982407210233
  0
CIRCLE
  5
10D
100
AcDbEntity
  8
None
370
               5
390
0
  6
Continuous
 62
               7
100
AcDbCircle
 10
-7.9605000000000015
 20
0.0
 30
0.0
 40
1.8124999421577914
  0
WIPEOUT
  5
10E
100
AcDbEntity
  8
None
370
               5
390
0
  6
Continuous
 62
               7
 92
        0
100
AcDbWipeout
 90
        0
 10
-8.3352550065296676
 20
-2.9352550065296668
 30
0.0
 11
0.7495100130593324
 21
0.0
 31
0.0
 12
0.0
 22
0.7495100130593324
 32
0.0
 13
1.0
 23
1.0
340
0
 70
               7
280
               1
281
              50
282
              50
283
               0
360
0
 71
               2
 91
       65
 14
0.4330126273767458
 24
-3.6662320077403345
 14
0.4554318509544626
 24
-3.6225855293248443
 14
0.473465016843116
 24
-3.576951752449224
 14
0.4869384557972624
 24
-3.5297701553307457
 14
0.4957224112344473
 24
-3.4814951225417445
 14
0.4997322888620072
 24
-3.4325915690377964
 14
0.4989294713663677
 24
-3.3835304627725447
 14
0.493321690318878
 24
-3.3347842890188542
 14
0.4829629517165505
 24
-3.2868225000773417
 14
0.467953015874789
 24
-3.240106994194095
 14
0.448436436681011
 24
-3.1950876672280621
 14
0.4246011694617022
 24
-3.1521980799079934
 14
0.3966767608698691
 24
-3.111851282405615
 14
0.3649321382252843
 24
-3.0744358364366779
 14
0.3296730195973916
 24
-3.0403120731992268
 14
0.2912389695731694
 24
-3.0098086231871837
 14
0.2500001290645442
 24
-2.983219251299047
 14
0.2063536506490535
 24
-2.9608000277213287
 14
0.1607198737734314
 24
-2.9427668618326766
 14
0.1135382766549557
 24
-2.929293422878529
 14
0.0652632438659522
 24
-2.9205094674413465
 14
0.016359690362004
 24
-2.9164995898137867
 14
-0.0327014159032463
 24
-2.9173024073094247
 14
-0.0814475896569355
 24
-2.922910188356914
 14
-0.1294093785984486
 24
-2.9332689269592418
 14
-0.1761248844816956
 24
-2.948278862801005
 14
-0.2211442114477307
 24
-2.9677954419947823
 14
-0.2640337987677963
 24
-2.9916307092140899
 14
-0.3043805962701764
 24
-3.0195551178059228
 14
-0.3417960422391134
 24
-3.0512997404505082
 14
-0.3759198054765661
 24
-3.0865588590784019
 14
-0.4064232554886083
 24
-3.1249929091026232
 14
-0.4330126273767438
 24
-3.1662317496112493
 14
-0.4554318509544629
 24
-3.2098782280267395
 14
-0.4734650168431164
 24
-3.2555120049023598
 14
-0.4869384557972626
 24
-3.3026936020208386
 14
-0.4957224112344453
 24
-3.3509686348098398
 14
-0.499732288862005
 24
-3.3998721883137879
 14
-0.4989294713663679
 24
-3.4489332945790392
 14
-0.4933216903188782
 24
-3.4976794683327297
 14
-0.4829629517165484
 24
-3.5456412572742426
 14
-0.467953015874787
 24
-3.5923567631574889
 14
-0.4484364366810089
 24
-3.6373760901235217
 14
-0.4246011694617025
 24
-3.6802656774435905
 14
-0.3966767608698694
 24
-3.7206124749459688
 14
-0.3649321382252845
 24
-3.7580279209149063
 14
-0.3296730195973895
 24
-3.7921516841523575
 14
-0.2912389695731673
 24
-3.8226551341644006
 14
-0.2500001290645421
 24
-3.8492445060525373
 14
-0.2063536506490514
 24
-3.8716637296302556
 14
-0.1607198737734317
 24
-3.8896968955189077
 14
-0.1135382766549536
 24
-3.9031703344730548
 14
-0.0652632438659501
 24
-3.9119542899102377
 14
-0.016359690362002
 24
-3.9159641675377976
 14
0.0327014159032484
 24
-3.9151613500421591
 14
0.0814475896569375
 24
-3.9095535689946699
 14
0.1294093785984507
 24
-3.899194830392342
 14
0.1761248844816976
 24
-3.8841848945505788
 14
0.2211442114477304
 24
-3.864668315356802
 14
0.2640337987677984
 24
-3.8408330481374939
 14
0.3043805962701784
 24
-3.8129086395456611
 14
0.3417960422391155
 24
-3.7811640169010756
 14
0.3759198054765658
 24
-3.7459048982731824
 14
0.406423255488608
 24
-3.7074708482489607
 14
0.4330126273767458
 24
-3.6662320077403345
  0
CIRCLE
  5
10F
100
AcDbEntity
  8
None
370
               5
390
0
  6
Continuous
 62
               7
100
AcDbCircle
 10
-7.9605000000000015
 20
0.0
 30
0.0
 40
0.374755006529666
  0
LINE
  5
110
100
AcDbEntity
  8
None
370
               5
390
0
  6
Continuous
 62
               7
100
AcDbLine
 10
-8.1635180162425325
 20
0.315
 30
0.0
 11
-7.7574819837574687
 21
0.315
 31
0.0
  0
LINE
  5
111
100
AcDbEntity
  8
None
370
               5
390
0
  6
Continuous
 62
               7
100
AcDbLine
 10
-7.698500000000001
 20
-0.094
 30
0.0
 11
-7.597725500000001
 21
-0.094
 31
0.0
  0
LINE
  5
112
100
AcDbEntity
  8
None
370
               5
390
0
  6
Continuous
 62
               7
100
AcDbLine
 10
-7.698500000000001
 20
0.094
 30
0.0
 11
-7.698500000000001
 21
-0.094
 31
0.0
  0
LINE
  5
113
100
AcDbEntity
  8
None
370
               5
390
0
  6
Continuous
 62
               7
100
AcDbLine
 10
-7.597725500000001
 20
0.094
 30
0.0
 11
-7.698500000000001
 21
0.094
 31
0.0
  0
LINE
  5
114
100
AcDbEntity
  8
None
370
               5
390
0
  6
STYLE_09
 62
               7
100
AcDbLine
 10
-8.157350000000001
 20
0.0
 30
0.0
 11
-7.7636500000000002
 21
0.0
 31
0.0
  0
LINE
  5
115
100
AcDbEntity
  8
None
370
               5
390
0
  6
STYLE_09
 62
               7
100
AcDbLine
 10
-7.9605000000000015
 20
-0.19685
 30
0.0
 11
-7.9605000000000015
 21
0.19685
 31
0.0
  0
LINE
  5
116
100
AcDbEntity
  8
None
370
               5
390
0
  6
STYLE_09
 62
               7
100
AcDbLine
 10
-11.3217200000000009
 20
0.0
 30
0.0
 11
-8.3148300000000006
 21
0.0
 31
0.0
  0
LINE
  5
117
100
AcDbEntity
  8
None
370
               5
390
0
  6
STYLE_09
 62
               7
100
AcDbLine
 10
-7.6061700000000005
 20
0.0
 30
0.0
 11
-4.5992800000000003
 21
0.0
 31
0.0
  0
LINE
  5
118
100
AcDbEntity
  8
None
370
               5
390
0
  6
STYLE_09
 62
               7
100
AcDbLine
 10
-7.9605000000000015
 20
3.3612199999999999
 30
0.0
 11
-7.9605000000000015
 21
0.35433
 31
0.0
  0
LINE
  5
119
100
AcDbEntity
  8
None
370
               5
390
0
  6
STYLE_09
 62
               7
100
AcDbLine
 10
-7.9605000000000015
 20
-0.35433
 30
0.0
 11
-7.9605000000000015
 21
-3.3612199999999999
 31
0.0
  0
LINE
  5
11A
100
AcDbEntity
  8
None
370
               5
390
0
  6
Continuous
 62
               7
100
AcDbLine
 10
-6.7143693000000013
 20
2.8663642999999999
 30
0.0
 11
-6.5269964000000007
 21
3.3193869999999999
 31
0.0
  0
LINE
  5
11B
100
AcDbEntity
  8
None
370
               5
390
0
  6
Continuous
 62
               7
100
AcDbLine
 10
-6.6378854999999994
 20
3.3652515000000003
 30
0.0
 11
-6.8252585999999997
 21
2.9122287
 31
0.0
  0
LINE
  5
11C
100
AcDbEntity
  8
None
370
               5
390
0
  6
Continuous
 62
               7
100
AcDbLine
 10
-6.6378854999999994
 20
3.3652515000000003
 30
0.0
 11
-6.5269964000000007
 21
3.3193869999999999
 31
0.0
  0
LINE
  5
11D
100
AcDbEntity
  8
None
370
               5
390
0
  6
Continuous
 62
               7
100
AcDbLine
 10
-6.3475033000000005
 20
4.0673262000000001
 30
0.0
 11
-6.2366139
 21
4.0214616000000003
 31
0.0
  0
LINE
  5
11E
100
AcDbEntity
  8
None
370
               5
390
0
  6
Continuous
 62
               7
100
AcDbLine
 10
-6.2366139
 20
4.0214616000000003
 30
0.0
 11
-6.5041569000000008
 21
3.3746071999999998
 31
0.0
  0
LINE
  5
11F
100
AcDbEntity
  8
None
370
               5
390
0
  6
Continuous
 62
               7
100
AcDbLine
 10
-6.3475033000000005
 20
4.0673262000000001
 30
0.0
 11
-6.6150462000000001
 21
3.4204715999999999
 31
0.0
  0
LINE
  5
120
100
AcDbEntity
  8
None
370
               5
390
0
  6
Continuous
 62
               7
100
AcDbLine
 10
-6.2920585000000013
 20
4.0443937999999999
 30
0.0
 11
-5.8435409000000007
 21
4.6455026000000004
 31
0.0
  0
LINE
  5
121
100
AcDbEntity
  8
None
370
               5
390
0
  6
Continuous
 62
               7
100
AcDbLine
 10
-6.2443859000000002
 20
4.0246760999999998
 30
0.0
 11
-5.8034671000000007
 21
4.6156015999999997
 31
0.0
  0
LINE
  5
122
100
AcDbEntity
  8
None
370
               5
390
0
  6
Continuous
 62
               7
100
AcDbLine
 10
-6.2920585000000013
 20
4.0443937999999999
 30
0.0
 11
-6.141865000000001
 21
4.7792010999999999
 31
0.0
  0
LINE
  5
123
100
AcDbEntity
  8
None
370
               5
390
0
  6
Continuous
 62
               7
100
AcDbLine
 10
-6.3391142000000009
 20
4.0638562
 30
0.0
 11
-6.1908521000000007
 21
4.7892140999999997
 31
0.0
  0
LINE
  5
124
100
AcDbEntity
  8
None
370
               5
390
0
  6
Continuous
 62
               7
100
AcDbLine
 10
-5.8435409000000007
 20
4.6455026000000004
 30
0.0
 11
-5.8034671000000007
 21
4.6156015999999997
 31
0.0
  0
LINE
  5
125
100
AcDbEntity
  8
None
370
               5
390
0
  6
Continuous
 62
               7
100
AcDbLine
 10
-6.141865000000001
 20
4.7792010999999999
 30
0.0
 11
-6.1908521000000007
 21
4.7892140999999997
 31
0.0
  0
LINE
  5
126
100
AcDbEntity
  8
None
370
               5
390
0
  6
Continuous
 62
               7
100
AcDbLine
 10
-5.673998000000001
 20
4.8309215999999999
 30
0.0
 11
-5.6619758000000004
 21
4.8219513999999997
 31
0.0
  0
LINE
  5
127
100
AcDbEntity
  8
None
370
               5
390
0
  6
Continuous
 62
               7
100
AcDbLine
 10
-5.6619758000000004
 20
4.8219513999999997
 30
0.0
 11
-5.811481800000001
 21
4.6215817000000001
 31
0.0
  0
LINE
  5
128
100
AcDbEntity
  8
None
370
               5
390
0
  6
Continuous
 62
               7
100
AcDbLine
 10
-5.6619758000000004
 20
4.8219513999999997
 30
0.0
 11
-5.6860201999999997
 21
4.8398921000000001
 31
0.0
  0
LINE
  5
129
100
AcDbEntity
  8
None
370
               5
390
0
  6
Continuous
 62
               7
100
AcDbLine
 10
-5.6860201999999997
 20
4.8398921000000001
 30
0.0
 11
-5.8355259999999998
 21
4.6395225
 31
0.0
  0
LINE
  5
12A
100
AcDbEntity
  8
None
370
               5
390
0
  6
Continuous
 62
               7
100
AcDbLine
 10
-6.1162938000000011
 20
5.0291432999999994
 30
0.0
 11
-6.101597700000001
 21
5.0261394999999993
 31
0.0
  0
LINE
  5
12B
100
AcDbEntity
  8
None
370
               5
390
0
  6
Continuous
 62
               7
100
AcDbLine
 10
-6.101597700000001
 20
5.0261394999999993
 30
0.0
 11
-6.1516616000000006
 21
4.7812036999999998
 31
0.0
  0
LINE
  5
12C
100
AcDbEntity
  8
None
370
               5
390
0
  6
Continuous
 62
               7
100
AcDbLine
 10
-6.101597700000001
 20
5.0261394999999993
 30
0.0
 11
-6.1309901
 21
5.0321471999999998
 31
0.0
  0
LINE
  5
12D
100
AcDbEntity
  8
None
370
               5
390
0
  6
Continuous
 62
               7
100
AcDbLine
 10
-6.1309901
 20
5.0321471999999998
 30
0.0
 11
-6.1810537000000005
 21
4.7872113000000001
 31
0.0
  0
LINE
  5
12E
100
AcDbEntity
  8
None
370
               5
390
0
  6
Continuous
 62
               7
100
AcDbLine
 10
-6.6150462000000001
 20
3.4204715999999999
 30
0.0
 11
-6.5041569000000008
 21
3.3746071999999998
 31
0.0
  0
LINE
  5
12F
100
AcDbEntity
  8
Dimension
370
               5
390
0
  6
Continuous
 62
               7
100
AcDbLine
 10
-7.6348555672865857
 20
0.185464318583815
 30
0.0
 11
-4.8000000000000007
 21
1.7999999999999998
 31
0.0
  0
POLYLINE
  5
130
102
{ACAD_REACTORS
330
135
102
}
100
AcDbEntity
  8
None
370
               5
390
0
  6
STYLE_09
 62
               7
100
AcDb2dPolyline
 66
               1
 10
0.0
 20
0.0
 30
0.0
 70
               1
 75
               5
  0
VERTEX
  5
131
100
AcDbEntity
  8
None
370
               5
390
0
  6
STYLE_09
 62
               7
100
AcDbVertex
100
AcDb2dVertex
 10
-7.3837245539447753
 20
0.2480783125923127
 30
0.0
  0
VERTEX
  5
132
100
AcDbEntity
  8
None
370
               5
390
0
  6
STYLE_09
 62
               7
100
AcDbVertex
100
AcDb2dVertex
 10
-7.6348555672865857
 20
0.185464318583815
 30
0.0
  0
VERTEX
  5
133
100
AcDbEntity
  8
None
370
               5
390
0
  6
STYLE_09
 62
               7
100
AcDbVertex
100
AcDb2dVertex
 10
-7.4486767270586984
 20
0.3652551346984858
 30
0.0
  0
SEQEND
  5
134
100
AcDbEntity
  8
None
370
               5
390
0
  6
STYLE_09
 62
               7
  0
HATCH
  5
135
100
AcDbEntity
  8
Dimension
370
               0
390
0
  6
Continuous
 62
               7
100
AcDbHatch
 10
0.0
 20
0.0
 30
0.0
210
0.0
220
0.0
230
1.0
  2
SOLID
 70
               1
 71
               1
 91
        1
 92
        1
 93
        3
 72
               1
 10
-7.3837245539447753
 20
0.2480783125923127
 11
-7.6348555672865857
 21
0.185464318583815
 72
               1
 10
-7.6348555672865857
 20
0.185464318583815
 11
-7.4486767270586984
 21
0.3652551346984858
 72
               1
 10
-7.4486767270586984
 20
0.3652551346984858
 11
-7.3837245539447753
 21
0.2480783125923127
 97
        1
330
130
 75
               0
 76
               1
 98
        1
 10
0.0
 20
0.0
  0
LINE
  5
136
100
AcDbEntity
  8
Dimension
370
               5
390
0
  6
Continuous
 62
               7
100
AcDbLine
 10
-4.8000000000000007
 20
1.7999999999999998
 30
0.0
 11
-4.3275590551182006
 21
1.7999999999999998
 31
0.0
  0
MTEXT
  5
137
100
AcDbEntity
  8
Dimension
390
0
 62
               7
100
AcDbMText
 10
-4.3275590551182006
 20
1.8687024829260683
 30
0.0
 40
0.1992580384816239
 41
0.0
 71
               1
 72
               1
  1
Ø 
  7
Helvetica
 73
               1
 44
0.8397955333929318
  0
MTEXT
  5
138
100
AcDbEntity
  8
Dimension
390
0
 62
               7
100
AcDbMText
 10
-3.9756710342848671
 20
2.1603691495927348
 30
0.0
 40
0.1992580384816239
 41
0.0
 71
               1
 72
               1
  1
.7497
  7
Helvetica
 73
               1
 44
0.8397955333929318
  0
MTEXT
  5
139
100
AcDbEntity
  8
Dimension
390
0
 62
               7
100
AcDbMText
 10
-3.9756710342848671
 20
1.7437024829260681
 30
0.0
 40
0.1992580384816239
 41
0.0
 71
               1
 72
               1
  1
.7493
  7
Helvetica
 73
               1
 44
0.8397955333929318
  0
LINE
  5
13A
100
AcDbEntity
  8
None
370
               5
390
0
  6
STYLE_09
 62
               7
100
AcDbLine
 10
-7.9605000000000015
 20
0.0
 30
0.0
 11
-6.6478861000000009
 21
3.1689304000000003
 31
0.0
  0
LINE
  5
13B
100
AcDbEntity
  8
Dimension
370
               5
390
0
  6
Continuous
 62
               7
100
AcDbLine
 10
-7.9605000000000015
 20
3.3612199999999999
 30
0.0
 11
-7.9605000000000015
 21
4.1458760149605993
 31
0.0
  0
LINE
  5
13C
100
AcDbEntity
  8
Dimension
370
               5
390
0
  6
Continuous
 62
               7
100
AcDbLine
 10
-6.6478861000000009
 20
3.1689304000000003
 30
0.0
 11
-6.3739419879124428
 21
3.8302900158743016
 31
0.0
  0
ARC
  5
13D
100
AcDbEntity
  8
Dimension
370
               5
390
0
  6
Continuous
 62
               7
100
AcDbCircle
 10
-7.9605000000000015
 20
0.0
 30
0.0
 40
3.9883956999999999
100
AcDbArc
 50
67.5000007700338358
 51
90.0
  0
POLYLINE
  5
13E
102
{ACAD_REACTORS
330
143
102
}
100
AcDbEntity
  8
None
370
               5
390
0
  6
STYLE_09
 62
               7
100
AcDb2dPolyline
 66
               1
 10
0.0
 20
0.0
 30
0.0
 70
               1
 75
               5
  0
VERTEX
  5
13F
100
AcDbEntity
  8
None
370
               5
390
0
  6
STYLE_09
 62
               7
100
AcDbVertex
100
AcDb2dVertex
 10
-7.7117071657636167
 20
3.9170555027728606
 30
0.0
  0
VERTEX
  5
140
100
AcDbEntity
  8
None
370
               5
390
0
  6
STYLE_09
 62
               7
100
AcDbVertex
100
AcDb2dVertex
 10
-7.9605000000000015
 20
3.9883956999999999
 30
0.0
  0
VERTEX
  5
141
100
AcDbEntity
  8
None
370
               5
390
0
  6
STYLE_09
 62
               7
100
AcDbVertex
100
AcDb2dVertex
 10
-7.7093689866581894
 20
4.0510096940084974
 30
0.0
  0
SEQEND
  5
142
100
AcDbEntity
  8
None
370
               5
390
0
  6
STYLE_09
 62
               7
  0
HATCH
  5
143
100
AcDbEntity
  8
Dimension
370
               0
390
0
  6
Continuous
 62
               7
100
AcDbHatch
 10
0.0
 20
0.0
 30
0.0
210
0.0
220
0.0
230
1.0
  2
SOLID
 70
               1
 71
               1
 91
        1
 92
        1
 93
        3
 72
               1
 10
-7.7117071657636167
 20
3.9170555027728606
 11
-7.9605000000000015
 21
3.9883956999999999
 72
               1
 10
-7.9605000000000015
 20
3.9883956999999999
 11
-7.7093689866581894
 21
4.0510096940084974
 72
               1
 10
-7.7093689866581894
 20
4.0510096940084974
 11
-7.7117071657636167
 21
3.9170555027728606
 97
        1
330
13E
 75
               0
 76
               1
 98
        1
 10
0.0
 20
0.0
  0
POLYLINE
  5
144
102
{ACAD_REACTORS
330
149
102
}
100
AcDbEntity
  8
None
370
               5
390
0
  6
STYLE_09
 62
               7
100
AcDb2dPolyline
 66
               1
 10
0.0
 20
0.0
 30
0.0
 70
               1
 75
               5
  0
VERTEX
  5
145
100
AcDbEntity
  8
None
370
               5
390
0
  6
STYLE_09
 62
               7
100
AcDbVertex
100
AcDb2dVertex
 10
-6.6435960993719672
 20
3.8369271930225146
 30
0.0
  0
VERTEX
  5
146
100
AcDbEntity
  8
None
370
               5
390
0
  6
STYLE_09
 62
               7
100
AcDbVertex
100
AcDb2dVertex
 10
-6.4342070934161306
 20
3.6847971752988324
 30
0.0
  0
VERTEX
  5
147
100
AcDbEntity
  8
None
370
               5
390
0
  6
STYLE_09
 62
               7
100
AcDbVertex
100
AcDb2dVertex
 10
-6.6916083007088965
 20
3.7118511323478005
 30
0.0
  0
SEQEND
  5
148
100
AcDbEntity
  8
None
370
               5
390
0
  6
STYLE_09
 62
               7
  0
HATCH
  5
149
100
AcDbEntity
  8
Dimension
370
               0
390
0
  6
Continuous
 62
               7
100
AcDbHatch
 10
0.0
 20
0.0
 30
0.0
210
0.0
220
0.0
230
1.0
  2
SOLID
 70
               1
 71
               1
 91
        1
 92
        1
 93
        3
 72
               1
 10
-6.6435960993719672
 20
3.8369271930225146
 11
-6.4342070934161306
 21
3.6847971752988324
 72
               1
 10
-6.4342070934161306
 20
3.6847971752988324
 11
-6.6916083007088965
 21
3.7118511323478005
 72
               1
 10
-6.6916083007088965
 20
3.7118511323478005
 11
-6.6435960993719672
 21
3.8369271930225146
 97
        1
330
144
 75
               0
 76
               1
 98
        1
 10
0.0
 20
0.0
  0
WIPEOUT
  5
14A
100
AcDbEntity
  8
Dimension
370
               5
390
0
  6
Continuous
 62
               7
 92
        0
100
AcDbWipeout
 90
        0
 10
-7.4344371300538867
 20
1.2401486891010953
 30
0.0
 11
0.4200575086805557
 21
0.0
 31
0.0
 12
0.0
 22
0.4200575086805557
 32
0.0
 13
1.0
 23
1.0
340
0
 70
               7
280
               1
281
              50
282
              50
283
               0
360
0
 71
               2
 91
        5
 14
-0.5
 24
-5.5955939296092989
 14
0.4999999999999992
 24
-5.5955939296092989
 14
0.4999999999999992
 24
-6.2568790442363573
 14
-0.5
 24
-6.2568790442363573
 14
-0.5
 24
-5.5955939296092989
  0
MTEXT
  5
14B
100
AcDbEntity
  8
Dimension
390
0
 62
               7
100
AcDbMText
 10
-7.4344371300538867
 20
4.0637956164716087
 30
0.0
 40
0.1992580384816239
 41
0.0
 71
               1
 72
               1
  1
22°
  7
Helvetica
 73
               1
 44
0.8397955333929318
  0
WIPEOUT
  5
14C
100
AcDbEntity
  8
None
370
               5
390
0
  6
Continuous
 62
               7
 92
        0
100
AcDbWipeout
 90
        0
 10
4.4544999999999995
 20
-3.3105000000000007
 30
0.0
 11
1.4999999999999998
 21
0.0
 31
0.0
 12
0.0
 22
1.4999999999999998
 32
0.0
 13
1.0
 23
1.0
340
0
 70
               7
280
               1
281
              50
282
              50
283
               0
360
0
 71
               2
 91
        5
 14
-0.5
 24
-2.2070000000000007
 14
-0.4800000000000004
 24
-2.2070000000000007
 14
-0.4800000000000004
 24
-1.2070000000000007
 14
-0.5
 24
-1.2070000000000007
 14
-0.5
 24
-2.2070000000000007
  0
POLYLINE
  5
14D
100
AcDbEntity
  8
None
370
               5
390
0
  6
Continuous
 62
               7
100
AcDb2dPolyline
 66
               1
 10
0.0
 20
0.0
 30
0.0
 70
               1
 75
               5
  0
VERTEX
  5
14E
100
AcDbEntity
  8
None
370
               5
390
0
  6
Continuous
 62
               7
100
AcDbVertex
100
AcDb2dVertex
 10
4.4544999999999995
 20
0.7499999999999999
 30
0.0
  0
VERTEX
  5
14F
100
AcDbEntity
  8
None
370
               5
390
0
  6
Continuous
 62
               7
100
AcDbVertex
100
AcDb2dVertex
 10
4.4844999999999988
 20
0.7499999999999999
 30
0.0
  0
VERTEX
  5
150
100
AcDbEntity
  8
None
370
               5
390
0
  6
Continuous
 62
               7
100
AcDbVertex
100
AcDb2dVertex
 10
4.4844999999999988
 20
-0.7499999999999999
 30
0.0
  0
VERTEX
  5
151
100
AcDbEntity
  8
None
370
               5
390
0
  6
Continuous
 62
               7
100
AcDbVertex
100
AcDb2dVertex
 10
4.4544999999999995
 20
-0.7499999999999999
 30
0.0
  0
SEQEND
  5
152
100
AcDbEntity
  8
None
370
               5
390
0
  6
Continuous
 62
               7
  0
LINE
  5
154
100
AcDbEntity
  8
None
370
               5
390
0
  6
STYLE_09
 62
               7
100
AcDbLine
 10
-8.0591664000000005
 20
2.9636503000000003
 30
0.0
 11
-9.0491158936611669
 21
3.9535997936611667
 31
0.0
  0
POLYLINE
  5
155
102
{ACAD_REACTORS
330
15A
102
}
100
AcDbEntity
  8
None
370
               5
390
0
  6
STYLE_09
 62
               7
100
AcDb2dPolyline
 66
               1
 10
0.0
 20
0.0
 30
0.0
 70
               1
 75
               5
  0
VERTEX
  5
156
100
AcDbEntity
  8
None
370
               5
390
0
  6
STYLE_09
 62
               7
100
AcDbVertex
100
AcDb2dVertex
 10
-8.1885759225512604
 20
3.1877941680420134
 30
0.0
  0
VERTEX
  5
157
100
AcDbEntity
  8
None
370
               5
390
0
  6
STYLE_09
 62
               7
100
AcDbVertex
100
AcDb2dVertex
 10
-8.0591664000000005
 20
2.9636503000000003
 30
0.0
  0
VERTEX
  5
158
100
AcDbEntity
  8
None
370
               5
390
0
  6
STYLE_09
 62
               7
100
AcDbVertex
100
AcDb2dVertex
 10
-8.2833102680420136
 20
3.0930598225512602
 30
0.0
  0
SEQEND
  5
159
100
AcDbEntity
  8
None
370
               5
390
0
  6
STYLE_09
 62
               7
  0
HATCH
  5
15A
100
AcDbEntity
  8
None
370
               0
390
0
  6
STYLE_09
 62
               7
100
AcDbHatch
 10
0.0
 20
0.0
 30
0.0
210
0.0
220
0.0
230
1.0
  2
SOLID
 70
               1
 71
               1
 91
        1
 92
        1
 93
        3
 72
               1
 10
-8.1885759225512604
 20
3.1877941680420134
 11
-8.0591664000000005
 21
2.9636503000000003
 72
               1
 10
-8.0591664000000005
 20
2.9636503000000003
 11
-8.2833102680420136
 21
3.0930598225512602
 72
               1
 10
-8.2833102680420136
 20
3.0930598225512602
 11
-8.1885759225512604
 21
3.1877941680420134
 97
        1
330
155
 75
               0
 76
               1
 98
        1
 10
0.0
 20
0.0
  0
CIRCLE
  5
15B
100
AcDbEntity
  8
None
370
               5
390
0
  6
STYLE_01
 62
               7
100
AcDbCircle
 10
-7.9605000000000015
 20
2.875
 30
0.0
 40
0.1250000284618367
  0
CIRCLE
  5
15C
100
AcDbEntity
  8
None
370
               5
390
0
  6
Continuous
 62
               7
100
AcDbCircle
 10
-7.9605000000000015
 20
2.875
 30
0.0
 40
0.0874999999999996
  0
CIRCLE
  5
15D
100
AcDbEntity
  8
None
370
               5
390
0
  6
STYLE_01
 62
               7
100
AcDbCircle
 10
-10.8354999999999997
 20
0.0
 30
0.0
 40
0.1250000284618367
  0
CIRCLE
  5
15E
100
AcDbEntity
  8
None
370
               5
390
0
  6
Continuous
 62
               7
100
AcDbCircle
 10
-10.8354999999999997
 20
0.0
 30
0.0
 40
0.0875
  0
CIRCLE
  5
15F
100
AcDbEntity
  8
None
370
               5
390
0
  6
STYLE_01
 62
               7
100
AcDbCircle
 10
-7.9605000000000015
 20
-2.875
 30
0.0
 40
0.1250000284618367
  0
CIRCLE
  5
160
100
AcDbEntity
  8
None
370
               5
390
0
  6
Continuous
 62
               7
100
AcDbCircle
 10
-7.9605000000000015
 20
-2.875
 30
0.0
 40
0.0874999999999996
  0
CIRCLE
  5
161
100
AcDbEntity
  8
None
370
               5
390
0
  6
STYLE_01
 62
               7
100
AcDbCircle
 10
-5.0855000000000006
 20
-0.0000000000000006
 30
0.0
 40
0.1250000284618362
  0
CIRCLE
  5
162
100
AcDbEntity
  8
None
370
               5
390
0
  6
Continuous
 62
               7
100
AcDbCircle
 10
-5.0855000000000006
 20
-0.0000000000000006
 30
0.0
 40
0.0875000000000004
  0
LINE
  5
163
100
AcDbEntity
  8
None
370
               5
390
0
  6
STYLE_09
 62
               7
100
AcDbLine
 10
1.5619999999999998
 20
0.5900000000000001
 30
0.0
 11
1.6494999999999993
 21
0.5900000000000001
 31
0.0
  0
LINE
  5
164
100
AcDbEntity
  8
None
370
               5
390
0
  6
STYLE_09
 62
               7
100
AcDbLine
 10
1.5619999999999998
 20
-0.5900000000000001
 30
0.0
 11
1.6494999999999993
 21
-0.5900000000000001
 31
0.0
  0
CIRCLE
  5
165
100
AcDbEntity
  8
None
370
               5
390
0
  6
Continuous
 62
               7
100
AcDbCircle
 10
-7.9605000000000015
 20
-0.0
 30
0.0
 40
0.5899999999999997
  0
LINE
  5
166
100
AcDbEntity
  8
None
370
               5
390
0
  6
Continuous
 62
               7
100
AcDbLine
 10
0.0
 20
-0.37475
 30
0.0
 11
0.0
 21
0.33525
 31
0.0
  0
LINE
  5
167
100
AcDbEntity
  8
None
370
               5
390
0
  6
STYLE_09
 62
               7
100
AcDbLine
 10
1.5619999999999998
 20
0.5900000000000001
 30
0.0
 11
1.5619999999999998
 21
-0.5900000000000001
 31
0.0
  0
LINE
  5
168
100
AcDbEntity
  8
None
370
               5
390
0
  6
STYLE_09
 62
               7
100
AcDbLine
 10
0.0
 20
-0.37475
 30
0.0
 11
1.5619999999999998
 21
-0.37475
 31
0.0
  0
LINE
  5
169
100
AcDbEntity
  8
None
370
               5
390
0
  6
STYLE_09
 62
               7
100
AcDbLine
 10
1.2104999998666917
 20
0.33525
 30
0.0
 11
0.0
 21
0.33525
 31
0.0
  0
LINE
  5
16A
100
AcDbEntity
  8
LAYER_1
370
               5
390
0
  6
Continuous
 62
               7
100
AcDbLine
 10
-0.0000000000000009
 20
0.0937549999199849
 30
0.0
 11
1.1562499999999991
 21
0.0937549999199847
 31
0.0
  0
LINE
  5
16B
100
AcDbEntity
  8
LAYER_1
370
               5
390
0
  6
Continuous
 62
               7
100
AcDbLine
 10
-0.0000000000000009
 20
-0.093745000080015
 30
0.0
 11
1.1562499999999991
 21
-0.093745000080015
 31
0.0
  0
ARC
  5
16C
100
AcDbEntity
  8
LAYER_1
370
               5
390
0
  6
Continuous
 62
               7
100
AcDbCircle
 10
1.1562499999999991
 20
0.0000049999199848
 30
0.0
 40
0.0937499999999999
100
AcDbArc
 50
270.0
 51
90.0
  0
LINE
  5
16D
100
AcDbEntity
  8
None
370
               5
390
0
  6
STYLE_09
 62
               7
100
AcDbLine
 10
1.249999999866692
 20
0.37475
 30
0.0
 11
1.2104999998666917
 21
0.33525
 31
0.0
  0
LINE
  5
16E
100
AcDbEntity
  8
Dimension
370
               5
390
0
  6
Continuous
 62
               7
100
AcDbLine
 10
1.7394999999999992
 20
-3.2650000000000001
 30
0.0
 11
1.7394999999999992
 21
-4.0669803149605999
 31
0.0
  0
LINE
  5
16F
100
AcDbEntity
  8
Dimension
370
               5
390
0
  6
Continuous
 62
               7
100
AcDbLine
 10
4.3644999999999996
 20
-3.2650000000000001
 30
0.0
 11
4.3644999999999996
 21
-4.0669803149605999
 31
0.0
  0
LINE
  5
170
100
AcDbEntity
  8
Dimension
370
               5
390
0
  6
Continuous
 62
               7
100
AcDbLine
 10
1.7394999999999992
 20
-3.9094999999999995
 30
0.0
 11
4.3644999999999996
 21
-3.9094999999999995
 31
0.0
  0
POLYLINE
  5
171
102
{ACAD_REACTORS
330
176
102
}
100
AcDbEntity
  8
None
370
               5
390
0
  6
STYLE_09
 62
               7
100
AcDb2dPolyline
 66
               1
 10
0.0
 20
0.0
 30
0.0
 70
               1
 75
               5
  0
VERTEX
  5
172
100
AcDbEntity
  8
None
370
               5
390
0
  6
STYLE_09
 62
               7
100
AcDbVertex
100
AcDb2dVertex
 10
1.9894999999999992
 20
-3.9764872981077803
 30
0.0
  0
VERTEX
  5
173
100
AcDbEntity
  8
None
370
               5
390
0
  6
STYLE_09
 62
               7
100
AcDbVertex
100
AcDb2dVertex
 10
1.7394999999999992
 20
-3.9094999999999995
 30
0.0
  0
VERTEX
  5
174
100
AcDbEntity
  8
None
370
               5
390
0
  6
STYLE_09
 62
               7
100
AcDbVertex
100
AcDb2dVertex
 10
1.9894999999999992
 20
-3.8425127018922187
 30
0.0
  0
SEQEND
  5
175
100
AcDbEntity
  8
None
370
               5
390
0
  6
STYLE_09
 62
               7
  0
HATCH
  5
176
100
AcDbEntity
  8
Dimension
370
               0
390
0
  6
Continuous
 62
               7
100
AcDbHatch
 10
0.0
 20
0.0
 30
0.0
210
0.0
220
0.0
230
1.0
  2
SOLID
 70
               1
 71
               1
 91
        1
 92
        1
 93
        3
 72
               1
 10
1.9894999999999992
 20
-3.9764872981077803
 11
1.7394999999999992
 21
-3.9094999999999995
 72
               1
 10
1.7394999999999992
 20
-3.9094999999999995
 11
1.9894999999999992
 21
-3.8425127018922187
 72
               1
 10
1.9894999999999992
 20
-3.8425127018922187
 11
1.9894999999999992
 21
-3.9764872981077803
 97
        1
330
171
 75
               0
 76
               1
 98
        1
 10
0.0
 20
0.0
  0
POLYLINE
  5
177
102
{ACAD_REACTORS
330
17C
102
}
100
AcDbEntity
  8
None
370
               5
390
0
  6
STYLE_09
 62
               7
100
AcDb2dPolyline
 66
               1
 10
0.0
 20
0.0
 30
0.0
 70
               1
 75
               5
  0
VERTEX
  5
178
100
AcDbEntity
  8
None
370
               5
390
0
  6
STYLE_09
 62
               7
100
AcDbVertex
100
AcDb2dVertex
 10
4.1144999999999996
 20
-3.8425127018922187
 30
0.0
  0
VERTEX
  5
179
100
AcDbEntity
  8
None
370
               5
390
0
  6
STYLE_09
 62
               7
100
AcDbVertex
100
AcDb2dVertex
 10
4.3644999999999996
 20
-3.9094999999999995
 30
0.0
  0
VERTEX
  5
17A
100
AcDbEntity
  8
None
370
               5
390
0
  6
STYLE_09
 62
               7
100
AcDbVertex
100
AcDb2dVertex
 10
4.1144999999999996
 20
-3.9764872981077803
 30
0.0
  0
SEQEND
  5
17B
100
AcDbEntity
  8
None
370
               5
390
0
  6
STYLE_09
 62
               7
  0
HATCH
  5
17C
100
AcDbEntity
  8
Dimension
370
               0
390
0
  6
Continuous
 62
               7
100
AcDbHatch
 10
0.0
 20
0.0
 30
0.0
210
0.0
220
0.0
230
1.0
  2
SOLID
 70
               1
 71
               1
 91
        1
 92
        1
 93
        3
 72
               1
 10
4.1144999999999996
 20
-3.8425127018922187
 11
4.3644999999999996
 21
-3.9094999999999995
 72
               1
 10
4.3644999999999996
 20
-3.9094999999999995
 11
4.1144999999999996
 21
-3.9764872981077803
 72
               1
 10
4.1144999999999996
 20
-3.9764872981077803
 11
4.1144999999999996
 21
-3.8425127018922187
 97
        1
330
177
 75
               0
 76
               1
 98
        1
 10
0.0
 20
0.0
  0
WIPEOUT
  5
17D
100
AcDbEntity
  8
Dimension
370
               5
390
0
  6
Continuous
 62
               7
 92
        0
100
AcDbWipeout
 90
        0
 10
2.634926432291667
 20
-6.3364444444444441
 30
0.0
 11
0.6951226128472228
 21
0.0
 31
0.0
 12
0.0
 22
0.6951226128472228
 32
0.0
 13
1.0
 23
1.0
340
0
 70
               7
280
               1
281
              50
282
              50
283
               0
360
0
 71
               2
 91
        5
 14
-0.5
 24
-3.183522809756095
 14
0.4999999999999993
 24
-3.183522809756095
 14
0.4999999999999993
 24
-3.5831325658536555
 14
-0.5
 24
-3.5831325658536555
 14
-0.5
 24
-3.183522809756095
  0
MTEXT
  5
17E
100
AcDbEntity
  8
Dimension
390
0
 62
               7
100
AcDbMText
 10
2.634926432291667
 20
-3.5127975170739312
 30
0.0
 40
0.1992580384816239
 41
0.0
 71
               1
 72
               1
  1
2.625
  7
Helvetica
 73
               1
 44
0.8397955333929318
  0
LINE
  5
17F
100
AcDbEntity
  8
Dimension
370
               5
390
0
  6
Continuous
 62
               7
100
AcDbLine
 10
0.0
 20
-0.5147499999999999
 30
0.0
 11
0.0
 21
-4.0574803149606007
 31
0.0
  0
LINE
  5
180
100
AcDbEntity
  8
Dimension
370
               5
390
0
  6
Continuous
 62
               7
100
AcDbLine
 10
1.7394999999999992
 20
-3.2650000000000001
 30
0.0
 11
1.7394999999999992
 21
-4.0574803149605998
 31
0.0
  0
LINE
  5
181
100
AcDbEntity
  8
Dimension
370
               5
390
0
  6
Continuous
 62
               7
100
AcDbLine
 10
0.0
 20
-3.9000000000000004
 30
0.0
 11
1.7394999999999992
 21
-3.9000000000000004
 31
0.0
  0
POLYLINE
  5
182
102
{ACAD_REACTORS
330
187
102
}
100
AcDbEntity
  8
None
370
               5
390
0
  6
STYLE_09
 62
               7
100
AcDb2dPolyline
 66
               1
 10
0.0
 20
0.0
 30
0.0
 70
               1
 75
               5
  0
VERTEX
  5
183
100
AcDbEntity
  8
None
370
               5
390
0
  6
STYLE_09
 62
               7
100
AcDbVertex
100
AcDb2dVertex
 10
0.2499999999999996
 20
-3.9669872981077807
 30
0.0
  0
VERTEX
  5
184
100
AcDbEntity
  8
None
370
               5
390
0
  6
STYLE_09
 62
               7
100
AcDbVertex
100
AcDb2dVertex
 10
0.0
 20
-3.9000000000000004
 30
0.0
  0
VERTEX
  5
185
100
AcDbEntity
  8
None
370
               5
390
0
  6
STYLE_09
 62
               7
100
AcDbVertex
100
AcDb2dVertex
 10
0.2499999999999996
 20
-3.8330127018922195
 30
0.0
  0
SEQEND
  5
186
100
AcDbEntity
  8
None
370
               5
390
0
  6
STYLE_09
 62
               7
  0
HATCH
  5
187
100
AcDbEntity
  8
Dimension
370
               0
390
0
  6
Continuous
 62
               7
100
AcDbHatch
 10
0.0
 20
0.0
 30
0.0
210
0.0
220
0.0
230
1.0
  2
SOLID
 70
               1
 71
               1
 91
        1
 92
        1
 93
        3
 72
               1
 10
0.2499999999999996
 20
-3.9669872981077807
 11
0.0
 21
-3.9000000000000004
 72
               1
 10
0.0
 20
-3.9000000000000004
 11
0.2499999999999996
 21
-3.8330127018922195
 72
               1
 10
0.2499999999999996
 20
-3.8330127018922195
 11
0.2499999999999996
 21
-3.9669872981077807
 97
        1
330
182
 75
               0
 76
               1
 98
        1
 10
0.0
 20
0.0
  0
POLYLINE
  5
188
102
{ACAD_REACTORS
330
18D
102
}
100
AcDbEntity
  8
None
370
               5
390
0
  6
STYLE_09
 62
               7
100
AcDb2dPolyline
 66
               1
 10
0.0
 20
0.0
 30
0.0
 70
               1
 75
               5
  0
VERTEX
  5
189
100
AcDbEntity
  8
None
370
               5
390
0
  6
STYLE_09
 62
               7
100
AcDbVertex
100
AcDb2dVertex
 10
1.4895
 20
-3.8330127018922195
 30
0.0
  0
VERTEX
  5
18A
100
AcDbEntity
  8
None
370
               5
390
0
  6
STYLE_09
 62
               7
100
AcDbVertex
100
AcDb2dVertex
 10
1.7394999999999992
 20
-3.9000000000000004
 30
0.0
  0
VERTEX
  5
18B
100
AcDbEntity
  8
None
370
               5
390
0
  6
STYLE_09
 62
               7
100
AcDbVertex
100
AcDb2dVertex
 10
1.4895
 20
-3.9669872981077807
 30
0.0
  0
SEQEND
  5
18C
100
AcDbEntity
  8
None
370
               5
390
0
  6
STYLE_09
 62
               7
  0
HATCH
  5
18D
100
AcDbEntity
  8
Dimension
370
               0
390
0
  6
Continuous
 62
               7
100
AcDbHatch
 10
0.0
 20
0.0
 30
0.0
210
0.0
220
0.0
230
1.0
  2
SOLID
 70
               1
 71
               1
 91
        1
 92
        1
 93
        3
 72
               1
 10
1.4895
 20
-3.8330127018922195
 11
1.7394999999999992
 21
-3.9000000000000004
 72
               1
 10
1.7394999999999992
 20
-3.9000000000000004
 11
1.4895
 21
-3.9669872981077807
 72
               1
 10
1.4895
 20
-3.9669872981077807
 11
1.4895
 21
-3.8330127018922195
 97
        1
330
188
 75
               0
 76
               1
 98
        1
 10
0.0
 20
0.0
  0
WIPEOUT
  5
18E
100
AcDbEntity
  8
Dimension
370
               5
390
0
  6
Continuous
 62
               7
 92
        0
100
AcDbWipeout
 90
        0
 10
0.5453684895833337
 20
-6.3269444444444449
 30
0.0
 11
0.5406358506944443
 21
0.0
 31
0.0
 12
0.0
 22
0.5406358506944443
 32
0.0
 13
1.0
 23
1.0
340
0
 70
               7
280
               1
281
              50
282
              50
283
               0
360
0
 71
               2
 91
        5
 14
-0.5
 24
-4.2360899147014566
 14
0.4999999999999998
 24
-4.2360899147014566
 14
0.4999999999999998
 24
-4.7498882087305585
 14
-0.5
 24
-4.7498882087305585
 14
-0.5
 24
-4.2360899147014566
  0
MTEXT
  5
18F
100
AcDbEntity
  8
Dimension
390
0
 62
               7
100
AcDbMText
 10
0.5453684895833337
 20
-3.503297517073932
 30
0.0
 40
0.1992580384816239
 41
0.0
 71
               1
 72
               1
  1
1.74
  7
Helvetica
 73
               1
 44
0.8397955333929318
  0
LINE
  5
190
100
AcDbEntity
  8
Dimension
370
               5
390
0
  6
Continuous
 62
               7
100
AcDbLine
 10
0.0
 20
-0.5147499999999999
 30
0.0
 11
0.0
 21
-2.5974803149605998
 31
0.0
  0
LINE
  5
191
100
AcDbEntity
  8
Dimension
370
               5
390
0
  6
Continuous
 62
               7
100
AcDbLine
 10
1.5619999999999998
 20
-0.7300000000000001
 30
0.0
 11
1.5619999999999998
 21
-2.5974803149605998
 31
0.0
  0
LINE
  5
192
100
AcDbEntity
  8
Dimension
370
               5
390
0
  6
Continuous
 62
               7
100
AcDbLine
 10
0.0
 20
-2.4399999999999999
 30
0.0
 11
-1.0600963541666673
 21
-2.4399999999999999
 31
0.0
  0
LINE
  5
193
100
AcDbEntity
  8
Dimension
370
               5
390
0
  6
Continuous
 62
               7
100
AcDbLine
 10
0.0
 20
-2.4399999999999999
 30
0.0
 11
1.5619999999999998
 21
-2.4399999999999999
 31
0.0
  0
POLYLINE
  5
194
102
{ACAD_REACTORS
330
199
102
}
100
AcDbEntity
  8
None
370
               5
390
0
  6
STYLE_09
 62
               7
100
AcDb2dPolyline
 66
               1
 10
0.0
 20
0.0
 30
0.0
 70
               1
 75
               5
  0
VERTEX
  5
195
100
AcDbEntity
  8
None
370
               5
390
0
  6
STYLE_09
 62
               7
100
AcDbVertex
100
AcDb2dVertex
 10
0.2499999999999996
 20
-2.5069872981077808
 30
0.0
  0
VERTEX
  5
196
100
AcDbEntity
  8
None
370
               5
390
0
  6
STYLE_09
 62
               7
100
AcDbVertex
100
AcDb2dVertex
 10
0.0
 20
-2.4399999999999999
 30
0.0
  0
VERTEX
  5
197
100
AcDbEntity
  8
None
370
               5
390
0
  6
STYLE_09
 62
               7
100
AcDbVertex
100
AcDb2dVertex
 10
0.2499999999999996
 20
-2.3730127018922196
 30
0.0
  0
SEQEND
  5
198
100
AcDbEntity
  8
None
370
               5
390
0
  6
STYLE_09
 62
               7
  0
HATCH
  5
199
100
AcDbEntity
  8
Dimension
370
               0
390
0
  6
Continuous
 62
               7
100
AcDbHatch
 10
0.0
 20
0.0
 30
0.0
210
0.0
220
0.0
230
1.0
  2
SOLID
 70
               1
 71
               1
 91
        1
 92
        1
 93
        3
 72
               1
 10
0.2499999999999996
 20
-2.5069872981077808
 11
0.0
 21
-2.4399999999999999
 72
               1
 10
0.0
 20
-2.4399999999999999
 11
0.2499999999999996
 21
-2.3730127018922196
 72
               1
 10
0.2499999999999996
 20
-2.3730127018922196
 11
0.2499999999999996
 21
-2.5069872981077808
 97
        1
330
194
 75
               0
 76
               1
 98
        1
 10
0.0
 20
0.0
  0
POLYLINE
  5
19A
102
{ACAD_REACTORS
330
19F
102
}
100
AcDbEntity
  8
None
370
               5
390
0
  6
STYLE_09
 62
               7
100
AcDb2dPolyline
 66
               1
 10
0.0
 20
0.0
 30
0.0
 70
               1
 75
               5
  0
VERTEX
  5
19B
100
AcDbEntity
  8
None
370
               5
390
0
  6
STYLE_09
 62
               7
100
AcDbVertex
100
AcDb2dVertex
 10
1.3119999999999998
 20
-2.3730127018922196
 30
0.0
  0
VERTEX
  5
19C
100
AcDbEntity
  8
None
370
               5
390
0
  6
STYLE_09
 62
               7
100
AcDbVertex
100
AcDb2dVertex
 10
1.5619999999999998
 20
-2.4399999999999999
 30
0.0
  0
VERTEX
  5
19D
100
AcDbEntity
  8
None
370
               5
390
0
  6
STYLE_09
 62
               7
100
AcDbVertex
100
AcDb2dVertex
 10
1.3119999999999998
 20
-2.5069872981077808
 30
0.0
  0
SEQEND
  5
19E
100
AcDbEntity
  8
None
370
               5
390
0
  6
STYLE_09
 62
               7
  0
HATCH
  5
19F
100
AcDbEntity
  8
Dimension
370
               0
390
0
  6
Continuous
 62
               7
100
AcDbHatch
 10
0.0
 20
0.0
 30
0.0
210
0.0
220
0.0
230
1.0
  2
SOLID
 70
               1
 71
               1
 91
        1
 92
        1
 93
        3
 72
               1
 10
1.3119999999999998
 20
-2.3730127018922196
 11
1.5619999999999998
 21
-2.4399999999999999
 72
               1
 10
1.5619999999999998
 20
-2.4399999999999999
 11
1.3119999999999998
 21
-2.5069872981077808
 72
               1
 10
1.3119999999999998
 20
-2.5069872981077808
 11
1.3119999999999998
 21
-2.3730127018922196
 97
        1
330
19A
 75
               0
 76
               1
 98
        1
 10
0.0
 20
0.0
  0
WIPEOUT
  5
1A0
100
AcDbEntity
  8
Dimension
370
               5
390
0
  6
Continuous
 62
               7
 92
        0
100
AcDbWipeout
 90
        0
 10
-1.0600963541666673
 20
-4.866944444444445
 30
0.0
 11
0.5406358506944446
 21
0.0
 31
0.0
 12
0.0
 22
0.5406358506944446
 32
0.0
 13
1.0
 23
1.0
340
0
 70
               7
280
               1
281
              50
282
              50
283
               0
360
0
 71
               2
 91
        5
 14
-0.5
 24
-4.2360899147014548
 14
0.5
 24
-4.2360899147014548
 14
0.5
 24
-4.7498882087305558
 14
-0.5
 24
-4.7498882087305558
 14
-0.5
 24
-4.2360899147014548
  0
MTEXT
  5
1A1
100
AcDbEntity
  8
Dimension
390
0
 62
               7
100
AcDbMText
 10
-1.0600963541666673
 20
-2.0432975170739316
 30
0.0
 40
0.1992580384816239
 41
0.0
 71
               1
 72
               1
  1
1.56
  7
Helvetica
 73
               1
 44
0.8397955333929318
  0
LINE
  5
1A2
100
AcDbEntity
  8
Dimension
370
               5
390
0
  6
Continuous
 62
               7
100
AcDbLine
 10
-0.1400000000000006
 20
-0.093745000080015
 30
0.0
 11
-1.3774803149606001
 21
-0.093745000080015
 31
0.0
  0
LINE
  5
1A3
100
AcDbEntity
  8
Dimension
370
               5
390
0
  6
Continuous
 62
               7
100
AcDbLine
 10
-0.1400000000000006
 20
0.0937549999199849
 30
0.0
 11
-1.3774803149606001
 21
0.0937549999199849
 31
0.0
  0
LINE
  5
1A4
100
AcDbEntity
  8
Dimension
370
               5
390
0
  6
Continuous
 62
               7
100
AcDbLine
 10
-1.2200000000000002
 20
0.0937549999199849
 30
0.0
 11
-1.2200000000000002
 21
-0.093745000080015
 31
0.0
  0
LINE
  5
1A5
100
AcDbEntity
  8
Dimension
370
               5
390
0
  6
Continuous
 62
               7
100
AcDbLine
 10
-1.2200000000000002
 20
-0.093745000080015
 30
0.0
 11
-1.2200000000000002
 21
-0.9400000000000001
 31
0.0
  0
POLYLINE
  5
1A6
102
{ACAD_REACTORS
330
1AB
102
}
100
AcDbEntity
  8
None
370
               5
390
0
  6
STYLE_09
 62
               7
100
AcDb2dPolyline
 66
               1
 10
0.0
 20
0.0
 30
0.0
 70
               1
 75
               5
  0
VERTEX
  5
1A7
100
AcDbEntity
  8
None
370
               5
390
0
  6
STYLE_09
 62
               7
100
AcDbVertex
100
AcDb2dVertex
 10
-1.2869872981077808
 20
-0.343745000080015
 30
0.0
  0
VERTEX
  5
1A8
100
AcDbEntity
  8
None
370
               5
390
0
  6
STYLE_09
 62
               7
100
AcDbVertex
100
AcDb2dVertex
 10
-1.2200000000000002
 20
-0.093745000080015
 30
0.0
  0
VERTEX
  5
1A9
100
AcDbEntity
  8
None
370
               5
390
0
  6
STYLE_09
 62
               7
100
AcDbVertex
100
AcDb2dVertex
 10
-1.1530127018922196
 20
-0.343745000080015
 30
0.0
  0
SEQEND
  5
1AA
100
AcDbEntity
  8
None
370
               5
390
0
  6
STYLE_09
 62
               7
  0
HATCH
  5
1AB
100
AcDbEntity
  8
Dimension
370
               0
390
0
  6
Continuous
 62
               7
100
AcDbHatch
 10
0.0
 20
0.0
 30
0.0
210
0.0
220
0.0
230
1.0
  2
SOLID
 70
               1
 71
               1
 91
        1
 92
        1
 93
        3
 72
               1
 10
-1.2869872981077808
 20
-0.343745000080015
 11
-1.2200000000000002
 21
-0.093745000080015
 72
               1
 10
-1.2200000000000002
 20
-0.093745000080015
 11
-1.1530127018922196
 21
-0.343745000080015
 72
               1
 10
-1.1530127018922196
 20
-0.343745000080015
 11
-1.2869872981077808
 21
-0.343745000080015
 97
        1
330
1A6
 75
               0
 76
               1
 98
        1
 10
0.0
 20
0.0
  0
LINE
  5
1AC
100
AcDbEntity
  8
Dimension
370
               5
390
0
  6
Continuous
 62
               7
100
AcDbLine
 10
-1.2200000000000002
 20
0.0937549999199849
 30
0.0
 11
-1.2200000000000002
 21
0.6449361022821849
 31
0.0
  0
POLYLINE
  5
1AD
102
{ACAD_REACTORS
330
1B2
102
}
100
AcDbEntity
  8
None
370
               5
390
0
  6
STYLE_09
 62
               7
100
AcDb2dPolyline
 66
               1
 10
0.0
 20
0.0
 30
0.0
 70
               1
 75
               5
  0
VERTEX
  5
1AE
100
AcDbEntity
  8
None
370
               5
390
0
  6
STYLE_09
 62
               7
100
AcDbVertex
100
AcDb2dVertex
 10
-1.1530127018922196
 20
0.3437549999199849
 30
0.0
  0
VERTEX
  5
1AF
100
AcDbEntity
  8
None
370
               5
390
0
  6
STYLE_09
 62
               7
100
AcDbVertex
100
AcDb2dVertex
 10
-1.2200000000000002
 20
0.0937549999199849
 30
0.0
  0
VERTEX
  5
1B0
100
AcDbEntity
  8
None
370
               5
390
0
  6
STYLE_09
 62
               7
100
AcDbVertex
100
AcDb2dVertex
 10
-1.2869872981077808
 20
0.3437549999199849
 30
0.0
  0
SEQEND
  5
1B1
100
AcDbEntity
  8
None
370
               5
390
0
  6
STYLE_09
 62
               7
  0
HATCH
  5
1B2
100
AcDbEntity
  8
Dimension
370
               0
390
0
  6
Continuous
 62
               7
100
AcDbHatch
 10
0.0
 20
0.0
 30
0.0
210
0.0
220
0.0
230
1.0
  2
SOLID
 70
               1
 71
               1
 91
        1
 92
        1
 93
        3
 72
               1
 10
-1.1530127018922196
 20
0.3437549999199849
 11
-1.2200000000000002
 21
0.0937549999199849
 72
               1
 10
-1.2200000000000002
 20
0.0937549999199849
 11
-1.2869872981077808
 21
0.3437549999199849
 72
               1
 10
-1.2869872981077808
 20
0.3437549999199849
 11
-1.1530127018922196
 21
0.3437549999199849
 97
        1
330
1AD
 75
               0
 76
               1
 98
        1
 10
0.0
 20
0.0
  0
WIPEOUT
  5
1B3
100
AcDbEntity
  8
Dimension
370
               5
390
0
  6
Continuous
 62
               7
 92
        0
100
AcDbWipeout
 90
        0
 10
-1.6370735677083335
 20
-3.4032777777777783
 30
0.0
 11
0.6951226128472224
 21
0.0
 31
0.0
 12
0.0
 22
0.6951226128472224
 32
0.0
 13
1.0
 23
1.0
340
0
 70
               7
280
               1
281
              50
282
              50
283
               0
360
0
 71
               2
 91
        5
 14
-0.5
 24
-3.1835228097560968
 14
0.5000000000000002
 24
-3.1835228097560968
 14
0.5000000000000002
 24
-3.5831325658536581
 14
-0.5
 24
-3.5831325658536581
 14
-0.5
 24
-3.1835228097560968
  0
MTEXT
  5
1B4
100
AcDbEntity
  8
Dimension
390
0
 62
               7
100
AcDbMText
 10
-1.6370735677083335
 20
-0.579630850407265
 30
0.0
 40
0.1992580384816239
 41
0.0
 71
               1
 72
               1
  1
.1885
  7
Helvetica
 73
               1
 44
0.8397955333929318
  0
WIPEOUT
  5
1B5
100
AcDbEntity
  8
Dimension
370
               5
390
0
  6
Continuous
 62
               7
 92
        0
100
AcDbWipeout
 90
        0
 10
-1.6370735677083335
 20
-3.8199444444444453
 30
0.0
 11
0.6951226128472224
 21
0.0
 31
0.0
 12
0.0
 22
0.6951226128472224
 32
0.0
 13
1.0
 23
1.0
340
0
 70
               7
280
               1
281
              50
282
              50
283
               0
360
0
 71
               2
 91
        5
 14
-0.5
 24
-3.1835228097560972
 14
0.5000000000000002
 24
-3.1835228097560972
 14
0.5000000000000002
 24
-3.5831325658536581
 14
-0.5
 24
-3.5831325658536581
 14
-0.5
 24
-3.1835228097560972
  0
MTEXT
  5
1B6
100
AcDbEntity
  8
Dimension
390
0
 62
               7
100
AcDbMText
 10
-1.6370735677083335
 20
-0.9962975170739318
 30
0.0
 40
0.1992580384816239
 41
0.0
 71
               1
 72
               1
  1
.1875
  7
Helvetica
 73
               1
 44
0.8397955333929318
  0
LINE
  5
1B7
100
AcDbEntity
  8
Dimension
370
               5
390
0
  6
Continuous
 62
               7
100
AcDbLine
 10
1.6494999999999993
 20
1.9524998999999998
 30
0.0
 11
1.6494999999999993
 21
3.9928872965878668
 31
0.0
  0
LINE
  5
1B8
100
AcDbEntity
  8
Dimension
370
               5
390
0
  6
Continuous
 62
               7
100
AcDbLine
 10
1.7394999999999992
 20
3.2650000000000001
 30
0.0
 11
1.7394999999999992
 21
3.9928872965878668
 31
0.0
  0
LINE
  5
1B9
100
AcDbEntity
  8
Dimension
370
               5
390
0
  6
Continuous
 62
               7
100
AcDbLine
 10
1.7394999999999992
 20
3.8354069816272665
 30
0.0
 11
1.6494999999999993
 21
3.8354069816272665
 31
0.0
  0
LINE
  5
1BA
100
AcDbEntity
  8
Dimension
370
               5
390
0
  6
Continuous
 62
               7
100
AcDbLine
 10
1.6494999999999993
 20
3.8354069816272665
 30
0.0
 11
0.7227421874999997
 21
3.8354069816272665
 31
0.0
  0
POLYLINE
  5
1BB
102
{ACAD_REACTORS
330
1C0
102
}
100
AcDbEntity
  8
None
370
               5
390
0
  6
STYLE_09
 62
               7
100
AcDb2dPolyline
 66
               1
 10
0.0
 20
0.0
 30
0.0
 70
               1
 75
               5
  0
VERTEX
  5
1BC
100
AcDbEntity
  8
None
370
               5
390
0
  6
STYLE_09
 62
               7
100
AcDbVertex
100
AcDb2dVertex
 10
1.3994999999999997
 20
3.9023942797350473
 30
0.0
  0
VERTEX
  5
1BD
100
AcDbEntity
  8
None
370
               5
390
0
  6
STYLE_09
 62
               7
100
AcDbVertex
100
AcDb2dVertex
 10
1.6494999999999993
 20
3.8354069816272665
 30
0.0
  0
VERTEX
  5
1BE
100
AcDbEntity
  8
None
370
               5
390
0
  6
STYLE_09
 62
               7
100
AcDbVertex
100
AcDb2dVertex
 10
1.3994999999999997
 20
3.7684196835194861
 30
0.0
  0
SEQEND
  5
1BF
100
AcDbEntity
  8
None
370
               5
390
0
  6
STYLE_09
 62
               7
  0
HATCH
  5
1C0
100
AcDbEntity
  8
Dimension
370
               0
390
0
  6
Continuous
 62
               7
100
AcDbHatch
 10
0.0
 20
0.0
 30
0.0
210
0.0
220
0.0
230
1.0
  2
SOLID
 70
               1
 71
               1
 91
        1
 92
        1
 93
        3
 72
               1
 10
1.3994999999999997
 20
3.9023942797350473
 11
1.6494999999999993
 21
3.8354069816272665
 72
               1
 10
1.6494999999999993
 20
3.8354069816272665
 11
1.3994999999999997
 21
3.7684196835194861
 72
               1
 10
1.3994999999999997
 20
3.7684196835194861
 11
1.3994999999999997
 21
3.9023942797350473
 97
        1
330
1BB
 75
               0
 76
               1
 98
        1
 10
0.0
 20
0.0
  0
LINE
  5
1C1
100
AcDbEntity
  8
Dimension
370
               5
390
0
  6
Continuous
 62
               7
100
AcDbLine
 10
1.7394999999999992
 20
3.8354069816272665
 30
0.0
 11
2.2906811023622002
 21
3.8354069816272665
 31
0.0
  0
POLYLINE
  5
1C2
102
{ACAD_REACTORS
330
1C7
102
}
100
AcDbEntity
  8
None
370
               5
390
0
  6
STYLE_09
 62
               7
100
AcDb2dPolyline
 66
               1
 10
0.0
 20
0.0
 30
0.0
 70
               1
 75
               5
  0
VERTEX
  5
1C3
100
AcDbEntity
  8
None
370
               5
390
0
  6
STYLE_09
 62
               7
100
AcDbVertex
100
AcDb2dVertex
 10
1.9894999999999992
 20
3.7684196835194861
 30
0.0
  0
VERTEX
  5
1C4
100
AcDbEntity
  8
None
370
               5
390
0
  6
STYLE_09
 62
               7
100
AcDbVertex
100
AcDb2dVertex
 10
1.7394999999999992
 20
3.8354069816272665
 30
0.0
  0
VERTEX
  5
1C5
100
AcDbEntity
  8
None
370
               5
390
0
  6
STYLE_09
 62
               7
100
AcDbVertex
100
AcDb2dVertex
 10
1.9894999999999992
 20
3.9023942797350473
 30
0.0
  0
SEQEND
  5
1C6
100
AcDbEntity
  8
None
370
               5
390
0
  6
STYLE_09
 62
               7
  0
HATCH
  5
1C7
100
AcDbEntity
  8
Dimension
370
               0
390
0
  6
Continuous
 62
               7
100
AcDbHatch
 10
0.0
 20
0.0
 30
0.0
210
0.0
220
0.0
230
1.0
  2
SOLID
 70
               1
 71
               1
 91
        1
 92
        1
 93
        3
 72
               1
 10
1.9894999999999992
 20
3.7684196835194861
 11
1.7394999999999992
 21
3.8354069816272665
 72
               1
 10
1.7394999999999992
 20
3.8354069816272665
 11
1.9894999999999992
 21
3.9023942797350473
 72
               1
 10
1.9894999999999992
 20
3.9023942797350473
 11
1.9894999999999992
 21
3.7684196835194861
 97
        1
330
1C2
 75
               0
 76
               1
 98
        1
 10
0.0
 20
0.0
  0
WIPEOUT
  5
1C8
100
AcDbEntity
  8
Dimension
370
               5
390
0
  6
Continuous
 62
               7
 92
        0
100
AcDbWipeout
 90
        0
 10
0.7227421875000002
 20
1.4084625371828214
 30
0.0
 11
0.3861490885416665
 21
0.0
 31
0.0
 12
0.0
 22
0.3861490885416665
 32
0.0
 13
1.0
 23
1.0
340
0
 70
               7
280
               1
281
              50
282
              50
283
               0
360
0
 71
               2
 91
        5
 14
-0.5
 24
-6.1308585879873592
 14
0.5
 24
-6.1308585879873592
 14
0.5
 24
-6.8502122936424348
 14
-0.5
 24
-6.8502122936424348
 14
-0.5
 24
-6.1308585879873592
  0
MTEXT
  5
1C9
100
AcDbEntity
  8
Dimension
390
0
 62
               7
100
AcDbMText
 10
0.7227421875000002
 20
4.2321094645533348
 30
0.0
 40
0.1992580384816239
 41
0.0
 71
               1
 72
               1
  1
.09
  7
Helvetica
 73
               1
 44
0.8397955333929318
  0
LINE
  5
1CA
100
AcDbEntity
  8
Dimension
370
               5
390
0
  6
Continuous
 62
               7
100
AcDbLine
 10
4.6349999999999998
 20
0.73
 30
0.0
 11
4.6349999999999998
 21
3.7510000584079806
 31
0.0
  0
LINE
  5
1CB
100
AcDbEntity
  8
Dimension
370
               5
390
0
  6
Continuous
 62
               7
100
AcDbLine
 10
4.3644999999999996
 20
3.2650000000000001
 30
0.0
 11
4.3644999999999996
 21
3.7510000584079801
 31
0.0
  0
LINE
  5
1CC
100
AcDbEntity
  8
Dimension
370
               5
390
0
  6
Continuous
 62
               7
100
AcDbLine
 10
4.3644999999999996
 20
3.5935197434473802
 30
0.0
 11
4.6349999999999998
 21
3.5935197434473802
 31
0.0
  0
LINE
  5
1CD
100
AcDbEntity
  8
Dimension
370
               5
390
0
  6
Continuous
 62
               7
100
AcDbLine
 10
4.6349999999999998
 20
3.5935197434473802
 30
0.0
 11
5.561757812499998
 21
3.5935197434473802
 31
0.0
  0
POLYLINE
  5
1CE
102
{ACAD_REACTORS
330
1D3
102
}
100
AcDbEntity
  8
None
370
               5
390
0
  6
STYLE_09
 62
               7
100
AcDb2dPolyline
 66
               1
 10
0.0
 20
0.0
 30
0.0
 70
               1
 75
               5
  0
VERTEX
  5
1CF
100
AcDbEntity
  8
None
370
               5
390
0
  6
STYLE_09
 62
               7
100
AcDbVertex
100
AcDb2dVertex
 10
4.884999999999998
 20
3.5265324453395999
 30
0.0
  0
VERTEX
  5
1D0
100
AcDbEntity
  8
None
370
               5
390
0
  6
STYLE_09
 62
               7
100
AcDbVertex
100
AcDb2dVertex
 10
4.6349999999999998
 20
3.5935197434473802
 30
0.0
  0
VERTEX
  5
1D1
100
AcDbEntity
  8
None
370
               5
390
0
  6
STYLE_09
 62
               7
100
AcDbVertex
100
AcDb2dVertex
 10
4.884999999999998
 20
3.660507041555161
 30
0.0
  0
SEQEND
  5
1D2
100
AcDbEntity
  8
None
370
               5
390
0
  6
STYLE_09
 62
               7
  0
HATCH
  5
1D3
100
AcDbEntity
  8
Dimension
370
               0
390
0
  6
Continuous
 62
               7
100
AcDbHatch
 10
0.0
 20
0.0
 30
0.0
210
0.0
220
0.0
230
1.0
  2
SOLID
 70
               1
 71
               1
 91
        1
 92
        1
 93
        3
 72
               1
 10
4.884999999999998
 20
3.5265324453395999
 11
4.6349999999999998
 21
3.5935197434473802
 72
               1
 10
4.6349999999999998
 20
3.5935197434473802
 11
4.884999999999998
 21
3.660507041555161
 72
               1
 10
4.884999999999998
 20
3.660507041555161
 11
4.884999999999998
 21
3.5265324453395999
 97
        1
330
1CE
 75
               0
 76
               1
 98
        1
 10
0.0
 20
0.0
  0
LINE
  5
1D4
100
AcDbEntity
  8
Dimension
370
               5
390
0
  6
Continuous
 62
               7
100
AcDbLine
 10
4.3644999999999996
 20
3.5935197434473802
 30
0.0
 11
3.813318897637799
 21
3.5935197434473802
 31
0.0
  0
POLYLINE
  5
1D5
102
{ACAD_REACTORS
330
1DA
102
}
100
AcDbEntity
  8
None
370
               5
390
0
  6
STYLE_09
 62
               7
100
AcDb2dPolyline
 66
               1
 10
0.0
 20
0.0
 30
0.0
 70
               1
 75
               5
  0
VERTEX
  5
1D6
100
AcDbEntity
  8
None
370
               5
390
0
  6
STYLE_09
 62
               7
100
AcDbVertex
100
AcDb2dVertex
 10
4.1144999999999996
 20
3.660507041555161
 30
0.0
  0
VERTEX
  5
1D7
100
AcDbEntity
  8
None
370
               5
390
0
  6
STYLE_09
 62
               7
100
AcDbVertex
100
AcDb2dVertex
 10
4.3644999999999996
 20
3.5935197434473802
 30
0.0
  0
VERTEX
  5
1D8
100
AcDbEntity
  8
None
370
               5
390
0
  6
STYLE_09
 62
               7
100
AcDbVertex
100
AcDb2dVertex
 10
4.1144999999999996
 20
3.5265324453395999
 30
0.0
  0
SEQEND
  5
1D9
100
AcDbEntity
  8
None
370
               5
390
0
  6
STYLE_09
 62
               7
  0
HATCH
  5
1DA
100
AcDbEntity
  8
Dimension
370
               0
390
0
  6
Continuous
 62
               7
100
AcDbHatch
 10
0.0
 20
0.0
 30
0.0
210
0.0
220
0.0
230
1.0
  2
SOLID
 70
               1
 71
               1
 91
        1
 92
        1
 93
        3
 72
               1
 10
4.1144999999999996
 20
3.660507041555161
 11
4.3644999999999996
 21
3.5935197434473802
 72
               1
 10
4.3644999999999996
 20
3.5935197434473802
 11
4.1144999999999996
 21
3.5265324453395999
 72
               1
 10
4.1144999999999996
 20
3.5265324453395999
 11
4.1144999999999996
 21
3.660507041555161
 97
        1
330
1D5
 75
               0
 76
               1
 98
        1
 10
0.0
 20
0.0
  0
WIPEOUT
  5
1DB
100
AcDbEntity
  8
Dimension
370
               5
390
0
  6
Continuous
 62
               7
 92
        0
100
AcDbWipeout
 90
        0
 10
5.098378906249998
 20
1.1665752990029361
 30
0.0
 11
0.3861490885416671
 21
0.0
 31
0.0
 12
0.0
 22
0.3861490885416671
 32
0.0
 13
1.0
 23
1.0
340
0
 70
               7
280
               1
281
              50
282
              50
283
               0
360
0
 71
               2
 91
        5
 14
-0.5
 24
-6.1308585879873503
 14
0.500000000000002
 24
-6.1308585879873503
 14
0.500000000000002
 24
-6.8502122936424232
 14
-0.5
 24
-6.8502122936424232
 14
-0.5
 24
-6.1308585879873503
  0
MTEXT
  5
1DC
100
AcDbEntity
  8
Dimension
390
0
 62
               7
100
AcDbMText
 10
5.098378906249998
 20
3.9902222263734495
 30
0.0
 40
0.1992580384816239
 41
0.0
 71
               1
 72
               1
  1
.27
  7
Helvetica
 73
               1
 44
0.8397955333929318
  0
LINE
  5
1DD
100
AcDbEntity
  8
Dimension
370
               5
390
0
  6
Continuous
 62
               7
100
AcDbLine
 10
0.0
 20
-0.5147499999999999
 30
0.0
 11
0.0
 21
-4.9574803149606002
 31
0.0
  0
LINE
  5
1DE
100
AcDbEntity
  8
Dimension
370
               5
390
0
  6
Continuous
 62
               7
100
AcDbLine
 10
4.6349999999999998
 20
-0.73
 30
0.0
 11
4.6349999999999998
 21
-4.957480314960601
 31
0.0
  0
LINE
  5
1DF
100
AcDbEntity
  8
Dimension
370
               5
390
0
  6
Continuous
 62
               7
100
AcDbLine
 10
0.0
 20
-4.8000000000000007
 30
0.0
 11
4.6349999999999998
 21
-4.8000000000000007
 31
0.0
  0
POLYLINE
  5
1E0
102
{ACAD_REACTORS
330
1E5
102
}
100
AcDbEntity
  8
None
370
               5
390
0
  6
STYLE_09
 62
               7
100
AcDb2dPolyline
 66
               1
 10
0.0
 20
0.0
 30
0.0
 70
               1
 75
               5
  0
VERTEX
  5
1E1
100
AcDbEntity
  8
None
370
               5
390
0
  6
STYLE_09
 62
               7
100
AcDbVertex
100
AcDb2dVertex
 10
0.2499999999999996
 20
-4.8669872981077811
 30
0.0
  0
VERTEX
  5
1E2
100
AcDbEntity
  8
None
370
               5
390
0
  6
STYLE_09
 62
               7
100
AcDbVertex
100
AcDb2dVertex
 10
0.0
 20
-4.8000000000000007
 30
0.0
  0
VERTEX
  5
1E3
100
AcDbEntity
  8
None
370
               5
390
0
  6
STYLE_09
 62
               7
100
AcDbVertex
100
AcDb2dVertex
 10
0.2499999999999996
 20
-4.7330127018922195
 30
0.0
  0
SEQEND
  5
1E4
100
AcDbEntity
  8
None
370
               5
390
0
  6
STYLE_09
 62
               7
  0
HATCH
  5
1E5
100
AcDbEntity
  8
Dimension
370
               0
390
0
  6
Continuous
 62
               7
100
AcDbHatch
 10
0.0
 20
0.0
 30
0.0
210
0.0
220
0.0
230
1.0
  2
SOLID
 70
               1
 71
               1
 91
        1
 92
        1
 93
        3
 72
               1
 10
0.2499999999999996
 20
-4.8669872981077811
 11
0.0
 21
-4.8000000000000007
 72
               1
 10
0.0
 20
-4.8000000000000007
 11
0.2499999999999996
 21
-4.7330127018922195
 72
               1
 10
0.2499999999999996
 20
-4.7330127018922195
 11
0.2499999999999996
 21
-4.8669872981077811
 97
        1
330
1E0
 75
               0
 76
               1
 98
        1
 10
0.0
 20
0.0
  0
POLYLINE
  5
1E6
102
{ACAD_REACTORS
330
1EB
102
}
100
AcDbEntity
  8
None
370
               5
390
0
  6
STYLE_09
 62
               7
100
AcDb2dPolyline
 66
               1
 10
0.0
 20
0.0
 30
0.0
 70
               1
 75
               5
  0
VERTEX
  5
1E7
100
AcDbEntity
  8
None
370
               5
390
0
  6
STYLE_09
 62
               7
100
AcDbVertex
100
AcDb2dVertex
 10
4.3849999999999998
 20
-4.7330127018922195
 30
0.0
  0
VERTEX
  5
1E8
100
AcDbEntity
  8
None
370
               5
390
0
  6
STYLE_09
 62
               7
100
AcDbVertex
100
AcDb2dVertex
 10
4.6349999999999998
 20
-4.8000000000000007
 30
0.0
  0
VERTEX
  5
1E9
100
AcDbEntity
  8
None
370
               5
390
0
  6
STYLE_09
 62
               7
100
AcDbVertex
100
AcDb2dVertex
 10
4.3849999999999998
 20
-4.8669872981077811
 30
0.0
  0
SEQEND
  5
1EA
100
AcDbEntity
  8
None
370
               5
390
0
  6
STYLE_09
 62
               7
  0
HATCH
  5
1EB
100
AcDbEntity
  8
Dimension
370
               0
390
0
  6
Continuous
 62
               7
100
AcDbHatch
 10
0.0
 20
0.0
 30
0.0
210
0.0
220
0.0
230
1.0
  2
SOLID
 70
               1
 71
               1
 91
        1
 92
        1
 93
        3
 72
               1
 10
4.3849999999999998
 20
-4.7330127018922195
 11
4.6349999999999998
 21
-4.8000000000000007
 72
               1
 10
4.6349999999999998
 20
-4.8000000000000007
 11
4.3849999999999998
 21
-4.8669872981077811
 72
               1
 10
4.3849999999999998
 20
-4.8669872981077811
 11
4.3849999999999998
 21
-4.7330127018922195
 97
        1
330
1E6
 75
               0
 76
               1
 98
        1
 10
0.0
 20
0.0
  0
WIPEOUT
  5
1EC
100
AcDbEntity
  8
Dimension
370
               5
390
0
  6
Continuous
 62
               7
 92
        0
100
AcDbWipeout
 90
        0
 10
1.9004264322916655
 20
-7.2269444444444453
 30
0.0
 11
0.6951226128472222
 21
0.0
 31
0.0
 12
0.0
 22
0.6951226128472222
 32
0.0
 13
1.0
 23
1.0
340
0
 70
               7
280
               1
281
              50
282
              50
283
               0
360
0
 71
               2
 91
        5
 14
-0.5
 24
-3.1835228097560981
 14
0.5000000000000002
 24
-3.1835228097560981
 14
0.5000000000000002
 24
-3.5831325658536599
 14
-0.5
 24
-3.5831325658536599
 14
-0.5
 24
-3.1835228097560981
  0
MTEXT
  5
1ED
100
AcDbEntity
  8
Dimension
390
0
 62
               7
100
AcDbMText
 10
1.9004264322916655
 20
-4.4032975170739324
 30
0.0
 40
0.1992580384816239
 41
0.0
 71
               1
 72
               1
  1
4.635
  7
Helvetica
 73
               1
 44
0.8397955333929318
  0
LINE
  5
1EE
100
AcDbEntity
  8
Dimension
370
               5
390
0
  6
Continuous
 62
               7
100
AcDbLine
 10
-8.3352550065296676
 20
-0.14
 30
0.0
 11
-8.3352550065296676
 21
-4.5104803149606019
 31
0.0
  0
LINE
  5
1EF
100
AcDbEntity
  8
Dimension
370
               5
390
0
  6
Continuous
 62
               7
100
AcDbLine
 10
-7.698500000000001
 20
-0.234
 30
0.0
 11
-7.698500000000001
 21
-4.5104803149606019
 31
0.0
  0
LINE
  5
1F0
100
AcDbEntity
  8
Dimension
370
               5
390
0
  6
Continuous
 62
               7
100
AcDbLine
 10
-7.698500000000001
 20
-4.3530000000000015
 30
0.0
 11
-8.3352550065296676
 21
-4.3530000000000015
 31
0.0
  0
LINE
  5
1F1
100
AcDbEntity
  8
Dimension
370
               5
390
0
  6
Continuous
 62
               7
100
AcDbLine
 10
-8.3352550065296676
 20
-4.3530000000000015
 30
0.0
 11
-8.8864361088918677
 21
-4.3530000000000015
 31
0.0
  0
POLYLINE
  5
1F2
102
{ACAD_REACTORS
330
1F7
102
}
100
AcDbEntity
  8
None
370
               5
390
0
  6
STYLE_09
 62
               7
100
AcDb2dPolyline
 66
               1
 10
0.0
 20
0.0
 30
0.0
 70
               1
 75
               5
  0
VERTEX
  5
1F3
100
AcDbEntity
  8
None
370
               5
390
0
  6
STYLE_09
 62
               7
100
AcDbVertex
100
AcDb2dVertex
 10
-8.5852550065296676
 20
-4.2860127018922203
 30
0.0
  0
VERTEX
  5
1F4
100
AcDbEntity
  8
None
370
               5
390
0
  6
STYLE_09
 62
               7
100
AcDbVertex
100
AcDb2dVertex
 10
-8.3352550065296676
 20
-4.3530000000000015
 30
0.0
  0
VERTEX
  5
1F5
100
AcDbEntity
  8
None
370
               5
390
0
  6
STYLE_09
 62
               7
100
AcDbVertex
100
AcDb2dVertex
 10
-8.5852550065296676
 20
-4.4199872981077819
 30
0.0
  0
SEQEND
  5
1F6
100
AcDbEntity
  8
None
370
               5
390
0
  6
STYLE_09
 62
               7
  0
HATCH
  5
1F7
100
AcDbEntity
  8
Dimension
370
               0
390
0
  6
Continuous
 62
               7
100
AcDbHatch
 10
0.0
 20
0.0
 30
0.0
210
0.0
220
0.0
230
1.0
  2
SOLID
 70
               1
 71
               1
 91
        1
 92
        1
 93
        3
 72
               1
 10
-8.5852550065296676
 20
-4.2860127018922203
 11
-8.3352550065296676
 21
-4.3530000000000015
 72
               1
 10
-8.3352550065296676
 20
-4.3530000000000015
 11
-8.5852550065296676
 21
-4.4199872981077819
 72
               1
 10
-8.5852550065296676
 20
-4.4199872981077819
 11
-8.5852550065296676
 21
-4.2860127018922203
 97
        1
330
1F2
 75
               0
 76
               1
 98
        1
 10
0.0
 20
0.0
  0
LINE
  5
1F8
100
AcDbEntity
  8
Dimension
370
               5
390
0
  6
Continuous
 62
               7
100
AcDbLine
 10
-7.698500000000001
 20
-4.3530000000000015
 30
0.0
 11
-6.5312369791666676
 21
-4.3530000000000015
 31
0.0
  0
POLYLINE
  5
1F9
102
{ACAD_REACTORS
330
1FE
102
}
100
AcDbEntity
  8
None
370
               5
390
0
  6
STYLE_09
 62
               7
100
AcDb2dPolyline
 66
               1
 10
0.0
 20
0.0
 30
0.0
 70
               1
 75
               5
  0
VERTEX
  5
1FA
100
AcDbEntity
  8
None
370
               5
390
0
  6
STYLE_09
 62
               7
100
AcDbVertex
100
AcDb2dVertex
 10
-7.448500000000001
 20
-4.4199872981077819
 30
0.0
  0
VERTEX
  5
1FB
100
AcDbEntity
  8
None
370
               5
390
0
  6
STYLE_09
 62
               7
100
AcDbVertex
100
AcDb2dVertex
 10
-7.698500000000001
 20
-4.3530000000000015
 30
0.0
  0
VERTEX
  5
1FC
100
AcDbEntity
  8
None
370
               5
390
0
  6
STYLE_09
 62
               7
100
AcDbVertex
100
AcDb2dVertex
 10
-7.448500000000001
 20
-4.2860127018922203
 30
0.0
  0
SEQEND
  5
1FD
100
AcDbEntity
  8
None
370
               5
390
0
  6
STYLE_09
 62
               7
  0
HATCH
  5
1FE
100
AcDbEntity
  8
Dimension
370
               0
390
0
  6
Continuous
 62
               7
100
AcDbHatch
 10
0.0
 20
0.0
 30
0.0
210
0.0
220
0.0
230
1.0
  2
SOLID
 70
               1
 71
               1
 91
        1
 92
        1
 93
        3
 72
               1
 10
-7.448500000000001
 20
-4.4199872981077819
 11
-7.698500000000001
 21
-4.3530000000000015
 72
               1
 10
-7.698500000000001
 20
-4.3530000000000015
 11
-7.448500000000001
 21
-4.2860127018922203
 72
               1
 10
-7.448500000000001
 20
-4.2860127018922203
 11
-7.448500000000001
 21
-4.4199872981077819
 97
        1
330
1F9
 75
               0
 76
               1
 98
        1
 10
0.0
 20
0.0
  0
WIPEOUT
  5
1FF
100
AcDbEntity
  8
Dimension
370
               5
390
0
  6
Continuous
 62
               7
 92
        0
100
AcDbWipeout
 90
        0
 10
-7.1799999999999997
 20
-6.4049444444444461
 30
0.0
 11
0.5406358506944443
 21
0.0
 31
0.0
 12
0.0
 22
0.5406358506944443
 32
0.0
 13
1.0
 23
1.0
340
0
 70
               7
280
               1
281
              50
282
              50
283
               0
360
0
 71
               2
 91
        5
 14
-0.5
 24
-4.2360899147014575
 14
0.4999999999999973
 24
-4.2360899147014575
 14
0.4999999999999973
 24
-4.7498882087305603
 14
-0.5
 24
-4.7498882087305603
 14
-0.5
 24
-4.2360899147014575
  0
MTEXT
  5
200
100
AcDbEntity
  8
Dimension
390
0
 62
               7
100
AcDbMText
 10
-7.1799999999999997
 20
-3.5812975170739327
 30
0.0
 40
0.1992580384816239
 41
0.0
 71
               1
 72
               1
  1
.642
  7
Helvetica
 73
               1
 44
0.8397955333929318
  0
WIPEOUT
  5
201
100
AcDbEntity
  8
Dimension
370
               5
390
0
  6
Continuous
 62
               7
 92
        0
100
AcDbWipeout
 90
        0
 10
-7.1799999999999997
 20
-6.8216111111111122
 30
0.0
 11
0.5406358506944443
 21
0.0
 31
0.0
 12
0.0
 22
0.5406358506944443
 32
0.0
 13
1.0
 23
1.0
340
0
 70
               7
280
               1
281
              50
282
              50
283
               0
360
0
 71
               2
 91
        5
 14
-0.5
 24
-4.2360899147014566
 14
0.4999999999999973
 24
-4.2360899147014566
 14
0.4999999999999973
 24
-4.7498882087305594
 14
-0.5
 24
-4.7498882087305594
 14
-0.5
 24
-4.2360899147014566
  0
MTEXT
  5
202
100
AcDbEntity
  8
Dimension
390
0
 62
               7
100
AcDbMText
 10
-7.1799999999999997
 20
-3.9979641837405993
 30
0.0
 40
0.1992580384816239
 41
0.0
 71
               1
 72
               1
  1
.632
  7
Helvetica
 73
               1
 44
0.8397955333929318
  0
LINE
  5
203
100
AcDbEntity
  8
Dimension
370
               5
390
0
  6
Continuous
 62
               7
100
AcDbLine
 10
1.5619999999999998
 20
0.7300000000000001
 30
0.0
 11
1.5619999999999998
 21
2.3194803149605998
 31
0.0
  0
LINE
  5
204
100
AcDbEntity
  8
Dimension
370
               5
390
0
  6
Continuous
 62
               7
100
AcDbLine
 10
1.6494999999999993
 20
1.9524998999999998
 30
0.0
 11
1.6494999999999993
 21
2.3194803149605994
 31
0.0
  0
LINE
  5
205
100
AcDbEntity
  8
Dimension
370
               5
390
0
  6
Continuous
 62
               7
100
AcDbLine
 10
1.6494999999999993
 20
2.1619999999999995
 30
0.0
 11
1.5619999999999998
 21
2.1619999999999995
 31
0.0
  0
LINE
  5
206
100
AcDbEntity
  8
Dimension
370
               5
390
0
  6
Continuous
 62
               7
100
AcDbLine
 10
1.5619999999999998
 20
2.1619999999999995
 30
0.0
 11
0.3366210937499994
 21
2.1619999999999995
 31
0.0
  0
POLYLINE
  5
207
102
{ACAD_REACTORS
330
20C
102
}
100
AcDbEntity
  8
None
370
               5
390
0
  6
STYLE_09
 62
               7
100
AcDb2dPolyline
 66
               1
 10
0.0
 20
0.0
 30
0.0
 70
               1
 75
               5
  0
VERTEX
  5
208
100
AcDbEntity
  8
None
370
               5
390
0
  6
STYLE_09
 62
               7
100
AcDbVertex
100
AcDb2dVertex
 10
1.3119999999999998
 20
2.2289872981077803
 30
0.0
  0
VERTEX
  5
209
100
AcDbEntity
  8
None
370
               5
390
0
  6
STYLE_09
 62
               7
100
AcDbVertex
100
AcDb2dVertex
 10
1.5619999999999998
 20
2.1619999999999995
 30
0.0
  0
VERTEX
  5
20A
100
AcDbEntity
  8
None
370
               5
390
0
  6
STYLE_09
 62
               7
100
AcDbVertex
100
AcDb2dVertex
 10
1.3119999999999998
 20
2.0950127018922191
 30
0.0
  0
SEQEND
  5
20B
100
AcDbEntity
  8
None
370
               5
390
0
  6
STYLE_09
 62
               7
  0
HATCH
  5
20C
100
AcDbEntity
  8
Dimension
370
               0
390
0
  6
Continuous
 62
               7
100
AcDbHatch
 10
0.0
 20
0.0
 30
0.0
210
0.0
220
0.0
230
1.0
  2
SOLID
 70
               1
 71
               1
 91
        1
 92
        1
 93
        3
 72
               1
 10
1.3119999999999998
 20
2.2289872981077803
 11
1.5619999999999998
 21
2.1619999999999995
 72
               1
 10
1.5619999999999998
 20
2.1619999999999995
 11
1.3119999999999998
 21
2.0950127018922191
 72
               1
 10
1.3119999999999998
 20
2.0950127018922191
 11
1.3119999999999998
 21
2.2289872981077803
 97
        1
330
207
 75
               0
 76
               1
 98
        1
 10
0.0
 20
0.0
  0
LINE
  5
20D
100
AcDbEntity
  8
Dimension
370
               5
390
0
  6
Continuous
 62
               7
100
AcDbLine
 10
1.6494999999999993
 20
2.1619999999999995
 30
0.0
 11
2.2006811023621995
 21
2.1619999999999995
 31
0.0
  0
POLYLINE
  5
20E
102
{ACAD_REACTORS
330
213
102
}
100
AcDbEntity
  8
None
370
               5
390
0
  6
STYLE_09
 62
               7
100
AcDb2dPolyline
 66
               1
 10
0.0
 20
0.0
 30
0.0
 70
               1
 75
               5
  0
VERTEX
  5
20F
100
AcDbEntity
  8
None
370
               5
390
0
  6
STYLE_09
 62
               7
100
AcDbVertex
100
AcDb2dVertex
 10
1.8994999999999993
 20
2.0950127018922191
 30
0.0
  0
VERTEX
  5
210
100
AcDbEntity
  8
None
370
               5
390
0
  6
STYLE_09
 62
               7
100
AcDbVertex
100
AcDb2dVertex
 10
1.6494999999999993
 20
2.1619999999999995
 30
0.0
  0
VERTEX
  5
211
100
AcDbEntity
  8
None
370
               5
390
0
  6
STYLE_09
 62
               7
100
AcDbVertex
100
AcDb2dVertex
 10
1.8994999999999993
 20
2.2289872981077803
 30
0.0
  0
SEQEND
  5
212
100
AcDbEntity
  8
None
370
               5
390
0
  6
STYLE_09
 62
               7
  0
HATCH
  5
213
100
AcDbEntity
  8
Dimension
370
               0
390
0
  6
Continuous
 62
               7
100
AcDbHatch
 10
0.0
 20
0.0
 30
0.0
210
0.0
220
0.0
230
1.0
  2
SOLID
 70
               1
 71
               1
 91
        1
 92
        1
 93
        3
 72
               1
 10
1.8994999999999993
 20
2.0950127018922191
 11
1.6494999999999993
 21
2.1619999999999995
 72
               1
 10
1.6494999999999993
 20
2.1619999999999995
 11
1.8994999999999993
 21
2.2289872981077803
 72
               1
 10
1.8994999999999993
 20
2.2289872981077803
 11
1.8994999999999993
 21
2.0950127018922191
 97
        1
330
20E
 75
               0
 76
               1
 98
        1
 10
0.0
 20
0.0
  0
WIPEOUT
  5
214
100
AcDbEntity
  8
Dimension
370
               5
390
0
  6
Continuous
 62
               7
 92
        0
100
AcDbWipeout
 90
        0
 10
0.3366210937499994
 20
-0.2649444444444451
 30
0.0
 11
0.3861490885416665
 21
0.0
 31
0.0
 12
0.0
 22
0.3861490885416665
 32
0.0
 13
1.0
 23
1.0
340
0
 70
               7
280
               1
281
              50
282
              50
283
               0
360
0
 71
               2
 91
        5
 14
-0.5
 24
-6.1308585879873592
 14
0.5
 24
-6.1308585879873592
 14
0.5
 24
-6.8502122936424357
 14
-0.5
 24
-6.8502122936424357
 14
-0.5
 24
-6.1308585879873592
  0
MTEXT
  5
215
100
AcDbEntity
  8
Dimension
390
0
 62
               7
100
AcDbMText
 10
0.3366210937499994
 20
2.5587024829260683
 30
0.0
 40
0.1992580384816239
 41
0.0
 71
               1
 72
               1
  1
.09
  7
Helvetica
 73
               1
 44
0.8397955333929318
  0
WIPEOUT
  5
216
100
AcDbEntity
  8
None
370
               5
390
0
  6
Continuous
 62
               7
 92
        0
100
AcDbWipeout
 90
        0
 10
0.0430853990205278
 20
-1.1449147831761302
 30
0.0
 11
1.1272515190972228
 21
0.0
 31
0.0
 12
0.0
 22
1.1272515190972228
 32
0.0
 13
1.0
 23
1.0
340
0
 70
               7
280
               1
281
              50
282
              50
283
               0
360
0
 71
               2
 91
        5
 14
-0.5
 24
-1.771454024786427
 14
0.5
 24
-1.771454024786427
 14
0.5
 24
-2.2642948381662853
 14
-0.5
 24
-2.2642948381662853
 14
-0.5
 24
-1.771454024786427
  0
MTEXT
  5
217
100
AcDbEntity
  8
None
390
0
 62
               7
100
AcDbMText
 10
0.6067111585691394
 20
1.9565099219721613
 30
0.0
 40
0.1992580384816239
 41
0.0
 71
               2
 72
               1
  1
x Ø1.181\PSHAFT
  7
Helvetica
 73
               1
 44
0.8397955333929318
  0
WIPEOUT
  5
218
100
AcDbEntity
  8
None
370
               5
390
0
  6
Continuous
 62
               7
 92
        0
100
AcDbWipeout
 90
        0
 10
2.4625651041666692
 20
-1.6216111111111116
 30
0.0
 11
0.8957248263888887
 21
0.0
 31
0.0
 12
0.0
 22
0.8957248263888887
 32
0.0
 13
1.0
 23
1.0
340
0
 70
               7
280
               1
281
              50
282
              50
283
               0
360
0
 71
               2
 91
        5
 14
-0.5
 24
-2.3585788007268333
 14
0.4999999999999997
 24
-2.3585788007268333
 14
0.4999999999999997
 24
-2.6686938824954591
 14
-0.5
 24
-2.6686938824954591
 14
-0.5
 24
-2.3585788007268333
  0
MTEXT
  5
219
100
AcDbEntity
  8
None
390
0
 62
               7
100
AcDbMText
 10
2.4625651041666692
 20
1.202035816259402
 30
0.0
 40
0.1992580384816239
 41
0.0
 71
               1
 72
               1
  1
B220-1
  7
Helvetica
 73
               1
 44
0.8397955333929318
  0
WIPEOUT
  5
21A
100
AcDbEntity
  8
None
370
               5
390
0
  6
Continuous
 62
               7
 92
        0
100
AcDbWipeout
 90
        0
 10
-9.9374348958333325
 20
-0.5716111111111113
 30
0.0
 11
0.8957248263888887
 21
0.0
 31
0.0
 12
0.0
 22
0.8957248263888887
 32
0.0
 13
1.0
 23
1.0
340
0
 70
               7
280
               1
281
              50
282
              50
283
               0
360
0
 71
               2
 91
        5
 14
-0.5
 24
-2.3585788007268333
 14
0.4999999999999987
 24
-2.3585788007268333
 14
0.4999999999999987
 24
-2.6686938824954587
 14
-0.5
 24
-2.6686938824954587
 14
-0.5
 24
-2.3585788007268333
  0
MTEXT
  5
21B
100
AcDbEntity
  8
None
390
0
 62
               7
100
AcDbMText
 10
-9.9374348958333325
 20
2.2520358162594025
 30
0.0
 40
0.1992580384816239
 41
0.0
 71
               1
 72
               1
  1
B220-1
  7
Helvetica
 73
               1
 44
0.8397955333929318
  0
WIPEOUT
  5
21C
100
AcDbEntity
  8
None
370
               5
390
0
  6
Continuous
 62
               7
 92
        0
100
AcDbWipeout
 90
        0
 10
-5.6000042034468231
 20
1.4457098921115299
 30
0.0
 11
0.9109157986111112
 21
0.0
 31
0.0
 12
0.0
 22
0.9109157986111112
 32
0.0
 13
1.0
 23
1.0
340
0
 70
               7
280
               1
281
              50
282
              50
283
               0
360
0
 71
               2
 91
        5
 14
-0.5
 24
-2.3109074449076838
 14
0.5000000000000004
 24
-2.3109074449076838
 14
0.5000000000000004
 24
-2.9207942823109008
 14
-0.5
 24
-2.9207942823109008
 14
-0.5
 24
-2.3109074449076838
  0
MTEXT
  5
21D
100
AcDbEntity
  8
None
390
0
 62
               7
100
AcDbMText
 10
-5.6000042034468231
 20
4.5471345972598209
 30
0.0
 40
0.1992580384816239
 41
0.0
 71
               1
 72
               1
  1
12"\PLEADS
  7
Helvetica
 73
               1
 44
0.8397955333929318
  0
WIPEOUT
  5
21E
100
AcDbEntity
  8
None
370
               5
390
0
  6
Continuous
 62
               7
 92
        0
100
AcDbWipeout
 90
        0
 10
-10.9500000000000011
 20
-6.4160555555555572
 30
0.0
 11
1.7523871527777775
 21
0.0
 31
0.0
 12
0.0
 22
1.7523871527777775
 32
0.0
 13
1.0
 23
1.0
340
0
 70
               7
280
               1
281
              50
282
              50
283
               0
360
0
 71
               2
 91
        5
 14
-0.5
 24
-0.96114972136223
 14
0.4999999999999997
 24
-0.96114972136223
 14
0.4999999999999997
 24
-1.1196636532507749
 14
-0.5
 24
-1.1196636532507749
 14
-0.5
 24
-0.96114972136223
  0
MTEXT
  5
21F
100
AcDbEntity
  8
None
390
0
 62
               7
100
AcDbMText
 10
-10.9500000000000011
 20
-3.5924086281850434
 30
0.0
 40
0.1992580384816239
 41
0.0
 71
               1
 72
               1
  1
Units = inches
  7
Helvetica
 73
               1
 44
0.8397955333929318
  0
DIMENSION
  5
220
100
AcDbEntity
  8
Dimension
370
               5
390
0
  6
Continuous
 62
               7
100
AcDbDimension
  2
*D3
 10
-8.4968856111691284
 20
0.2457447377477709
 30
0.0
 11
-4.1267100033705031
 21
-1.5399999999999996
 31
0.0
 70
               3
 71
               5
 72
               1
 41
1.0
 42
0.0
  3
PLACID 14
100
AcDbDiametricDimension
 15
-7.4241143888308727
 25
-0.2457447377477712
 35
0.0
 40
3.1073324772983484
1001
ACAD
1000
DSTYLE
1002
{
1070
             271
1070
               2
1070
             172
1070
               0
1070
             289
1070
               0
1070
             342
1005
38
1070
             340
1005
28
1070
              73
1070
               1
1070
              74
1070
               1
1070
              75
1070
               1
1070
              76
1070
               1
1070
               3
1000

1070
             174
1070
               0
1070
             147
1040
0.078
1002
}
  0
DIMENSION
  5
221
100
AcDbEntity
  8
Dimension
370
               5
390
0
  6
Continuous
 62
               7
100
AcDbDimension
  2
*D4
 10
-8.8544996552792661
 20
1.5766802645693738
 30
0.0
 11
-5.6475590551182
 21
-3.2459520647504618
 31
0.0
 70
               3
 71
               5
 72
               1
 41
1.0
 42
0.0
  3
PLACID 14
100
AcDbDiametricDimension
 15
-7.0665003447207351
 25
-1.5766802645693738
 35
0.0
 40
1.9189401359699261
1001
ACAD
1000
DSTYLE
1002
{
1070
             271
1070
               3
1070
             172
1070
               0
1070
             289
1070
               0
1070
             342
1005
38
1070
             340
1005
28
1070
              73
1070
               1
1070
              74
1070
               1
1070
              75
1070
               1
1070
              76
1070
               1
1070
              72
1070
               1
1070
              48
1040
0.003
1070
               3
1000

1070
             174
1070
               0
1070
             147
1040
0.078
1002
}
  0
ENDSEC
  0
SECTION
  2
OBJECTS
  0
DICTIONARY
  5
19
100
AcDbDictionary
280
               0
281
               1
  3
ACAD_GROUP
350
1A
  3
ACAD_MLINESTYLE
350
1B
  3
ACAD_LAYOUT
350
1E
  3
ACAD_PLOTSETTINGS
350
22
  3
ACAD_PLOTSTYLENAME
350
1F
  3
ACAD_WIPEOUT_VARS
350
23
  0
DICTIONARY
  5
1A
102
{ACAD_REACTORS
330
19
102
}
100
AcDbDictionary
280
               0
281
               1
  0
DICTIONARY
  5
1B
102
{ACAD_REACTORS
330
19
102
}
100
AcDbDictionary
280
               0
281
               1
  3
Standard
350
1C
  0
MLINESTYLE
  5
1C
102
{ACAD_REACTORS
330
1B
102
}
100
AcDbMlineStyle
  2
Standard
 70
               0
  3

 62
               0
 51
90.0
 52
90.0
 71
               2
 49
0.5
 62
             256
  6
ByLayer
 49
-0.5
 62
             256
  6
ByLayer
  0
ACDBDICTIONARYWDFLT
  5
1F
102
{ACAD_REACTORS
330
19
102
}
100
AcDbDictionary
281
               1
  3
Normal
350
1D
100
AcDbDictionaryWithDefault
340
1D
  0
ACDBPLACEHOLDER
  5
1D
102
{ACAD_REACTORS
330
1F
102
}
  0
LAYOUT
  5
20
102
{ACAD_REACTORS
330
1E
102
}
100
AcDbPlotSettings
  1

  2

  4

  6

 40
0.0
 41
0.0
 42
0.0
 43
0.0
 44
0.0
 45
0.0
 46
0.0
 47
0.0
 48
0.0
 49
0.0
140
0.0
141
0.0
142
1.0
143
1.0
 70
            1024
 72
               0
 73
               0
 74
               0
  7

 75
               0
147
1.0
148
0.0
149
0.0
100
AcDbLayout
  1
Model
 70
               0
 71
               0
 10
0.0
 20
0.0
 11
0.0
 21
0.0
 12
0.0
 22
0.0
 32
0.0
 14
0.0
 24
0.0
 34
0.0
 15
0.0
 25
0.0
 35
0.0
146
0.0
 13
0.0
 23
0.0
 33
0.0
 16
0.0
 26
0.0
 36
0.0
 17
0.0
 27
0.0
 37
0.0
 76
               0
330
A
331
0
345
0
346
0
  0
LAYOUT
  5
21
102
{ACAD_REACTORS
330
1E
102
}
100
AcDbPlotSettings
  1

  2

  4

  6

 40
0.0
 41
0.0
 42
0.0
 43
0.0
 44
0.0
 45
0.0
 46
0.0
 47
0.0
 48
0.0
 49
0.0
140
0.0
141
0.0
142
1.0
143
1.0
 70
               0
 72
               0
 73
               0
 74
               0
  7

 75
               0
147
1.0
148
0.0
149
0.0
100
AcDbLayout
  1
Layout1
 70
               0
 71
               0
 10
0.0
 20
0.0
 11
0.0
 21
0.0
 12
0.0
 22
0.0
 32
0.0
 14
0.0
 24
0.0
 34
0.0
 15
0.0
 25
0.0
 35
0.0
146
0.0
 13
0.0
 23
0.0
 33
0.0
 16
0.0
 26
0.0
 36
0.0
 17
0.0
 27
0.0
 37
0.0
 76
               0
330
B
331
0
345
0
346
0
  0
DICTIONARY
  5
1E
102
{ACAD_REACTORS
330
19
102
}
100
AcDbDictionary
280
               0
281
               1
  3
Layout1
350
21
  3
Model
350
20
  0
DICTIONARY
  5
22
102
{ACAD_REACTORS
330
19
102
}
100
AcDbDictionary
280
               0
281
               1
  0
WIPEOUTVARIABLES
  5
23
100
AcDbWipeoutVariables
 70
               0
  0
ENDSEC
  0
EOF
